osu file format v14

[General]
AudioFilename: audio.mp3
AudioLeadIn: 0
PreviewTime: 113504
Countdown: 0
SampleSet: Soft
StackLeniency: 0.3
Mode: 0
LetterboxInBreaks: 0
EpilepsyWarning: 1
WidescreenStoryboard: 1
SamplesMatchPlaybackRate: 1

[Editor]
Bookmarks: 19218,27789,44932,62075,70646,87789,104932,113504,130646,141361,175646,184218
DistanceSpacing: 1
BeatDivisor: 8
GridSize: 32
TimelineZoom: 4.399998

[Metadata]
Title:Marunouchi Sadistic (neetskills remix)
TitleUnicode:丸ノ内サディスティック (neetskills remix)
Artist:Sheena Ringo
ArtistUnicode:椎名林檎
Creator:-Mikan
Version:Nirvana
Source:
Tags:Pentori toybot vikala Sing Axarious Djulus -MikanMyMommy MikanMyMommy Ducky- MRL Yumiko Shiina Shina 椎名 裕美子 Tokyo Jihen Incidents 東京事変 tech japanese english jazz woob electronic jpop pop
BeatmapID:2351364
BeatmapSetID:1125370

[Difficulty]
HPDrainRate:6
CircleSize:4
OverallDifficulty:9
ApproachRate:9.6
SliderMultiplier:2.1
SliderTickRate:1

[Events]
//Background and Video events
0,0,"main_visual_momoco-ex-pc.jpg",0,0
//Break Periods
//Storyboard Layer 0 (Background)
Sprite,Background,Centre,"sb\dot.png",0,240 F,0,113353,,0.6 C,0,113353,,200,0,0 V,0,113353,,25,480 P,0,113353,,A F,19,113503,,0.6,0.9 F,18,113503,,0.9,0.6 V,19,113503,,25,480,32.5,624 V,18,113503,,32.5,624,25,480 MX,0,113503,113569,57.04545,202.2878 F,19,113503,113637,0.6,0.9 V,19,113503,113637,25,480,32.5,624 MX,0,113569,113636,202.2878,154.2207 MX,0,113636,113703,154.2207,57.04545 F,18,113637,113771,0.9,0.6 V,18,113637,113771,32.5,624,25,480 MX,0,113703,113503,57.04545,294 MX,0,113703,113771,57.04545,245 MX,0,113771,113837,245,257.8064 F,19,113771,113838,0.6,0.9 V,19,113771,113838,25,480,32.5,624 MX,0,113837,113905,257.8064,160 F,18,113838,113905,0.9,0.6 V,18,113838,113905,32.5,624,25,480 MX,0,113905,113971,160,147.1936 F,19,113905,113972,0.6,0.9 V,19,113905,113972,25,480,32.5,624 MX,0,113971,114039,147.1936,223 F,18,113972,114039,0.9,0.6 V,18,113972,114039,32.5,624,25,480 F,19,114039,114106,0.6,0.9 V,19,114039,114106,25,480,37.5,720 MX,0,114039,114173,223,449 F,18,114106,114173,0.9,0.6 V,18,114106,114173,37.5,720,25,480 MX,0,114173,114239,449,387.8453 F,19,114173,114373,0.6,0.9 V,19,114173,114373,25,480,32.5,624 MX,0,114239,114306,387.8453,325.9528 MX,0,114306,114373,325.9528,387.8453 MX,0,114373,114440,387.8453,449 F,18,114373,114574,0.9,0.6 V,18,114373,114574,32.5,624,25,480 MX,0,114440,114574,449,553 MX,0,114574,114640,553,563.561 F,19,114574,114641,0.6,0.9 V,19,114574,114641,25,480,32.5,624 MX,0,114640,114708,563.561,476 F,18,114641,114708,0.9,0.6 V,18,114641,114708,32.5,624,25,480 MX,0,114708,114774,476,486.561 F,19,114708,114775,0.6,0.9 V,19,114708,114775,25,480,32.5,624 MX,0,114774,114842,486.561,400 F,18,114775,114842,0.9,0.6 V,18,114775,114842,32.5,624,25,480 F,19,114842,114909,0.6,0.9 V,19,114842,114909,25,480,37.5,720 MX,0,114842,114976,400,302 F,18,114909,114976,0.9,0.6 V,18,114909,114976,37.5,720,25,480 MX,0,114976,115042,302,310.1238 F,19,114976,115043,0.6,0.9 V,19,114976,115043,25,480,32.5,624 MX,0,115042,115110,310.1238,225 F,18,115043,115110,0.9,0.6 V,18,115043,115110,32.5,624,25,480 MX,0,115110,115176,225,233.1239 F,19,115110,115177,0.6,0.9 V,19,115110,115177,25,480,32.5,624 MX,0,115176,115244,233.1239,149 F,18,115177,115244,0.9,0.6 V,18,115177,115244,32.5,624,25,480 F,19,115244,115311,0.6,0.9 V,19,115244,115311,25,480,37.5,720 MX,0,115244,115378,149,392 F,18,115311,115378,0.9,0.6 V,18,115311,115378,37.5,720,25,480 MX,0,115378,115444,392,423.0714 F,19,115378,115512,0.6,0.9 V,19,115378,115512,25,480,32.5,624 MX,0,115444,115511,423.0714,448.428 MX,0,115511,115578,448.428,479.4994 F,18,115512,115646,0.9,0.6 V,18,115512,115646,32.5,624,25,480 MX,0,115578,115646,479.4994,523 MX,0,115646,115712,523,445.3743 F,19,115646,115780,0.6,0.9 V,19,115646,115780,25,480,32.5,624 MX,0,115712,115779,445.3743,385.3267 MX,0,115779,115846,385.3267,309.0026 F,18,115780,115914,0.9,0.6 V,18,115780,115914,32.5,624,25,480 MX,0,115846,115914,309.0026,172 MX,0,115914,115980,172,239.4834 F,19,115914,115981,0.6,0.9 V,19,115914,115981,25,480,32.5,624 MX,0,115980,116048,239.4834,308 F,18,115981,116048,0.9,0.6 V,18,115981,116048,32.5,624,25,480 MX,0,116048,116114,308,240.34 F,19,116048,116115,0.6,0.9 V,19,116048,116115,25,480,32.5,624 MX,0,116114,116182,240.34,140 F,18,116115,116182,0.9,0.6 V,18,116115,116182,32.5,624,25,480 MX,0,116182,116248,140,191.8165 F,19,116182,116315,0.6,0.9 V,19,116182,116315,25,480,32.5,624 MX,0,116248,116315,191.8165,243.6329 F,18,116315,116449,0.9,0.6 MX,0,116315,116449,243.6329,526 V,18,116315,116449,32.5,624,25,480 MX,0,116449,116515,526,505.0345 F,19,116449,116583,0.6,0.9 V,19,116449,116583,25,480,32.5,624 MX,0,116515,116582,505.0345,413.1746 MX,0,116582,116649,413.1746,403.5319 F,18,116583,116717,0.9,0.6 V,18,116583,116717,32.5,624,25,480 MX,0,116649,116717,403.5319,532 MX,0,116717,116783,532,545.8394 F,19,116717,116784,0.6,0.9 V,19,116717,116784,25,480,32.5,624 MX,0,116783,116851,545.8394,473 F,18,116784,116851,0.9,0.6 V,18,116784,116851,32.5,624,25,480 MX,0,116851,116917,473,459.1606 F,19,116851,116918,0.6,0.9 V,19,116851,116918,25,480,32.5,624 MX,0,116917,116985,459.1606,400 F,18,116918,116985,0.9,0.6 V,18,116918,116985,32.5,624,25,480 F,19,116985,117052,0.6,0.9 V,19,116985,117052,25,480,37.5,720 MX,0,116985,117119,400,247 F,18,117052,117119,0.9,0.6 V,18,117052,117119,37.5,720,25,480 MX,0,117119,117185,247,233.1606 F,19,117119,117186,0.6,0.9 V,19,117119,117186,25,480,32.5,624 MX,0,117185,117253,233.1606,307 F,18,117186,117253,0.9,0.6 V,18,117186,117253,32.5,624,25,480 MX,0,117253,117319,307,320.8394 F,19,117253,117320,0.6,0.9 V,19,117253,117320,25,480,32.5,624 MX,0,117319,117387,320.8394,400 F,18,117320,117387,0.9,0.6 V,18,117320,117387,32.5,624,25,480 F,19,117387,117454,0.6,0.9 V,19,117387,117454,25,480,37.5,720 MX,0,117387,117521,400,223 F,18,117454,117521,0.9,0.6 V,18,117454,117521,37.5,720,25,480 MX,0,117521,117587,223,189.0561 F,19,117521,117655,0.6,0.9 V,19,117521,117655,25,480,32.5,624 MX,0,117587,117654,189.0561,155.1123 MX,0,117654,117721,155.1123,121.1684 F,18,117655,117789,0.9,0.6 V,18,117655,117789,32.5,624,25,480 MX,0,117721,117789,121.1684,96 MX,0,117789,117855,96,166.3562 F,19,117789,117923,0.6,0.9 V,19,117789,117923,25,480,32.5,624 MX,0,117855,117922,166.3562,215.8632 MX,0,117922,117989,215.8632,288.4031 F,18,117923,118057,0.9,0.6 V,18,117923,118057,32.5,624,25,480 MX,0,117989,118057,288.4031,546 F,19,118057,118123,0.6,0.9 MX,0,118057,118123,546,481.2584 V,19,118057,118123,25,480,32.5,624 MX,0,118123,118157,481.2584,451.5892 F,18,118123,118190,0.9,0.6 V,18,118123,118190,32.5,624,25,480 MX,0,118157,118190,451.5892,392 MX,0,118190,118256,392,400.5416 F,19,118190,118257,0.6,0.9 V,19,118190,118257,25,480,32.5,624 MX,0,118256,118324,400.5416,525 F,18,118257,118324,0.9,0.6 V,18,118257,118324,32.5,624,25,480 MX,0,118324,118390,525,441.0898 F,19,118324,118458,0.6,0.9 V,19,118324,118458,25,480,32.5,624 MX,0,118390,118457,441.0898,400.9104 MX,0,118457,118524,400.9104,320.5733 F,18,118458,118592,0.9,0.6 V,18,118458,118592,32.5,624,25,480 MX,0,118524,118592,320.5733,142 F,19,118592,118625,0.6,0.9 V,19,118592,118625,25,480,37.5,720 MX,0,118592,118659,142,184 F,18,118625,118659,0.9,0.6 V,18,118625,118659,37.5,720,25,480 F,19,118659,118692,0.6,0.9 V,19,118659,118692,25,480,37.5,720 MX,0,118659,118726,184,228 F,18,118692,118726,0.9,0.6 V,18,118692,118726,37.5,720,25,480 F,19,118726,118759,0.6,0.9 V,19,118726,118759,25,480,37.5,720 MX,0,118726,118793,228,268 F,18,118759,118793,0.9,0.6 V,18,118759,118793,37.5,720,25,480 F,19,118793,118826,0.6,0.9 V,19,118793,118826,25,480,37.5,720 MX,0,118793,118860,268,316 F,18,118826,118860,0.9,0.6 V,18,118826,118860,37.5,720,25,480 F,19,118860,118927,0.6,0.9 V,19,118860,118927,25,480,37.5,720 MX,0,118860,118994,316,216 F,18,118927,118994,0.9,0.6 V,18,118927,118994,37.5,720,25,480 MX,0,118994,119060,216,227.6818 F,19,118994,119128,0.6,0.9 V,19,118994,119128,25,480,32.5,624 MX,0,119060,119127,227.6818,239.3636 MX,0,119127,119262,239.3636,121 F,18,119128,119262,0.9,0.6 V,18,119128,119262,32.5,624,25,480 F,19,119262,119329,0.6,0.9 V,19,119262,119329,25,480,37.5,720 MX,0,119262,119396,121,64 F,18,119329,119396,0.9,0.6 V,18,119329,119396,37.5,720,25,480 MX,0,119396,119462,64,131.246 F,19,119396,119530,0.6,0.9 V,19,119396,119530,25,480,32.5,624 MX,0,119462,119529,131.246,192.3863 MX,0,119529,119596,192.3863,262.243 F,18,119530,119664,0.9,0.6 V,18,119530,119664,32.5,624,25,480 MX,0,119596,119664,262.243,560 F,19,119664,119697,0.6,0.9 V,19,119664,119697,25,480,37.5,720 MX,0,119664,119731,560,545 F,18,119697,119731,0.9,0.6 V,18,119697,119731,37.5,720,25,480 F,19,119731,119764,0.6,0.9 V,19,119731,119764,25,480,37.5,720 MX,0,119731,119798,545,529 F,18,119764,119798,0.9,0.6 V,18,119764,119798,37.5,720,25,480 F,19,119798,119831,0.6,0.9 V,19,119798,119831,25,480,37.5,720 MX,0,119798,119865,529,512 F,18,119831,119865,0.9,0.6 V,18,119831,119865,37.5,720,25,480 F,19,119865,119898,0.6,0.9 V,19,119865,119898,25,480,37.5,720 MX,0,119865,119932,512,526 F,18,119898,119932,0.9,0.6 V,18,119898,119932,37.5,720,25,480 MX,0,119932,119998,526,555.6728 F,19,119932,120065,0.6,0.9 V,19,119932,120065,25,480,32.5,624 MX,0,119998,120065,555.6728,462.7874 MX,0,120065,120132,462.7874,370.013 F,18,120065,120199,0.9,0.6 V,18,120065,120199,32.5,624,25,480 MX,0,120132,120199,370.013,315 MX,0,120199,120265,315,353.8993 F,19,120199,120266,0.6,0.9 V,19,120199,120266,25,480,32.5,624 MX,0,120265,120333,353.8993,430 F,18,120266,120333,0.9,0.6 V,18,120266,120333,32.5,624,25,480 MX,0,120333,120399,430,390.929 F,19,120333,120400,0.6,0.9 V,19,120333,120400,25,480,32.5,624 MX,0,120399,120467,390.929,163 F,18,120400,120467,0.9,0.6 V,18,120400,120467,32.5,624,25,480 MX,0,120467,120533,163,125.1726 F,19,120467,120601,0.6,0.9 V,19,120467,120601,25,480,32.5,624 MX,0,120533,120600,125.1726,222.0271 MX,0,120600,120667,222.0271,320.0691 F,18,120601,120735,0.9,0.6 V,18,120601,120735,32.5,624,25,480 MX,0,120667,120735,320.0691,444 MX,0,120735,120801,444,405 F,19,120735,120802,0.6,0.9 V,19,120735,120802,25,480,32.5,624 MX,0,120801,120869,405,278 F,18,120802,120869,0.9,0.6 V,18,120802,120869,32.5,624,25,480 MX,0,120869,120935,278,317 F,19,120869,120936,0.6,0.9 V,19,120869,120936,25,480,32.5,624 MX,0,120935,121003,317,430 F,18,120936,121003,0.9,0.6 V,18,120936,121003,32.5,624,25,480 F,19,121003,121070,0.6,0.9 V,19,121003,121070,25,480,37.5,720 MX,0,121003,121137,430,251 F,18,121070,121137,0.9,0.6 V,18,121070,121137,37.5,720,25,480 MX,0,121137,121203,251,249.0162 F,19,121137,121204,0.6,0.9 V,19,121137,121204,25,480,32.5,624 MX,0,121203,121271,249.0162,320 F,18,121204,121271,0.9,0.6 V,18,121204,121271,32.5,624,25,480 F,19,121271,121338,0.6,0.9 V,19,121271,121338,25,480,37.5,720 MX,0,121271,121405,320,526 F,18,121338,121405,0.9,0.6 V,18,121338,121405,37.5,720,25,480 MX,0,121405,121471,526,527.9838 F,19,121405,121472,0.6,0.9 V,19,121405,121472,25,480,32.5,624 MX,0,121471,121539,527.9838,456 F,18,121472,121539,0.9,0.6 V,18,121472,121539,32.5,624,25,480 MX,0,121539,121605,456,388.048 F,19,121539,121673,0.6,0.9 V,19,121539,121673,25,480,32.5,624 MX,0,121605,121672,388.048,321.0197 MX,0,121672,121739,321.0197,252.9618 F,18,121673,121807,0.9,0.6 V,18,121673,121807,32.5,624,25,480 MX,0,121739,121807,252.9618,129 F,19,121807,121873,0.6,0.9 MX,0,121807,121873,129,168.2073 V,19,121807,121873,25,480,32.5,624 F,18,121873,121940,0.9,0.6 MX,0,121873,121940,168.2073,251 V,18,121873,121940,32.5,624,25,480 MX,0,121940,122006,251,290 F,19,121940,122007,0.6,0.9 V,19,121940,122007,25,480,32.5,624 MX,0,122006,122074,290,507 F,18,122007,122074,0.9,0.6 V,18,122007,122074,32.5,624,25,480 MX,0,122074,122140,507,508.4149 F,19,122074,122141,0.6,0.9 V,19,122074,122141,25,480,32.5,624 MX,0,122140,122208,508.4149,404 F,18,122141,122208,0.9,0.6 V,18,122141,122208,32.5,624,25,480 MX,0,122208,122274,404,402.5851 F,19,122208,122275,0.6,0.9 V,19,122208,122275,25,480,32.5,624 MX,0,122274,122342,402.5851,476 F,18,122275,122342,0.9,0.6 V,18,122275,122342,32.5,624,25,480 F,19,122342,122409,0.6,0.9 V,19,122342,122409,25,480,37.5,720 MX,0,122342,122476,476 F,18,122409,122476,0.9,0.6 V,18,122409,122476,37.5,720,25,480 MX,0,122476,122542,476,528.0327 F,19,122476,122543,0.6,0.9 V,19,122476,122543,25,480,32.5,624 MX,0,122542,122610,528.0327,434 F,18,122543,122610,0.9,0.6 V,18,122543,122610,32.5,624,25,480 MX,0,122610,122676,434,372.1467 F,19,122610,122744,0.6,0.9 V,19,122610,122744,25,480,32.5,624 MX,0,122676,122743,372.1467,325.3299 MX,0,122743,122810,325.3299,261.0354 F,18,122744,122878,0.9,0.6 V,18,122744,122878,32.5,624,25,480 MX,0,122810,122878,261.0354,121 MX,0,122878,122944,121,143.4715 F,19,122878,123012,0.6,0.9 V,19,122878,123012,25,480,32.5,624 MX,0,122944,123011,143.4715,170.5894 MX,0,123011,123078,170.5894,203.5622 F,18,123012,123146,0.9,0.6 V,18,123012,123146,32.5,624,25,480 MX,0,123078,123146,203.5622,179 MX,0,123146,123212,179,165.1501 F,19,123146,123213,0.6,0.9 V,19,123146,123213,25,480,32.5,624 MX,0,123212,123280,165.1501,277 F,18,123213,123280,0.9,0.6 V,18,123213,123280,32.5,624,25,480 MX,0,123280,123346,277,290.8499 F,19,123280,123347,0.6,0.9 V,19,123280,123347,25,480,32.5,624 MX,0,123346,123414,290.8499,110 F,18,123347,123414,0.9,0.6 V,18,123347,123414,32.5,624,25,480 F,19,123414,123481,0.6,0.9 V,19,123414,123481,25,480,37.5,720 MX,0,123414,123548,110 F,18,123481,123548,0.9,0.6 V,18,123481,123548,37.5,720,25,480 MX,0,123548,123614,110,118.7732 F,19,123548,123615,0.6,0.9 V,19,123548,123615,25,480,32.5,624 MX,0,123614,123682,118.7732,249 F,18,123615,123682,0.9,0.6 V,18,123615,123682,32.5,624,25,480 MX,0,123682,123748,249,327.4407 F,19,123682,123815,0.6,0.9 V,19,123682,123815,25,480,32.5,624 MX,0,123748,123815,327.4407,379.721 MX,0,123815,123882,379.721,455.0753 F,18,123815,123949,0.9,0.6 V,18,123815,123949,32.5,624,25,480 MX,0,123882,123949,455.0753,549 MX,0,123949,124015,549,554.4028 F,19,123949,124083,0.6,0.9 V,19,123949,124083,25,480,32.5,624 MX,0,124015,124082,554.4028,548.2206 MX,0,124082,124149,548.2206,531.3146 F,18,124083,124217,0.9,0.6 V,18,124083,124217,32.5,624,25,480 MX,0,124149,124217,531.3146,568 MX,0,124217,124283,568,531.0538 F,19,124217,124418,0.6,0.9 V,19,124217,124418,25,480,32.5,624 MX,0,124283,124350,531.0538,454.9351 MX,0,124350,124417,454.9351,378.1711 MX,0,124417,124484,378.1711,359.8385 F,18,124418,124619,0.9,0.6 V,18,124418,124619,32.5,624,25,480 MX,0,124484,124619,359.8385,171 MX,0,124619,124685,171,162.6694 F,19,124619,124686,0.6,0.9 V,19,124619,124686,25,480,32.5,624 MX,0,124685,124753,162.6694,117 F,18,124686,124753,0.9,0.6 V,18,124686,124753,32.5,624,25,480 MX,0,124753,124819,117,157.9621 F,19,124753,124887,0.6,0.9 V,19,124753,124887,25,480,32.5,624 MX,0,124819,124886,157.9621,224.3111 MX,0,124886,124953,224.3111,243.1997 F,18,124887,125021,0.9,0.6 V,18,124887,125021,32.5,624,25,480 MX,0,124953,125021,243.1997,277 MX,0,125021,125087,277,302.9115 F,19,125021,125155,0.6,0.9 V,19,125021,125155,25,480,32.5,624 MX,0,125087,125154,302.9115,328.3535 MX,0,125154,125221,328.3535,354.1279 F,18,125155,125289,0.9,0.6 V,18,125155,125289,32.5,624,25,480 MX,0,125221,125289,354.1279,455 F,19,125289,125356,0.6,0.9 V,19,125289,125356,25,480,37.5,720 MX,0,125289,125423,455,520 F,18,125356,125423,0.9,0.6 V,18,125356,125423,37.5,720,25,480 F,19,125423,125490,0.6,0.9 V,19,125423,125490,25,480,37.5,720 MX,0,125423,125557,520,437 F,18,125490,125557,0.9,0.6 V,18,125490,125557,37.5,720,25,480 F,19,125557,125623,0.6,0.9 MX,0,125557,125623,437,449.8454 V,19,125557,125623,25,480,32.5,624 F,18,125623,125690,0.9,0.6 MX,0,125623,125690,449.8454,531 V,18,125623,125690,32.5,624,25,480 MX,0,125690,125756,531,518.1547 F,19,125690,125757,0.6,0.9 V,19,125690,125757,25,480,32.5,624 MX,0,125756,125824,518.1547,568 F,18,125757,125824,0.9,0.6 V,18,125757,125824,32.5,624,25,480 MX,0,125824,125890,568,491.5461 F,19,125824,125958,0.6,0.9 V,19,125824,125958,25,480,32.5,624 MX,0,125890,125957,491.5461,443.5487 MX,0,125957,126024,443.5487,365.2115 F,18,125958,126092,0.9,0.6 V,18,125958,126092,32.5,624,25,480 MX,0,126024,126092,365.2115,209 MX,0,126092,126158,209,276.5829 F,19,126092,126159,0.6,0.9 V,19,126092,126159,25,480,32.5,624 MX,0,126158,126226,276.5829,366 F,18,126159,126226,0.9,0.6 V,18,126159,126226,32.5,624,25,480 MX,0,126226,126292,366,298.4171 F,19,126226,126293,0.6,0.9 V,19,126226,126293,25,480,32.5,624 MX,0,126292,126360,298.4171,153 F,18,126293,126360,0.9,0.6 V,18,126293,126360,32.5,624,25,480 MX,0,126360,126426,153,183.8562 F,19,126360,126561,0.6,0.9 V,19,126360,126561,25,480,32.5,624 MX,0,126426,126493,183.8562,142.2338 MX,0,126493,126560,142.2338,97.45425 MX,0,126560,126627,97.45425,125.2237 F,18,126561,126762,0.9,0.6 V,18,126561,126762,32.5,624,25,480 MX,0,126627,126762,125.2237,365 MX,0,126762,126828,365,312.9539 F,19,126762,126829,0.6,0.9 V,19,126762,126829,25,480,32.5,624 MX,0,126828,126896,312.9539,112 F,18,126829,126896,0.9,0.6 V,18,126829,126896,32.5,624,25,480 MX,0,126896,126962,112,159.2448 F,19,126896,127030,0.6,0.9 V,19,126896,127030,25,480,32.5,624 MX,0,126962,127029,159.2448,217.2575 MX,0,127029,127096,217.2575,262.6844 F,18,127030,127164,0.9,0.6 V,18,127030,127164,32.5,624,25,480 MX,0,127096,127164,262.6844,470 F,19,127164,127197,0.6,0.9 V,19,127164,127197,25,480,37.5,720 MX,0,127164,127231,470,428 F,18,127197,127231,0.9,0.6 V,18,127197,127231,37.5,720,25,480 F,19,127231,127264,0.6,0.9 V,19,127231,127264,25,480,37.5,720 MX,0,127231,127298,428,384 F,18,127264,127298,0.9,0.6 V,18,127264,127298,37.5,720,25,480 F,19,127298,127331,0.6,0.9 V,19,127298,127331,25,480,37.5,720 MX,0,127298,127365,384,344 F,18,127331,127365,0.9,0.6 V,18,127331,127365,37.5,720,25,480 F,19,127365,127398,0.6,0.9 V,19,127365,127398,25,480,37.5,720 MX,0,127365,127432,344,296 F,18,127398,127432,0.9,0.6 V,18,127398,127432,37.5,720,25,480 F,19,127432,127498,0.6,0.9 V,19,127432,127498,25,480,37.5,720 MX,0,127432,127565,296,217 F,18,127498,127565,0.9,0.6 V,18,127498,127565,37.5,720,25,480 MX,0,127565,127631,217,266.0098 F,19,127565,127699,0.6,0.9 V,19,127565,127699,25,480,32.5,624 MX,0,127631,127698,266.0098,330 MX,0,127698,127833,330,503 F,18,127699,127833,0.9,0.6 V,18,127699,127833,32.5,624,25,480 F,19,127833,127900,0.6,0.9 V,19,127833,127900,25,480,37.5,720 MX,0,127833,127967,503,563 F,18,127900,127967,0.9,0.6 V,18,127900,127967,37.5,720,25,480 MX,0,127967,128033,563,502.9272 F,19,127967,128101,0.6,0.9 V,19,127967,128101,25,480,32.5,624 MX,0,128033,128100,502.9272,434.3376 MX,0,128100,128167,434.3376,366.8171 F,18,128101,128235,0.9,0.6 V,18,128101,128235,32.5,624,25,480 MX,0,128167,128235,366.8171,154 MX,0,128235,128301,154,86.36833 F,19,128235,128302,0.6,0.9 V,19,128235,128302,25,480,32.5,624 MX,0,128301,128369,86.36833,224 F,18,128302,128369,0.9,0.6 V,18,128302,128369,32.5,624,25,480 MX,0,128369,128435,224,291 F,19,128369,128436,0.6,0.9 V,19,128369,128436,25,480,32.5,624 MX,0,128435,128503,291,229 F,18,128436,128503,0.9,0.6 V,18,128436,128503,32.5,624,25,480 MX,0,128503,128569,229,222.8481 F,19,128503,128637,0.6,0.9 V,19,128503,128637,25,480,32.5,624 MX,0,128569,128636,222.8481,157.0678 MX,0,128636,128703,157.0678,156 F,18,128637,128771,0.9,0.6 V,18,128637,128771,32.5,624,25,480 MX,0,128703,128771,156,341 MX,0,128771,128837,341,330.0569 F,19,128771,128838,0.6,0.9 V,19,128771,128838,25,480,32.5,624 MX,0,128837,128905,330.0569,129 F,18,128838,128905,0.9,0.6 V,18,128838,128905,32.5,624,25,480 MX,0,128905,128971,129,139.9431 F,19,128905,128972,0.6,0.9 V,19,128905,128972,25,480,32.5,624 MX,0,128971,129039,139.9431,344 F,18,128972,129039,0.9,0.6 V,18,128972,129039,32.5,624,25,480 MX,0,129039,129105,344,417.5373 F,19,129039,129173,0.6,0.9 V,19,129039,129173,25,480,32.5,624 MX,0,129105,129172,417.5373,461.4427 MX,0,129172,129239,461.4427,531.7886 F,18,129173,129307,0.9,0.6 V,18,129173,129307,32.5,624,25,480 MX,0,129239,129307,531.7886,572 F,19,129307,129373,0.6,0.9 MX,0,129307,129373,572,520.4565 V,19,129307,129373,25,480,32.5,624 F,18,129373,129440,0.9,0.6 MX,0,129373,129440,520.4565,340 V,18,129373,129440,32.5,624,25,480 MX,0,129440,129506,340,391.7309 F,19,129440,129507,0.6,0.9 V,19,129440,129507,25,480,32.5,624 MX,0,129506,129574,391.7309,562 F,18,129507,129574,0.9,0.6 V,18,129507,129574,32.5,624,25,480 MX,0,129574,129640,562,558.3658 F,19,129574,130110,0.6,0.9 V,19,129574,130110,25,480,32.5,624 MX,0,129640,129707,558.3658,559.9326 MX,0,129707,129774,559.9326,558.9674 MX,0,129774,129841,558.9674,558.0023 MX,0,129841,129908,558.0023,557.0372 MX,0,129908,129975,557.0372,556.072 MX,0,129975,130042,556.072,555.1069 MX,0,130042,130109,555.1069,554.1418 MX,0,130109,130646,554.1418,555 F,18,130110,130646,0.9,0.6 V,18,130110,130646,32.5,624,25,480
Sprite,Background,Centre,"sb\dot.png",0,240 F,0,113353,,0.6 C,0,113353,,0,200,0 V,0,113353,,25,480 P,0,113353,,A F,19,113503,,0.6,0.9 F,18,113503,,0.9,0.6 V,19,113503,,25,480,32.5,624 V,18,113503,,32.5,624,25,480 MX,0,113503,113569,62.04545,207.2878 F,19,113503,113637,0.6,0.9 V,19,113503,113637,25,480,32.5,624 MX,0,113569,113636,207.2878,159.2207 MX,0,113636,113703,159.2207,62.04545 F,18,113637,113771,0.9,0.6 V,18,113637,113771,32.5,624,25,480 MX,0,113703,113503,62.04545,299 MX,0,113703,113771,62.04545,250 MX,0,113771,113837,250,262.8064 F,19,113771,113838,0.6,0.9 V,19,113771,113838,25,480,32.5,624 MX,0,113837,113905,262.8064,165 F,18,113838,113905,0.9,0.6 V,18,113838,113905,32.5,624,25,480 MX,0,113905,113971,165,152.1936 F,19,113905,113972,0.6,0.9 V,19,113905,113972,25,480,32.5,624 MX,0,113971,114039,152.1936,228 F,18,113972,114039,0.9,0.6 V,18,113972,114039,32.5,624,25,480 F,19,114039,114106,0.6,0.9 V,19,114039,114106,25,480,37.5,720 MX,0,114039,114173,228,454 F,18,114106,114173,0.9,0.6 V,18,114106,114173,37.5,720,25,480 MX,0,114173,114239,454,392.8453 F,19,114173,114373,0.6,0.9 V,19,114173,114373,25,480,32.5,624 MX,0,114239,114306,392.8453,330.9528 MX,0,114306,114373,330.9528,392.8453 MX,0,114373,114440,392.8453,454 F,18,114373,114574,0.9,0.6 V,18,114373,114574,32.5,624,25,480 MX,0,114440,114574,454,558 MX,0,114574,114640,558,568.561 F,19,114574,114641,0.6,0.9 V,19,114574,114641,25,480,32.5,624 MX,0,114640,114708,568.561,481 F,18,114641,114708,0.9,0.6 V,18,114641,114708,32.5,624,25,480 MX,0,114708,114774,481,491.561 F,19,114708,114775,0.6,0.9 V,19,114708,114775,25,480,32.5,624 MX,0,114774,114842,491.561,405 F,18,114775,114842,0.9,0.6 V,18,114775,114842,32.5,624,25,480 F,19,114842,114909,0.6,0.9 V,19,114842,114909,25,480,37.5,720 MX,0,114842,114976,405,307 F,18,114909,114976,0.9,0.6 V,18,114909,114976,37.5,720,25,480 MX,0,114976,115042,307,315.1238 F,19,114976,115043,0.6,0.9 V,19,114976,115043,25,480,32.5,624 MX,0,115042,115110,315.1238,230 F,18,115043,115110,0.9,0.6 V,18,115043,115110,32.5,624,25,480 MX,0,115110,115176,230,238.1239 F,19,115110,115177,0.6,0.9 V,19,115110,115177,25,480,32.5,624 MX,0,115176,115244,238.1239,154 F,18,115177,115244,0.9,0.6 V,18,115177,115244,32.5,624,25,480 F,19,115244,115311,0.6,0.9 V,19,115244,115311,25,480,37.5,720 MX,0,115244,115378,154,397 F,18,115311,115378,0.9,0.6 V,18,115311,115378,37.5,720,25,480 MX,0,115378,115444,397,428.0714 F,19,115378,115512,0.6,0.9 V,19,115378,115512,25,480,32.5,624 MX,0,115444,115511,428.0714,453.428 MX,0,115511,115578,453.428,484.4994 F,18,115512,115646,0.9,0.6 V,18,115512,115646,32.5,624,25,480 MX,0,115578,115646,484.4994,528 MX,0,115646,115712,528,450.3743 F,19,115646,115780,0.6,0.9 V,19,115646,115780,25,480,32.5,624 MX,0,115712,115779,450.3743,390.3267 MX,0,115779,115846,390.3267,314.0026 F,18,115780,115914,0.9,0.6 V,18,115780,115914,32.5,624,25,480 MX,0,115846,115914,314.0026,177 MX,0,115914,115980,177,244.4834 F,19,115914,115981,0.6,0.9 V,19,115914,115981,25,480,32.5,624 MX,0,115980,116048,244.4834,313 F,18,115981,116048,0.9,0.6 V,18,115981,116048,32.5,624,25,480 MX,0,116048,116114,313,245.34 F,19,116048,116115,0.6,0.9 V,19,116048,116115,25,480,32.5,624 MX,0,116114,116182,245.34,145 F,18,116115,116182,0.9,0.6 V,18,116115,116182,32.5,624,25,480 MX,0,116182,116248,145,196.8165 F,19,116182,116315,0.6,0.9 V,19,116182,116315,25,480,32.5,624 MX,0,116248,116315,196.8165,248.6329 F,18,116315,116449,0.9,0.6 MX,0,116315,116449,248.6329,531 V,18,116315,116449,32.5,624,25,480 MX,0,116449,116515,531,510.0345 F,19,116449,116583,0.6,0.9 V,19,116449,116583,25,480,32.5,624 MX,0,116515,116582,510.0345,418.1746 MX,0,116582,116649,418.1746,408.5319 F,18,116583,116717,0.9,0.6 V,18,116583,116717,32.5,624,25,480 MX,0,116649,116717,408.5319,537 MX,0,116717,116783,537,550.8394 F,19,116717,116784,0.6,0.9 V,19,116717,116784,25,480,32.5,624 MX,0,116783,116851,550.8394,478 F,18,116784,116851,0.9,0.6 V,18,116784,116851,32.5,624,25,480 MX,0,116851,116917,478,464.1606 F,19,116851,116918,0.6,0.9 V,19,116851,116918,25,480,32.5,624 MX,0,116917,116985,464.1606,405 F,18,116918,116985,0.9,0.6 V,18,116918,116985,32.5,624,25,480 F,19,116985,117052,0.6,0.9 V,19,116985,117052,25,480,37.5,720 MX,0,116985,117119,405,252 F,18,117052,117119,0.9,0.6 V,18,117052,117119,37.5,720,25,480 MX,0,117119,117185,252,238.1606 F,19,117119,117186,0.6,0.9 V,19,117119,117186,25,480,32.5,624 MX,0,117185,117253,238.1606,312 F,18,117186,117253,0.9,0.6 V,18,117186,117253,32.5,624,25,480 MX,0,117253,117319,312,325.8394 F,19,117253,117320,0.6,0.9 V,19,117253,117320,25,480,32.5,624 MX,0,117319,117387,325.8394,405 F,18,117320,117387,0.9,0.6 V,18,117320,117387,32.5,624,25,480 F,19,117387,117454,0.6,0.9 V,19,117387,117454,25,480,37.5,720 MX,0,117387,117521,405,228 F,18,117454,117521,0.9,0.6 V,18,117454,117521,37.5,720,25,480 MX,0,117521,117587,228,194.0561 F,19,117521,117655,0.6,0.9 V,19,117521,117655,25,480,32.5,624 MX,0,117587,117654,194.0561,160.1123 MX,0,117654,117721,160.1123,126.1684 F,18,117655,117789,0.9,0.6 V,18,117655,117789,32.5,624,25,480 MX,0,117721,117789,126.1684,101 MX,0,117789,117855,101,171.3562 F,19,117789,117923,0.6,0.9 V,19,117789,117923,25,480,32.5,624 MX,0,117855,117922,171.3562,220.8632 MX,0,117922,117989,220.8632,293.4031 F,18,117923,118057,0.9,0.6 V,18,117923,118057,32.5,624,25,480 MX,0,117989,118057,293.4031,551 F,19,118057,118123,0.6,0.9 MX,0,118057,118123,551,486.2584 V,19,118057,118123,25,480,32.5,624 MX,0,118123,118157,486.2584,456.5892 F,18,118123,118190,0.9,0.6 V,18,118123,118190,32.5,624,25,480 MX,0,118157,118190,456.5892,397 MX,0,118190,118256,397,405.5416 F,19,118190,118257,0.6,0.9 V,19,118190,118257,25,480,32.5,624 MX,0,118256,118324,405.5416,530 F,18,118257,118324,0.9,0.6 V,18,118257,118324,32.5,624,25,480 MX,0,118324,118390,530,446.0898 F,19,118324,118458,0.6,0.9 V,19,118324,118458,25,480,32.5,624 MX,0,118390,118457,446.0898,405.9104 MX,0,118457,118524,405.9104,325.5733 F,18,118458,118592,0.9,0.6 V,18,118458,118592,32.5,624,25,480 MX,0,118524,118592,325.5733,147 F,19,118592,118625,0.6,0.9 V,19,118592,118625,25,480,37.5,720 MX,0,118592,118659,147,189 F,18,118625,118659,0.9,0.6 V,18,118625,118659,37.5,720,25,480 F,19,118659,118692,0.6,0.9 V,19,118659,118692,25,480,37.5,720 MX,0,118659,118726,189,233 F,18,118692,118726,0.9,0.6 V,18,118692,118726,37.5,720,25,480 F,19,118726,118759,0.6,0.9 V,19,118726,118759,25,480,37.5,720 MX,0,118726,118793,233,273 F,18,118759,118793,0.9,0.6 V,18,118759,118793,37.5,720,25,480 F,19,118793,118826,0.6,0.9 V,19,118793,118826,25,480,37.5,720 MX,0,118793,118860,273,321 F,18,118826,118860,0.9,0.6 V,18,118826,118860,37.5,720,25,480 F,19,118860,118927,0.6,0.9 V,19,118860,118927,25,480,37.5,720 MX,0,118860,118994,321,221 F,18,118927,118994,0.9,0.6 V,18,118927,118994,37.5,720,25,480 MX,0,118994,119060,221,232.6818 F,19,118994,119128,0.6,0.9 V,19,118994,119128,25,480,32.5,624 MX,0,119060,119127,232.6818,244.3636 MX,0,119127,119262,244.3636,126 F,18,119128,119262,0.9,0.6 V,18,119128,119262,32.5,624,25,480 F,19,119262,119329,0.6,0.9 V,19,119262,119329,25,480,37.5,720 MX,0,119262,119396,126,69 F,18,119329,119396,0.9,0.6 V,18,119329,119396,37.5,720,25,480 MX,0,119396,119462,69,136.246 F,19,119396,119530,0.6,0.9 V,19,119396,119530,25,480,32.5,624 MX,0,119462,119529,136.246,197.3863 MX,0,119529,119596,197.3863,267.243 F,18,119530,119664,0.9,0.6 V,18,119530,119664,32.5,624,25,480 MX,0,119596,119664,267.243,565 F,19,119664,119697,0.6,0.9 V,19,119664,119697,25,480,37.5,720 MX,0,119664,119731,565,550 F,18,119697,119731,0.9,0.6 V,18,119697,119731,37.5,720,25,480 F,19,119731,119764,0.6,0.9 V,19,119731,119764,25,480,37.5,720 MX,0,119731,119798,550,534 F,18,119764,119798,0.9,0.6 V,18,119764,119798,37.5,720,25,480 F,19,119798,119831,0.6,0.9 V,19,119798,119831,25,480,37.5,720 MX,0,119798,119865,534,517 F,18,119831,119865,0.9,0.6 V,18,119831,119865,37.5,720,25,480 F,19,119865,119898,0.6,0.9 V,19,119865,119898,25,480,37.5,720 MX,0,119865,119932,517,531 F,18,119898,119932,0.9,0.6 V,18,119898,119932,37.5,720,25,480 MX,0,119932,119998,531,560.6728 F,19,119932,120065,0.6,0.9 V,19,119932,120065,25,480,32.5,624 MX,0,119998,120065,560.6728,467.7874 MX,0,120065,120132,467.7874,375.013 F,18,120065,120199,0.9,0.6 V,18,120065,120199,32.5,624,25,480 MX,0,120132,120199,375.013,320 MX,0,120199,120265,320,358.8993 F,19,120199,120266,0.6,0.9 V,19,120199,120266,25,480,32.5,624 MX,0,120265,120333,358.8993,435 F,18,120266,120333,0.9,0.6 V,18,120266,120333,32.5,624,25,480 MX,0,120333,120399,435,395.929 F,19,120333,120400,0.6,0.9 V,19,120333,120400,25,480,32.5,624 MX,0,120399,120467,395.929,168 F,18,120400,120467,0.9,0.6 V,18,120400,120467,32.5,624,25,480 MX,0,120467,120533,168,130.1726 F,19,120467,120601,0.6,0.9 V,19,120467,120601,25,480,32.5,624 MX,0,120533,120600,130.1726,227.0271 MX,0,120600,120667,227.0271,325.0691 F,18,120601,120735,0.9,0.6 V,18,120601,120735,32.5,624,25,480 MX,0,120667,120735,325.0691,449 MX,0,120735,120801,449,410 F,19,120735,120802,0.6,0.9 V,19,120735,120802,25,480,32.5,624 MX,0,120801,120869,410,283 F,18,120802,120869,0.9,0.6 V,18,120802,120869,32.5,624,25,480 MX,0,120869,120935,283,322 F,19,120869,120936,0.6,0.9 V,19,120869,120936,25,480,32.5,624 MX,0,120935,121003,322,435 F,18,120936,121003,0.9,0.6 V,18,120936,121003,32.5,624,25,480 F,19,121003,121070,0.6,0.9 V,19,121003,121070,25,480,37.5,720 MX,0,121003,121137,435,256 F,18,121070,121137,0.9,0.6 V,18,121070,121137,37.5,720,25,480 MX,0,121137,121203,256,254.0162 F,19,121137,121204,0.6,0.9 V,19,121137,121204,25,480,32.5,624 MX,0,121203,121271,254.0162,325 F,18,121204,121271,0.9,0.6 V,18,121204,121271,32.5,624,25,480 F,19,121271,121338,0.6,0.9 V,19,121271,121338,25,480,37.5,720 MX,0,121271,121405,325,531 F,18,121338,121405,0.9,0.6 V,18,121338,121405,37.5,720,25,480 MX,0,121405,121471,531,532.9838 F,19,121405,121472,0.6,0.9 V,19,121405,121472,25,480,32.5,624 MX,0,121471,121539,532.9838,461 F,18,121472,121539,0.9,0.6 V,18,121472,121539,32.5,624,25,480 MX,0,121539,121605,461,393.048 F,19,121539,121673,0.6,0.9 V,19,121539,121673,25,480,32.5,624 MX,0,121605,121672,393.048,326.0197 MX,0,121672,121739,326.0197,257.9618 F,18,121673,121807,0.9,0.6 V,18,121673,121807,32.5,624,25,480 MX,0,121739,121807,257.9618,134 F,19,121807,121873,0.6,0.9 MX,0,121807,121873,134,173.2073 V,19,121807,121873,25,480,32.5,624 F,18,121873,121940,0.9,0.6 MX,0,121873,121940,173.2073,256 V,18,121873,121940,32.5,624,25,480 MX,0,121940,122006,256,295 F,19,121940,122007,0.6,0.9 V,19,121940,122007,25,480,32.5,624 MX,0,122006,122074,295,512 F,18,122007,122074,0.9,0.6 V,18,122007,122074,32.5,624,25,480 MX,0,122074,122140,512,513.4149 F,19,122074,122141,0.6,0.9 V,19,122074,122141,25,480,32.5,624 MX,0,122140,122208,513.4149,409 F,18,122141,122208,0.9,0.6 V,18,122141,122208,32.5,624,25,480 MX,0,122208,122274,409,407.5851 F,19,122208,122275,0.6,0.9 V,19,122208,122275,25,480,32.5,624 MX,0,122274,122342,407.5851,481 F,18,122275,122342,0.9,0.6 V,18,122275,122342,32.5,624,25,480 F,19,122342,122409,0.6,0.9 V,19,122342,122409,25,480,37.5,720 MX,0,122342,122476,481 F,18,122409,122476,0.9,0.6 V,18,122409,122476,37.5,720,25,480 MX,0,122476,122542,481,533.0327 F,19,122476,122543,0.6,0.9 V,19,122476,122543,25,480,32.5,624 MX,0,122542,122610,533.0327,439 F,18,122543,122610,0.9,0.6 V,18,122543,122610,32.5,624,25,480 MX,0,122610,122676,439,377.1467 F,19,122610,122744,0.6,0.9 V,19,122610,122744,25,480,32.5,624 MX,0,122676,122743,377.1467,330.3299 MX,0,122743,122810,330.3299,266.0354 F,18,122744,122878,0.9,0.6 V,18,122744,122878,32.5,624,25,480 MX,0,122810,122878,266.0354,126 MX,0,122878,122944,126,148.4715 F,19,122878,123012,0.6,0.9 V,19,122878,123012,25,480,32.5,624 MX,0,122944,123011,148.4715,175.5894 MX,0,123011,123078,175.5894,208.5622 F,18,123012,123146,0.9,0.6 V,18,123012,123146,32.5,624,25,480 MX,0,123078,123146,208.5622,184 MX,0,123146,123212,184,170.1501 F,19,123146,123213,0.6,0.9 V,19,123146,123213,25,480,32.5,624 MX,0,123212,123280,170.1501,282 F,18,123213,123280,0.9,0.6 V,18,123213,123280,32.5,624,25,480 MX,0,123280,123346,282,295.8499 F,19,123280,123347,0.6,0.9 V,19,123280,123347,25,480,32.5,624 MX,0,123346,123414,295.8499,115 F,18,123347,123414,0.9,0.6 V,18,123347,123414,32.5,624,25,480 F,19,123414,123481,0.6,0.9 V,19,123414,123481,25,480,37.5,720 MX,0,123414,123548,115 F,18,123481,123548,0.9,0.6 V,18,123481,123548,37.5,720,25,480 MX,0,123548,123614,115,123.7732 F,19,123548,123615,0.6,0.9 V,19,123548,123615,25,480,32.5,624 MX,0,123614,123682,123.7732,254 F,18,123615,123682,0.9,0.6 V,18,123615,123682,32.5,624,25,480 MX,0,123682,123748,254,332.4407 F,19,123682,123815,0.6,0.9 V,19,123682,123815,25,480,32.5,624 MX,0,123748,123815,332.4407,384.721 MX,0,123815,123882,384.721,460.0753 F,18,123815,123949,0.9,0.6 V,18,123815,123949,32.5,624,25,480 MX,0,123882,123949,460.0753,554 MX,0,123949,124015,554,559.4028 F,19,123949,124083,0.6,0.9 V,19,123949,124083,25,480,32.5,624 MX,0,124015,124082,559.4028,553.2206 MX,0,124082,124149,553.2206,536.3146 F,18,124083,124217,0.9,0.6 V,18,124083,124217,32.5,624,25,480 MX,0,124149,124217,536.3146,573 MX,0,124217,124283,573,536.0538 F,19,124217,124418,0.6,0.9 V,19,124217,124418,25,480,32.5,624 MX,0,124283,124350,536.0538,459.9351 MX,0,124350,124417,459.9351,383.1711 MX,0,124417,124484,383.1711,364.8385 F,18,124418,124619,0.9,0.6 V,18,124418,124619,32.5,624,25,480 MX,0,124484,124619,364.8385,176 MX,0,124619,124685,176,167.6694 F,19,124619,124686,0.6,0.9 V,19,124619,124686,25,480,32.5,624 MX,0,124685,124753,167.6694,122 F,18,124686,124753,0.9,0.6 V,18,124686,124753,32.5,624,25,480 MX,0,124753,124819,122,162.9621 F,19,124753,124887,0.6,0.9 V,19,124753,124887,25,480,32.5,624 MX,0,124819,124886,162.9621,229.3111 MX,0,124886,124953,229.3111,248.1997 F,18,124887,125021,0.9,0.6 V,18,124887,125021,32.5,624,25,480 MX,0,124953,125021,248.1997,282 MX,0,125021,125087,282,307.9115 F,19,125021,125155,0.6,0.9 V,19,125021,125155,25,480,32.5,624 MX,0,125087,125154,307.9115,333.3535 MX,0,125154,125221,333.3535,359.1279 F,18,125155,125289,0.9,0.6 V,18,125155,125289,32.5,624,25,480 MX,0,125221,125289,359.1279,460 F,19,125289,125356,0.6,0.9 V,19,125289,125356,25,480,37.5,720 MX,0,125289,125423,460,525 F,18,125356,125423,0.9,0.6 V,18,125356,125423,37.5,720,25,480 F,19,125423,125490,0.6,0.9 V,19,125423,125490,25,480,37.5,720 MX,0,125423,125557,525,442 F,18,125490,125557,0.9,0.6 V,18,125490,125557,37.5,720,25,480 F,19,125557,125623,0.6,0.9 MX,0,125557,125623,442,454.8454 V,19,125557,125623,25,480,32.5,624 F,18,125623,125690,0.9,0.6 MX,0,125623,125690,454.8454,536 V,18,125623,125690,32.5,624,25,480 MX,0,125690,125756,536,523.1547 F,19,125690,125757,0.6,0.9 V,19,125690,125757,25,480,32.5,624 MX,0,125756,125824,523.1547,573 F,18,125757,125824,0.9,0.6 V,18,125757,125824,32.5,624,25,480 MX,0,125824,125890,573,496.5461 F,19,125824,125958,0.6,0.9 V,19,125824,125958,25,480,32.5,624 MX,0,125890,125957,496.5461,448.5487 MX,0,125957,126024,448.5487,370.2115 F,18,125958,126092,0.9,0.6 V,18,125958,126092,32.5,624,25,480 MX,0,126024,126092,370.2115,214 MX,0,126092,126158,214,281.5829 F,19,126092,126159,0.6,0.9 V,19,126092,126159,25,480,32.5,624 MX,0,126158,126226,281.5829,371 F,18,126159,126226,0.9,0.6 V,18,126159,126226,32.5,624,25,480 MX,0,126226,126292,371,303.4171 F,19,126226,126293,0.6,0.9 V,19,126226,126293,25,480,32.5,624 MX,0,126292,126360,303.4171,158 F,18,126293,126360,0.9,0.6 V,18,126293,126360,32.5,624,25,480 MX,0,126360,126426,158,188.8562 F,19,126360,126561,0.6,0.9 V,19,126360,126561,25,480,32.5,624 MX,0,126426,126493,188.8562,147.2338 MX,0,126493,126560,147.2338,102.4543 MX,0,126560,126627,102.4543,130.2237 F,18,126561,126762,0.9,0.6 V,18,126561,126762,32.5,624,25,480 MX,0,126627,126762,130.2237,370 MX,0,126762,126828,370,317.9539 F,19,126762,126829,0.6,0.9 V,19,126762,126829,25,480,32.5,624 MX,0,126828,126896,317.9539,117 F,18,126829,126896,0.9,0.6 V,18,126829,126896,32.5,624,25,480 MX,0,126896,126962,117,164.2448 F,19,126896,127030,0.6,0.9 V,19,126896,127030,25,480,32.5,624 MX,0,126962,127029,164.2448,222.2575 MX,0,127029,127096,222.2575,267.6844 F,18,127030,127164,0.9,0.6 V,18,127030,127164,32.5,624,25,480 MX,0,127096,127164,267.6844,475 F,19,127164,127197,0.6,0.9 V,19,127164,127197,25,480,37.5,720 MX,0,127164,127231,475,433 F,18,127197,127231,0.9,0.6 V,18,127197,127231,37.5,720,25,480 F,19,127231,127264,0.6,0.9 V,19,127231,127264,25,480,37.5,720 MX,0,127231,127298,433,389 F,18,127264,127298,0.9,0.6 V,18,127264,127298,37.5,720,25,480 F,19,127298,127331,0.6,0.9 V,19,127298,127331,25,480,37.5,720 MX,0,127298,127365,389,349 F,18,127331,127365,0.9,0.6 V,18,127331,127365,37.5,720,25,480 F,19,127365,127398,0.6,0.9 V,19,127365,127398,25,480,37.5,720 MX,0,127365,127432,349,301 F,18,127398,127432,0.9,0.6 V,18,127398,127432,37.5,720,25,480 F,19,127432,127498,0.6,0.9 V,19,127432,127498,25,480,37.5,720 MX,0,127432,127565,301,222 F,18,127498,127565,0.9,0.6 V,18,127498,127565,37.5,720,25,480 MX,0,127565,127631,222,271.0098 F,19,127565,127699,0.6,0.9 V,19,127565,127699,25,480,32.5,624 MX,0,127631,127698,271.0098,335 MX,0,127698,127833,335,508 F,18,127699,127833,0.9,0.6 V,18,127699,127833,32.5,624,25,480 F,19,127833,127900,0.6,0.9 V,19,127833,127900,25,480,37.5,720 MX,0,127833,127967,508,568 F,18,127900,127967,0.9,0.6 V,18,127900,127967,37.5,720,25,480 MX,0,127967,128033,568,507.9272 F,19,127967,128101,0.6,0.9 V,19,127967,128101,25,480,32.5,624 MX,0,128033,128100,507.9272,439.3376 MX,0,128100,128167,439.3376,371.8171 F,18,128101,128235,0.9,0.6 V,18,128101,128235,32.5,624,25,480 MX,0,128167,128235,371.8171,159 MX,0,128235,128301,159,91.36833 F,19,128235,128302,0.6,0.9 V,19,128235,128302,25,480,32.5,624 MX,0,128301,128369,91.36833,229 F,18,128302,128369,0.9,0.6 V,18,128302,128369,32.5,624,25,480 MX,0,128369,128435,229,296 F,19,128369,128436,0.6,0.9 V,19,128369,128436,25,480,32.5,624 MX,0,128435,128503,296,234 F,18,128436,128503,0.9,0.6 V,18,128436,128503,32.5,624,25,480 MX,0,128503,128569,234,227.8481 F,19,128503,128637,0.6,0.9 V,19,128503,128637,25,480,32.5,624 MX,0,128569,128636,227.8481,162.0678 MX,0,128636,128703,162.0678,161 F,18,128637,128771,0.9,0.6 V,18,128637,128771,32.5,624,25,480 MX,0,128703,128771,161,346 MX,0,128771,128837,346,335.0569 F,19,128771,128838,0.6,0.9 V,19,128771,128838,25,480,32.5,624 MX,0,128837,128905,335.0569,134 F,18,128838,128905,0.9,0.6 V,18,128838,128905,32.5,624,25,480 MX,0,128905,128971,134,144.9431 F,19,128905,128972,0.6,0.9 V,19,128905,128972,25,480,32.5,624 MX,0,128971,129039,144.9431,349 F,18,128972,129039,0.9,0.6 V,18,128972,129039,32.5,624,25,480 MX,0,129039,129105,349,422.5373 F,19,129039,129173,0.6,0.9 V,19,129039,129173,25,480,32.5,624 MX,0,129105,129172,422.5373,466.4427 MX,0,129172,129239,466.4427,536.7886 F,18,129173,129307,0.9,0.6 V,18,129173,129307,32.5,624,25,480 MX,0,129239,129307,536.7886,577 F,19,129307,129373,0.6,0.9 MX,0,129307,129373,577,525.4565 V,19,129307,129373,25,480,32.5,624 F,18,129373,129440,0.9,0.6 MX,0,129373,129440,525.4565,345 V,18,129373,129440,32.5,624,25,480 MX,0,129440,129506,345,396.7309 F,19,129440,129507,0.6,0.9 V,19,129440,129507,25,480,32.5,624 MX,0,129506,129574,396.7309,567 F,18,129507,129574,0.9,0.6 V,18,129507,129574,32.5,624,25,480 MX,0,129574,129640,567,563.3658 F,19,129574,130110,0.6,0.9 V,19,129574,130110,25,480,32.5,624 MX,0,129640,129707,563.3658,564.9326 MX,0,129707,129774,564.9326,563.9674 MX,0,129774,129841,563.9674,563.0023 MX,0,129841,129908,563.0023,562.0372 MX,0,129908,129975,562.0372,561.072 MX,0,129975,130042,561.072,560.1069 MX,0,130042,130109,560.1069,559.1418 MX,0,130109,130646,559.1418,560 F,18,130110,130646,0.9,0.6 V,18,130110,130646,32.5,624,25,480
Sprite,Background,Centre,"sb\dot.png",0,240 F,0,113353,,0.6 C,0,113353,,0,0,200 V,0,113353,,25,480 P,0,113353,,A F,19,113503,,0.6,0.9 F,18,113503,,0.9,0.6 V,19,113503,,25,480,32.5,624 V,18,113503,,32.5,624,25,480 MX,0,113503,113569,67.04546,212.2878 F,19,113503,113637,0.6,0.9 V,19,113503,113637,25,480,32.5,624 MX,0,113569,113636,212.2878,164.2207 MX,0,113636,113703,164.2207,67.04546 F,18,113637,113771,0.9,0.6 V,18,113637,113771,32.5,624,25,480 MX,0,113703,113503,67.04546,304 MX,0,113703,113771,67.04546,255 MX,0,113771,113837,255,267.8064 F,19,113771,113838,0.6,0.9 V,19,113771,113838,25,480,32.5,624 MX,0,113837,113905,267.8064,170 F,18,113838,113905,0.9,0.6 V,18,113838,113905,32.5,624,25,480 MX,0,113905,113971,170,157.1936 F,19,113905,113972,0.6,0.9 V,19,113905,113972,25,480,32.5,624 MX,0,113971,114039,157.1936,233 F,18,113972,114039,0.9,0.6 V,18,113972,114039,32.5,624,25,480 F,19,114039,114106,0.6,0.9 V,19,114039,114106,25,480,37.5,720 MX,0,114039,114173,233,459 F,18,114106,114173,0.9,0.6 V,18,114106,114173,37.5,720,25,480 MX,0,114173,114239,459,397.8453 F,19,114173,114373,0.6,0.9 V,19,114173,114373,25,480,32.5,624 MX,0,114239,114306,397.8453,335.9528 MX,0,114306,114373,335.9528,397.8453 MX,0,114373,114440,397.8453,459 F,18,114373,114574,0.9,0.6 V,18,114373,114574,32.5,624,25,480 MX,0,114440,114574,459,563 MX,0,114574,114640,563,573.561 F,19,114574,114641,0.6,0.9 V,19,114574,114641,25,480,32.5,624 MX,0,114640,114708,573.561,486 F,18,114641,114708,0.9,0.6 V,18,114641,114708,32.5,624,25,480 MX,0,114708,114774,486,496.561 F,19,114708,114775,0.6,0.9 V,19,114708,114775,25,480,32.5,624 MX,0,114774,114842,496.561,410 F,18,114775,114842,0.9,0.6 V,18,114775,114842,32.5,624,25,480 F,19,114842,114909,0.6,0.9 V,19,114842,114909,25,480,37.5,720 MX,0,114842,114976,410,312 F,18,114909,114976,0.9,0.6 V,18,114909,114976,37.5,720,25,480 MX,0,114976,115042,312,320.1238 F,19,114976,115043,0.6,0.9 V,19,114976,115043,25,480,32.5,624 MX,0,115042,115110,320.1238,235 F,18,115043,115110,0.9,0.6 V,18,115043,115110,32.5,624,25,480 MX,0,115110,115176,235,243.1239 F,19,115110,115177,0.6,0.9 V,19,115110,115177,25,480,32.5,624 MX,0,115176,115244,243.1239,159 F,18,115177,115244,0.9,0.6 V,18,115177,115244,32.5,624,25,480 F,19,115244,115311,0.6,0.9 V,19,115244,115311,25,480,37.5,720 MX,0,115244,115378,159,402 F,18,115311,115378,0.9,0.6 V,18,115311,115378,37.5,720,25,480 MX,0,115378,115444,402,433.0714 F,19,115378,115512,0.6,0.9 V,19,115378,115512,25,480,32.5,624 MX,0,115444,115511,433.0714,458.428 MX,0,115511,115578,458.428,489.4994 F,18,115512,115646,0.9,0.6 V,18,115512,115646,32.5,624,25,480 MX,0,115578,115646,489.4994,533 MX,0,115646,115712,533,455.3743 F,19,115646,115780,0.6,0.9 V,19,115646,115780,25,480,32.5,624 MX,0,115712,115779,455.3743,395.3267 MX,0,115779,115846,395.3267,319.0026 F,18,115780,115914,0.9,0.6 V,18,115780,115914,32.5,624,25,480 MX,0,115846,115914,319.0026,182 MX,0,115914,115980,182,249.4834 F,19,115914,115981,0.6,0.9 V,19,115914,115981,25,480,32.5,624 MX,0,115980,116048,249.4834,318 F,18,115981,116048,0.9,0.6 V,18,115981,116048,32.5,624,25,480 MX,0,116048,116114,318,250.34 F,19,116048,116115,0.6,0.9 V,19,116048,116115,25,480,32.5,624 MX,0,116114,116182,250.34,150 F,18,116115,116182,0.9,0.6 V,18,116115,116182,32.5,624,25,480 MX,0,116182,116248,150,201.8165 F,19,116182,116315,0.6,0.9 V,19,116182,116315,25,480,32.5,624 MX,0,116248,116315,201.8165,253.6329 F,18,116315,116449,0.9,0.6 MX,0,116315,116449,253.6329,536 V,18,116315,116449,32.5,624,25,480 MX,0,116449,116515,536,515.0345 F,19,116449,116583,0.6,0.9 V,19,116449,116583,25,480,32.5,624 MX,0,116515,116582,515.0345,423.1746 MX,0,116582,116649,423.1746,413.5319 F,18,116583,116717,0.9,0.6 V,18,116583,116717,32.5,624,25,480 MX,0,116649,116717,413.5319,542 MX,0,116717,116783,542,555.8394 F,19,116717,116784,0.6,0.9 V,19,116717,116784,25,480,32.5,624 MX,0,116783,116851,555.8394,483 F,18,116784,116851,0.9,0.6 V,18,116784,116851,32.5,624,25,480 MX,0,116851,116917,483,469.1606 F,19,116851,116918,0.6,0.9 V,19,116851,116918,25,480,32.5,624 MX,0,116917,116985,469.1606,410 F,18,116918,116985,0.9,0.6 V,18,116918,116985,32.5,624,25,480 F,19,116985,117052,0.6,0.9 V,19,116985,117052,25,480,37.5,720 MX,0,116985,117119,410,257 F,18,117052,117119,0.9,0.6 V,18,117052,117119,37.5,720,25,480 MX,0,117119,117185,257,243.1606 F,19,117119,117186,0.6,0.9 V,19,117119,117186,25,480,32.5,624 MX,0,117185,117253,243.1606,317 F,18,117186,117253,0.9,0.6 V,18,117186,117253,32.5,624,25,480 MX,0,117253,117319,317,330.8394 F,19,117253,117320,0.6,0.9 V,19,117253,117320,25,480,32.5,624 MX,0,117319,117387,330.8394,410 F,18,117320,117387,0.9,0.6 V,18,117320,117387,32.5,624,25,480 F,19,117387,117454,0.6,0.9 V,19,117387,117454,25,480,37.5,720 MX,0,117387,117521,410,233 F,18,117454,117521,0.9,0.6 V,18,117454,117521,37.5,720,25,480 MX,0,117521,117587,233,199.0561 F,19,117521,117655,0.6,0.9 V,19,117521,117655,25,480,32.5,624 MX,0,117587,117654,199.0561,165.1123 MX,0,117654,117721,165.1123,131.1684 F,18,117655,117789,0.9,0.6 V,18,117655,117789,32.5,624,25,480 MX,0,117721,117789,131.1684,106 MX,0,117789,117855,106,176.3562 F,19,117789,117923,0.6,0.9 V,19,117789,117923,25,480,32.5,624 MX,0,117855,117922,176.3562,225.8632 MX,0,117922,117989,225.8632,298.4031 F,18,117923,118057,0.9,0.6 V,18,117923,118057,32.5,624,25,480 MX,0,117989,118057,298.4031,556 F,19,118057,118123,0.6,0.9 MX,0,118057,118123,556,491.2584 V,19,118057,118123,25,480,32.5,624 MX,0,118123,118157,491.2584,461.5892 F,18,118123,118190,0.9,0.6 V,18,118123,118190,32.5,624,25,480 MX,0,118157,118190,461.5892,402 MX,0,118190,118256,402,410.5416 F,19,118190,118257,0.6,0.9 V,19,118190,118257,25,480,32.5,624 MX,0,118256,118324,410.5416,535 F,18,118257,118324,0.9,0.6 V,18,118257,118324,32.5,624,25,480 MX,0,118324,118390,535,451.0898 F,19,118324,118458,0.6,0.9 V,19,118324,118458,25,480,32.5,624 MX,0,118390,118457,451.0898,410.9104 MX,0,118457,118524,410.9104,330.5733 F,18,118458,118592,0.9,0.6 V,18,118458,118592,32.5,624,25,480 MX,0,118524,118592,330.5733,152 F,19,118592,118625,0.6,0.9 V,19,118592,118625,25,480,37.5,720 MX,0,118592,118659,152,194 F,18,118625,118659,0.9,0.6 V,18,118625,118659,37.5,720,25,480 F,19,118659,118692,0.6,0.9 V,19,118659,118692,25,480,37.5,720 MX,0,118659,118726,194,238 F,18,118692,118726,0.9,0.6 V,18,118692,118726,37.5,720,25,480 F,19,118726,118759,0.6,0.9 V,19,118726,118759,25,480,37.5,720 MX,0,118726,118793,238,278 F,18,118759,118793,0.9,0.6 V,18,118759,118793,37.5,720,25,480 F,19,118793,118826,0.6,0.9 V,19,118793,118826,25,480,37.5,720 MX,0,118793,118860,278,326 F,18,118826,118860,0.9,0.6 V,18,118826,118860,37.5,720,25,480 F,19,118860,118927,0.6,0.9 V,19,118860,118927,25,480,37.5,720 MX,0,118860,118994,326,226 F,18,118927,118994,0.9,0.6 V,18,118927,118994,37.5,720,25,480 MX,0,118994,119060,226,237.6818 F,19,118994,119128,0.6,0.9 V,19,118994,119128,25,480,32.5,624 MX,0,119060,119127,237.6818,249.3636 MX,0,119127,119262,249.3636,131 F,18,119128,119262,0.9,0.6 V,18,119128,119262,32.5,624,25,480 F,19,119262,119329,0.6,0.9 V,19,119262,119329,25,480,37.5,720 MX,0,119262,119396,131,74 F,18,119329,119396,0.9,0.6 V,18,119329,119396,37.5,720,25,480 MX,0,119396,119462,74,141.246 F,19,119396,119530,0.6,0.9 V,19,119396,119530,25,480,32.5,624 MX,0,119462,119529,141.246,202.3863 MX,0,119529,119596,202.3863,272.243 F,18,119530,119664,0.9,0.6 V,18,119530,119664,32.5,624,25,480 MX,0,119596,119664,272.243,570 F,19,119664,119697,0.6,0.9 V,19,119664,119697,25,480,37.5,720 MX,0,119664,119731,570,555 F,18,119697,119731,0.9,0.6 V,18,119697,119731,37.5,720,25,480 F,19,119731,119764,0.6,0.9 V,19,119731,119764,25,480,37.5,720 MX,0,119731,119798,555,539 F,18,119764,119798,0.9,0.6 V,18,119764,119798,37.5,720,25,480 F,19,119798,119831,0.6,0.9 V,19,119798,119831,25,480,37.5,720 MX,0,119798,119865,539,522 F,18,119831,119865,0.9,0.6 V,18,119831,119865,37.5,720,25,480 F,19,119865,119898,0.6,0.9 V,19,119865,119898,25,480,37.5,720 MX,0,119865,119932,522,536 F,18,119898,119932,0.9,0.6 V,18,119898,119932,37.5,720,25,480 MX,0,119932,119998,536,565.6728 F,19,119932,120065,0.6,0.9 V,19,119932,120065,25,480,32.5,624 MX,0,119998,120065,565.6728,472.7874 MX,0,120065,120132,472.7874,380.013 F,18,120065,120199,0.9,0.6 V,18,120065,120199,32.5,624,25,480 MX,0,120132,120199,380.013,325 MX,0,120199,120265,325,363.8993 F,19,120199,120266,0.6,0.9 V,19,120199,120266,25,480,32.5,624 MX,0,120265,120333,363.8993,440 F,18,120266,120333,0.9,0.6 V,18,120266,120333,32.5,624,25,480 MX,0,120333,120399,440,400.929 F,19,120333,120400,0.6,0.9 V,19,120333,120400,25,480,32.5,624 MX,0,120399,120467,400.929,173 F,18,120400,120467,0.9,0.6 V,18,120400,120467,32.5,624,25,480 MX,0,120467,120533,173,135.1726 F,19,120467,120601,0.6,0.9 V,19,120467,120601,25,480,32.5,624 MX,0,120533,120600,135.1726,232.0271 MX,0,120600,120667,232.0271,330.0691 F,18,120601,120735,0.9,0.6 V,18,120601,120735,32.5,624,25,480 MX,0,120667,120735,330.0691,454 MX,0,120735,120801,454,415 F,19,120735,120802,0.6,0.9 V,19,120735,120802,25,480,32.5,624 MX,0,120801,120869,415,288 F,18,120802,120869,0.9,0.6 V,18,120802,120869,32.5,624,25,480 MX,0,120869,120935,288,327 F,19,120869,120936,0.6,0.9 V,19,120869,120936,25,480,32.5,624 MX,0,120935,121003,327,440 F,18,120936,121003,0.9,0.6 V,18,120936,121003,32.5,624,25,480 F,19,121003,121070,0.6,0.9 V,19,121003,121070,25,480,37.5,720 MX,0,121003,121137,440,261 F,18,121070,121137,0.9,0.6 V,18,121070,121137,37.5,720,25,480 MX,0,121137,121203,261,259.0162 F,19,121137,121204,0.6,0.9 V,19,121137,121204,25,480,32.5,624 MX,0,121203,121271,259.0162,330 F,18,121204,121271,0.9,0.6 V,18,121204,121271,32.5,624,25,480 F,19,121271,121338,0.6,0.9 V,19,121271,121338,25,480,37.5,720 MX,0,121271,121405,330,536 F,18,121338,121405,0.9,0.6 V,18,121338,121405,37.5,720,25,480 MX,0,121405,121471,536,537.9838 F,19,121405,121472,0.6,0.9 V,19,121405,121472,25,480,32.5,624 MX,0,121471,121539,537.9838,466 F,18,121472,121539,0.9,0.6 V,18,121472,121539,32.5,624,25,480 MX,0,121539,121605,466,398.048 F,19,121539,121673,0.6,0.9 V,19,121539,121673,25,480,32.5,624 MX,0,121605,121672,398.048,331.0197 MX,0,121672,121739,331.0197,262.9618 F,18,121673,121807,0.9,0.6 V,18,121673,121807,32.5,624,25,480 MX,0,121739,121807,262.9618,139 F,19,121807,121873,0.6,0.9 MX,0,121807,121873,139,178.2073 V,19,121807,121873,25,480,32.5,624 F,18,121873,121940,0.9,0.6 MX,0,121873,121940,178.2073,261 V,18,121873,121940,32.5,624,25,480 MX,0,121940,122006,261,300 F,19,121940,122007,0.6,0.9 V,19,121940,122007,25,480,32.5,624 MX,0,122006,122074,300,517 F,18,122007,122074,0.9,0.6 V,18,122007,122074,32.5,624,25,480 MX,0,122074,122140,517,518.4149 F,19,122074,122141,0.6,0.9 V,19,122074,122141,25,480,32.5,624 MX,0,122140,122208,518.4149,414 F,18,122141,122208,0.9,0.6 V,18,122141,122208,32.5,624,25,480 MX,0,122208,122274,414,412.5851 F,19,122208,122275,0.6,0.9 V,19,122208,122275,25,480,32.5,624 MX,0,122274,122342,412.5851,486 F,18,122275,122342,0.9,0.6 V,18,122275,122342,32.5,624,25,480 F,19,122342,122409,0.6,0.9 V,19,122342,122409,25,480,37.5,720 MX,0,122342,122476,486 F,18,122409,122476,0.9,0.6 V,18,122409,122476,37.5,720,25,480 MX,0,122476,122542,486,538.0327 F,19,122476,122543,0.6,0.9 V,19,122476,122543,25,480,32.5,624 MX,0,122542,122610,538.0327,444 F,18,122543,122610,0.9,0.6 V,18,122543,122610,32.5,624,25,480 MX,0,122610,122676,444,382.1467 F,19,122610,122744,0.6,0.9 V,19,122610,122744,25,480,32.5,624 MX,0,122676,122743,382.1467,335.3299 MX,0,122743,122810,335.3299,271.0354 F,18,122744,122878,0.9,0.6 V,18,122744,122878,32.5,624,25,480 MX,0,122810,122878,271.0354,131 MX,0,122878,122944,131,153.4715 F,19,122878,123012,0.6,0.9 V,19,122878,123012,25,480,32.5,624 MX,0,122944,123011,153.4715,180.5894 MX,0,123011,123078,180.5894,213.5622 F,18,123012,123146,0.9,0.6 V,18,123012,123146,32.5,624,25,480 MX,0,123078,123146,213.5622,189 MX,0,123146,123212,189,175.1501 F,19,123146,123213,0.6,0.9 V,19,123146,123213,25,480,32.5,624 MX,0,123212,123280,175.1501,287 F,18,123213,123280,0.9,0.6 V,18,123213,123280,32.5,624,25,480 MX,0,123280,123346,287,300.8499 F,19,123280,123347,0.6,0.9 V,19,123280,123347,25,480,32.5,624 MX,0,123346,123414,300.8499,120 F,18,123347,123414,0.9,0.6 V,18,123347,123414,32.5,624,25,480 F,19,123414,123481,0.6,0.9 V,19,123414,123481,25,480,37.5,720 MX,0,123414,123548,120 F,18,123481,123548,0.9,0.6 V,18,123481,123548,37.5,720,25,480 MX,0,123548,123614,120,128.7732 F,19,123548,123615,0.6,0.9 V,19,123548,123615,25,480,32.5,624 MX,0,123614,123682,128.7732,259 F,18,123615,123682,0.9,0.6 V,18,123615,123682,32.5,624,25,480 MX,0,123682,123748,259,337.4407 F,19,123682,123815,0.6,0.9 V,19,123682,123815,25,480,32.5,624 MX,0,123748,123815,337.4407,389.721 MX,0,123815,123882,389.721,465.0753 F,18,123815,123949,0.9,0.6 V,18,123815,123949,32.5,624,25,480 MX,0,123882,123949,465.0753,559 MX,0,123949,124015,559,564.4028 F,19,123949,124083,0.6,0.9 V,19,123949,124083,25,480,32.5,624 MX,0,124015,124082,564.4028,558.2206 MX,0,124082,124149,558.2206,541.3146 F,18,124083,124217,0.9,0.6 V,18,124083,124217,32.5,624,25,480 MX,0,124149,124217,541.3146,578 MX,0,124217,124283,578,541.0538 F,19,124217,124418,0.6,0.9 V,19,124217,124418,25,480,32.5,624 MX,0,124283,124350,541.0538,464.9351 MX,0,124350,124417,464.9351,388.1711 MX,0,124417,124484,388.1711,369.8385 F,18,124418,124619,0.9,0.6 V,18,124418,124619,32.5,624,25,480 MX,0,124484,124619,369.8385,181 MX,0,124619,124685,181,172.6694 F,19,124619,124686,0.6,0.9 V,19,124619,124686,25,480,32.5,624 MX,0,124685,124753,172.6694,127 F,18,124686,124753,0.9,0.6 V,18,124686,124753,32.5,624,25,480 MX,0,124753,124819,127,167.9621 F,19,124753,124887,0.6,0.9 V,19,124753,124887,25,480,32.5,624 MX,0,124819,124886,167.9621,234.3111 MX,0,124886,124953,234.3111,253.1997 F,18,124887,125021,0.9,0.6 V,18,124887,125021,32.5,624,25,480 MX,0,124953,125021,253.1997,287 MX,0,125021,125087,287,312.9115 F,19,125021,125155,0.6,0.9 V,19,125021,125155,25,480,32.5,624 MX,0,125087,125154,312.9115,338.3535 MX,0,125154,125221,338.3535,364.1279 F,18,125155,125289,0.9,0.6 V,18,125155,125289,32.5,624,25,480 MX,0,125221,125289,364.1279,465 F,19,125289,125356,0.6,0.9 V,19,125289,125356,25,480,37.5,720 MX,0,125289,125423,465,530 F,18,125356,125423,0.9,0.6 V,18,125356,125423,37.5,720,25,480 F,19,125423,125490,0.6,0.9 V,19,125423,125490,25,480,37.5,720 MX,0,125423,125557,530,447 F,18,125490,125557,0.9,0.6 V,18,125490,125557,37.5,720,25,480 F,19,125557,125623,0.6,0.9 MX,0,125557,125623,447,459.8454 V,19,125557,125623,25,480,32.5,624 F,18,125623,125690,0.9,0.6 MX,0,125623,125690,459.8454,541 V,18,125623,125690,32.5,624,25,480 MX,0,125690,125756,541,528.1547 F,19,125690,125757,0.6,0.9 V,19,125690,125757,25,480,32.5,624 MX,0,125756,125824,528.1547,578 F,18,125757,125824,0.9,0.6 V,18,125757,125824,32.5,624,25,480 MX,0,125824,125890,578,501.5461 F,19,125824,125958,0.6,0.9 V,19,125824,125958,25,480,32.5,624 MX,0,125890,125957,501.5461,453.5487 MX,0,125957,126024,453.5487,375.2115 F,18,125958,126092,0.9,0.6 V,18,125958,126092,32.5,624,25,480 MX,0,126024,126092,375.2115,219 MX,0,126092,126158,219,286.5829 F,19,126092,126159,0.6,0.9 V,19,126092,126159,25,480,32.5,624 MX,0,126158,126226,286.5829,376 F,18,126159,126226,0.9,0.6 V,18,126159,126226,32.5,624,25,480 MX,0,126226,126292,376,308.4171 F,19,126226,126293,0.6,0.9 V,19,126226,126293,25,480,32.5,624 MX,0,126292,126360,308.4171,163 F,18,126293,126360,0.9,0.6 V,18,126293,126360,32.5,624,25,480 MX,0,126360,126426,163,193.8562 F,19,126360,126561,0.6,0.9 V,19,126360,126561,25,480,32.5,624 MX,0,126426,126493,193.8562,152.2338 MX,0,126493,126560,152.2338,107.4543 MX,0,126560,126627,107.4543,135.2237 F,18,126561,126762,0.9,0.6 V,18,126561,126762,32.5,624,25,480 MX,0,126627,126762,135.2237,375 MX,0,126762,126828,375,322.9539 F,19,126762,126829,0.6,0.9 V,19,126762,126829,25,480,32.5,624 MX,0,126828,126896,322.9539,122 F,18,126829,126896,0.9,0.6 V,18,126829,126896,32.5,624,25,480 MX,0,126896,126962,122,169.2448 F,19,126896,127030,0.6,0.9 V,19,126896,127030,25,480,32.5,624 MX,0,126962,127029,169.2448,227.2575 MX,0,127029,127096,227.2575,272.6844 F,18,127030,127164,0.9,0.6 V,18,127030,127164,32.5,624,25,480 MX,0,127096,127164,272.6844,480 F,19,127164,127197,0.6,0.9 V,19,127164,127197,25,480,37.5,720 MX,0,127164,127231,480,438 F,18,127197,127231,0.9,0.6 V,18,127197,127231,37.5,720,25,480 F,19,127231,127264,0.6,0.9 V,19,127231,127264,25,480,37.5,720 MX,0,127231,127298,438,394 F,18,127264,127298,0.9,0.6 V,18,127264,127298,37.5,720,25,480 F,19,127298,127331,0.6,0.9 V,19,127298,127331,25,480,37.5,720 MX,0,127298,127365,394,354 F,18,127331,127365,0.9,0.6 V,18,127331,127365,37.5,720,25,480 F,19,127365,127398,0.6,0.9 V,19,127365,127398,25,480,37.5,720 MX,0,127365,127432,354,306 F,18,127398,127432,0.9,0.6 V,18,127398,127432,37.5,720,25,480 F,19,127432,127498,0.6,0.9 V,19,127432,127498,25,480,37.5,720 MX,0,127432,127565,306,227 F,18,127498,127565,0.9,0.6 V,18,127498,127565,37.5,720,25,480 MX,0,127565,127631,227,276.0098 F,19,127565,127699,0.6,0.9 V,19,127565,127699,25,480,32.5,624 MX,0,127631,127698,276.0098,340 MX,0,127698,127833,340,513 F,18,127699,127833,0.9,0.6 V,18,127699,127833,32.5,624,25,480 F,19,127833,127900,0.6,0.9 V,19,127833,127900,25,480,37.5,720 MX,0,127833,127967,513,573 F,18,127900,127967,0.9,0.6 V,18,127900,127967,37.5,720,25,480 MX,0,127967,128033,573,512.9272 F,19,127967,128101,0.6,0.9 V,19,127967,128101,25,480,32.5,624 MX,0,128033,128100,512.9272,444.3376 MX,0,128100,128167,444.3376,376.8171 F,18,128101,128235,0.9,0.6 V,18,128101,128235,32.5,624,25,480 MX,0,128167,128235,376.8171,164 MX,0,128235,128301,164,96.36833 F,19,128235,128302,0.6,0.9 V,19,128235,128302,25,480,32.5,624 MX,0,128301,128369,96.36833,234 F,18,128302,128369,0.9,0.6 V,18,128302,128369,32.5,624,25,480 MX,0,128369,128435,234,301 F,19,128369,128436,0.6,0.9 V,19,128369,128436,25,480,32.5,624 MX,0,128435,128503,301,239 F,18,128436,128503,0.9,0.6 V,18,128436,128503,32.5,624,25,480 MX,0,128503,128569,239,232.8481 F,19,128503,128637,0.6,0.9 V,19,128503,128637,25,480,32.5,624 MX,0,128569,128636,232.8481,167.0678 MX,0,128636,128703,167.0678,166 F,18,128637,128771,0.9,0.6 V,18,128637,128771,32.5,624,25,480 MX,0,128703,128771,166,351 MX,0,128771,128837,351,340.0569 F,19,128771,128838,0.6,0.9 V,19,128771,128838,25,480,32.5,624 MX,0,128837,128905,340.0569,139 F,18,128838,128905,0.9,0.6 V,18,128838,128905,32.5,624,25,480 MX,0,128905,128971,139,149.9431 F,19,128905,128972,0.6,0.9 V,19,128905,128972,25,480,32.5,624 MX,0,128971,129039,149.9431,354 F,18,128972,129039,0.9,0.6 V,18,128972,129039,32.5,624,25,480 MX,0,129039,129105,354,427.5373 F,19,129039,129173,0.6,0.9 V,19,129039,129173,25,480,32.5,624 MX,0,129105,129172,427.5373,471.4427 MX,0,129172,129239,471.4427,541.7886 F,18,129173,129307,0.9,0.6 V,18,129173,129307,32.5,624,25,480 MX,0,129239,129307,541.7886,582 F,19,129307,129373,0.6,0.9 MX,0,129307,129373,582,530.4565 V,19,129307,129373,25,480,32.5,624 F,18,129373,129440,0.9,0.6 MX,0,129373,129440,530.4565,350 V,18,129373,129440,32.5,624,25,480 MX,0,129440,129506,350,401.7309 F,19,129440,129507,0.6,0.9 V,19,129440,129507,25,480,32.5,624 MX,0,129506,129574,401.7309,572 F,18,129507,129574,0.9,0.6 V,18,129507,129574,32.5,624,25,480 MX,0,129574,129640,572,568.3658 F,19,129574,130110,0.6,0.9 V,19,129574,130110,25,480,32.5,624 MX,0,129640,129707,568.3658,569.9326 MX,0,129707,129774,569.9326,568.9674 MX,0,129774,129841,568.9674,568.0023 MX,0,129841,129908,568.0023,567.0372 MX,0,129908,129975,567.0372,566.072 MX,0,129975,130042,566.072,565.1069 MX,0,130042,130109,565.1069,564.1418 MX,0,130109,130646,564.1418,565 F,18,130110,130646,0.9,0.6 V,18,130110,130646,32.5,624,25,480
//Storyboard Layer 1 (Fail)
//Storyboard Layer 2 (Pass)
//Storyboard Layer 3 (Foreground)
Sprite,Foreground,Centre,"sb\Credits\_000.png",320,240 S,0,175716,,0.3 F,0,175716,176251,1
Sprite,Foreground,Centre,"sb\Credits\_001.png",320,240 S,0,176251,,0.3 F,0,176251,176787,1
Sprite,Foreground,Centre,"sb\Credits\_002.png",320,240 S,0,176787,,0.3 F,0,176787,177323,1
Sprite,Foreground,Centre,"sb\Credits\_05b.png",320,240 S,0,177323,,0.3 F,0,177323,177858,1
Sprite,Foreground,Centre,"sb\Credits\_004.png",320,240 S,0,177858,,0.3 F,0,177858,178394,1
Sprite,Foreground,Centre,"sb\Credits\_000.png",320,240 S,0,178394,,0.3 F,0,178394,178930,1
Sprite,Foreground,Centre,"sb\Credits\_001.png",320,240 S,0,178930,,0.3 F,0,178930,179466,1
Sprite,Foreground,Centre,"sb\Credits\_002.png",320,240 S,0,179466,,0.3 F,0,179466,180001,1
Sprite,Foreground,Centre,"sb\Credits\_05b.png",320,240 S,0,180001,,0.3 F,0,180001,180269,1
Sprite,Foreground,Centre,"sb\Credits\_004.png",320,240 S,0,180269,,0.3 F,0,180269,180537,1
Sprite,Foreground,Centre,"sb\Credits\_000.png",320,240 S,0,180537,,0.3 F,0,180537,180805,1
Sprite,Foreground,Centre,"sb\Credits\_001.png",320,240 S,0,180805,,0.3 F,0,180805,181073,1
Sprite,Foreground,Centre,"sb\Credits\_002.png",320,240 S,0,181073,,0.3 F,0,181073,181341,1
Sprite,Foreground,Centre,"sb\Credits\_05b.png",320,240 S,0,181341,,0.3 F,0,181341,181608,1
Sprite,Foreground,Centre,"sb\Credits\_004.png",320,240 S,0,181608,,0.3 F,0,181608,181876,1
Sprite,Foreground,Centre,"sb\Credits\_218.png",320,240 S,0,181876,,0.3 F,0,181876,182143,1
Sprite,Foreground,Centre,"sb\Credits\_219.png",320,240 S,0,182144,,0.3 F,0,182144,182277,1
Sprite,Foreground,Centre,"sb\Credits\_21a.png",320,240 S,0,182277,,0.3 F,0,182277,182411,1
Sprite,Foreground,Centre,"sb\Credits\_21b.png",320,240 S,0,182411,,0.3 F,0,182411,182545,1
Sprite,Foreground,Centre,"sb\Credits\_21c.png",320,240 S,0,182545,,0.3 F,0,182545,182679,1
Sprite,Foreground,Centre,"sb\Credits\_21d.png",320,240 S,0,182679,,0.3 F,0,182679,182813,1
Sprite,Foreground,Centre,"sb\Credits\_21e.png",320,240 S,0,182813,,0.3 F,0,182813,182947,1
Sprite,Foreground,Centre,"sb\Credits\_21f.png",320,240 S,0,182947,,0.3 F,0,182947,183081,1
Sprite,Foreground,Centre,"sb\Credits\_220.png",320,240 S,0,183081,,0.3 F,0,183081,183215,1
Sprite,Foreground,Centre,"sb\Credits\_221.png",320,240 S,0,183215,,0.3 F,0,183215,183349,1
Sprite,Foreground,Centre,"sb\Credits\_00f.png",320,240 S,0,183350,,0.3 F,0,183350,183617,1
Sprite,Foreground,Centre,"sb\Credits\_010.png",320,240 S,0,183617,,0.3 F,0,183617,183885,1
Sprite,Foreground,Centre,"sb\Credits\_011.png",320,240 S,0,183885,,0.3 F,0,183885,184019,1
Sprite,Foreground,Centre,"sb\Credits\_012.png",320,240 S,0,184019,,0.3 F,0,184019,184153,1
Sprite,Foreground,Centre,"sb\Credits\_013.png",320,240 S,0,184153,,0.3 F,0,184153,184287,1
Sprite,Foreground,Centre,"sb\Credits\_014.png",320,240 S,0,184287,,0.3 F,0,184287,186430,1
//Storyboard Layer 4 (Overlay)
//Storyboard Sound Samples

[TimingPoints]
-68,535.714285714286,4,2,1,41,1,0
2208,-166.666666666666,4,2,1,41,0,0
7967,-125,4,2,1,41,0,0
8503,-166.666666666666,4,2,1,41,0,0
10646,-100,4,2,1,51,0,0
11449,-500,4,2,1,51,0,0
11649,-500,4,2,1,5,0,0
11717,-83.3333333333335,4,2,1,51,0,0
13792,-83.3333333333335,4,2,1,5,0,0
13860,-66.6666666666665,4,2,1,51,0,0
14060,-66.6666666666665,4,2,1,5,0,0
14128,-66.6666666666665,4,2,1,51,0,0
15199,-83.3333333333335,4,2,1,51,0,0
16137,-100,4,2,1,51,0,0
16539,-71.4285714285715,4,2,1,51,0,0
17074,-100,4,2,1,51,0,0
18414,-250.000000000002,4,2,1,51,0,0
19217,-250.000000000002,4,2,1,41,0,0
19887,-217.391304347826,4,2,1,41,0,0
20423,-192.307692307693,4,2,1,41,0,0
20958,-172.413793103449,4,2,1,41,0,0
21494,-156.25,4,2,1,41,0,0
22030,-142.857142857143,4,2,1,41,0,0
22565,-131.578947368421,4,2,1,41,0,0
23101,-121.951219512195,4,2,1,41,0,0
23503,-100,4,2,1,51,0,0
23771,-90.909090909091,4,2,1,51,0,0
24039,-83.3333333333335,4,2,1,61,0,0
24307,-76.923076923077,4,2,1,61,0,0
24574,-71.4285714285715,4,2,1,71,0,0
24842,-66.6666666666665,4,2,1,71,0,0
25110,-62.5,4,2,1,81,0,0
25378,-58.8235294117645,4,2,1,81,0,0
27789,-29.4117647058824,4,2,1,91,0,1
28257,-29.4117647058824,4,2,1,5,0,1
28324,-38.4615384615385,4,2,1,71,0,0
28524,-38.4615384615385,4,2,1,5,0,0
28592,-38.4615384615385,4,2,1,71,0,0
28860,-33.3333333333334,4,2,1,71,0,0
29060,-33.3333333333334,4,2,1,5,0,0
29128,-50,4,2,1,71,0,0
29262,-33.3333333333334,4,2,1,71,0,0
29596,-33.3333333333334,4,2,1,5,0,0
29664,-33.3333333333334,4,2,1,71,0,0
29864,-33.3333333333334,4,2,1,5,0,0
29932,-28.5714285714286,4,2,1,71,0,0
30467,-66.6666666666665,4,2,1,71,0,0
31003,-50,4,2,1,71,0,0
31203,-50,4,2,1,5,0,0
31271,-33.3333333333334,4,2,1,71,0,0
31471,-33.3333333333334,4,2,1,5,0,0
31539,-200,4,2,1,71,0,0
31739,-200,4,2,1,5,0,0
31807,-29.0697674418604,4,2,1,71,0,0
32007,-29.0697674418604,4,2,1,5,0,0
32074,-29.4117647058824,4,2,1,91,0,1
32542,-29.4117647058824,4,2,1,5,0,1
32610,-25,4,2,1,71,0,0
33146,-33.3333333333334,4,2,1,71,0,0
33346,-33.3333333333334,4,2,1,5,0,0
33414,-66.6666666666665,4,2,1,71,0,0
33548,-33.3333333333334,4,2,1,71,0,0
33682,-29.4117647058824,4,2,1,71,0,0
33882,-29.4117647058824,4,2,1,5,0,0
33949,-33.3333333333334,4,2,1,71,0,0
34149,-33.3333333333334,4,2,1,5,0,0
34217,-28.735632183908,4,2,1,71,0,0
34753,-66.6666666666665,4,2,1,71,0,0
35289,-38.4615384615385,4,2,1,71,0,0
35489,-38.4615384615385,4,2,1,5,0,0
35557,-90.9090909090905,4,2,1,71,0,0
35757,-90.9090909090905,4,2,1,5,0,0
35824,-33.3333333333334,4,2,1,71,0,0
36024,-33.3333333333334,4,2,1,5,0,0
36092,-43.4782608695652,4,2,1,71,0,0
36292,-43.4782608695652,4,2,1,5,0,0
36360,-11.9468712841512,4,2,1,81,0,1
36828,-11.9468712841512,4,2,1,5,0,1
36896,-38.4615384615385,4,2,1,71,0,0
37699,-23.3644859813084,4,2,1,71,0,0
38033,-23.3644859813084,4,2,1,5,0,0
38101,-18.9393939393939,4,2,1,71,0,0
38503,-25,4,2,1,81,0,1
39039,-50,4,2,1,71,0,0
39574,-66.6666666666665,4,2,1,71,0,0
40110,-50,4,2,1,71,0,0
40578,-50,4,2,1,5,0,0
40646,-50,4,2,1,71,0,0
40914,-500,4,2,1,71,0,0
41449,-125,4,2,1,71,0,0
41985,-500,4,2,1,71,0,0
42789,-41.6666666666667,4,2,1,81,0,0
43860,-41.6666666666667,4,2,1,91,0,0
44262,-41.6666666666667,4,2,2,91,0,0
44396,-41.6666666666667,4,2,1,91,0,0
44530,-41.6666666666667,4,2,2,91,0,0
44664,-50,4,2,2,91,0,0
44730,-50,4,2,2,5,0,0
44798,-50,4,2,2,91,0,0
44864,-50,4,2,2,5,0,0
44932,-50,4,2,3,81,0,1
45467,-38.4615384615385,4,2,3,81,0,1
46003,-50,4,2,3,81,0,1
46807,-100,4,2,3,81,0,1
47007,-100,4,2,3,5,0,1
47074,-38.4615384615385,4,2,3,81,0,1
47610,-50,4,2,3,81,0,1
48078,-50,4,2,3,5,0,1
48146,-50,4,2,3,81,0,1
48882,-50,4,2,3,5,0,1
48949,-66.6666666666665,4,2,3,81,0,1
49217,-50,4,2,3,81,0,1
49953,-50,4,2,3,5,0,1
50021,-100,4,2,3,81,0,1
50221,-100,4,2,3,5,0,1
50289,-38.4615384615385,4,2,3,81,0,1
51024,-38.4615384615385,4,2,3,5,0,1
51092,-166.666666666666,4,2,3,81,0,1
51292,-166.666666666666,4,2,3,5,0,1
51360,-41.6666666666667,4,2,3,81,0,1
51694,-41.6666666666667,4,2,3,5,0,1
51762,-100,4,2,3,81,0,1
51896,-50,4,2,3,81,0,1
52565,-62.5,4,2,3,81,0,1
52967,-38.4615384615385,4,2,3,81,0,1
53167,-38.4615384615385,4,2,3,5,0,1
53235,-38.4615384615385,4,2,3,81,0,1
53503,-50,4,2,3,81,0,1
53837,-50,4,2,3,5,0,1
53905,-50,4,2,3,81,0,1
54774,-50,4,2,3,5,0,1
54842,-55.5555555555555,4,2,3,81,0,1
55176,-55.5555555555555,4,2,3,5,0,1
55244,-55.5555555555555,4,2,3,81,0,1
55578,-55.5555555555555,4,2,3,5,0,1
55646,-45.4545454545455,4,2,3,81,0,1
55846,-45.4545454545455,4,2,3,5,0,1
55914,-45.4545454545455,4,2,3,81,0,1
56717,-41.6666666666667,4,2,3,81,0,1
56917,-41.6666666666667,4,2,3,5,0,1
56985,-66.6666666666665,4,2,3,81,0,1
57319,-66.6666666666665,4,2,3,5,0,1
57387,-66.6666666666665,4,2,3,81,0,1
57521,-41.6666666666667,4,2,3,81,0,1
58123,-41.6666666666667,4,2,3,5,0,1
58190,-50,4,2,3,81,0,1
59060,-50,4,2,3,5,0,1
59128,-45.4545454545455,4,2,3,81,0,1
59328,-45.4545454545455,4,2,3,5,0,1
59396,-45.4545454545455,4,2,3,81,0,1
59530,-41.6666666666667,4,2,3,81,0,1
59864,-41.6666666666667,4,2,3,5,0,1
59932,-38.4615384615385,4,2,3,81,0,1
60266,-38.4615384615385,4,2,3,5,0,1
60333,-50,4,2,3,81,0,1
60467,-38.4615384615385,4,2,3,81,0,1
60667,-38.4615384615385,4,2,3,5,0,1
60735,-66.6666666666665,4,2,3,81,0,1
61003,-41.6666666666667,4,2,3,81,0,1
61203,-41.6666666666667,4,2,3,5,0,1
61271,-50,4,2,3,81,0,1
61471,-50,4,2,3,5,0,1
61539,-50,4,2,3,81,0,1
61807,-41.6666666666667,4,2,3,81,0,1
62074,-41.6666666666667,4,2,1,51,0,0
62208,-250.000000000002,4,2,1,51,0,0
62744,-217.391304347826,4,2,1,41,0,0
63815,-192.307692307693,4,2,1,41,0,0
64351,-172.413793103449,4,2,1,41,0,0
64887,-156.25,4,2,1,41,0,0
65423,-142.857142857143,4,2,1,41,0,0
65958,-131.578947368421,4,2,1,41,0,0
66360,-100,4,2,1,51,0,0
66628,-90.909090909091,4,2,1,51,0,0
66896,-83.3333333333335,4,2,1,61,0,0
67164,-76.923076923077,4,2,1,61,0,0
67432,-71.4285714285715,4,2,1,71,0,0
67699,-66.6666666666665,4,2,1,71,0,0
67967,-62.5,4,2,1,81,0,0
68235,-58.8235294117645,4,2,1,81,0,0
69440,-58.8235294117645,4,2,2,81,0,0
70378,-50,4,2,2,81,0,0
70444,-50,4,2,2,5,0,0
70512,-50,4,2,2,81,0,0
70578,-50,4,2,2,5,0,0
70646,-27.7777777777778,4,2,1,91,0,1
71114,-27.7777777777778,4,2,1,5,0,1
71182,-38.4615384615385,4,2,1,71,0,0
71382,-38.4615384615385,4,2,1,5,0,0
71449,-38.4615384615385,4,2,1,71,0,0
71717,-33.3333333333334,4,2,1,71,0,0
72051,-33.3333333333334,4,2,1,5,0,0
72119,-33.3333333333334,4,2,1,71,0,0
72453,-33.3333333333334,4,2,1,5,0,0
72521,-29.4117647058824,4,2,1,71,0,0
72721,-29.4117647058824,4,2,1,5,0,0
72789,-24.390243902439,4,2,1,71,0,0
73324,-38.4615384615385,4,2,1,71,0,0
73860,-50,4,2,1,71,0,0
74060,-50,4,2,1,5,0,0
74128,-33.3333333333334,4,2,1,71,0,0
74328,-33.3333333333334,4,2,1,5,0,0
74396,-100,4,2,1,71,0,0
74596,-100,4,2,1,5,0,0
74664,-17.0068027210885,4,2,1,71,0,0
74864,-17.0068027210885,4,2,1,5,0,0
74932,-27.7777777777778,4,2,1,91,0,1
75400,-27.7777777777778,4,2,1,5,0,1
75467,-22.7272727272728,4,2,1,71,0,0
76003,-30.3030303030303,4,2,1,71,0,0
76203,-30.3030303030303,4,2,1,5,0,0
76271,-66.6666666666665,4,2,1,71,0,0
76405,-30.3030303030303,4,2,1,71,0,0
76739,-30.3030303030303,4,2,1,5,0,0
76807,-27.7777777777778,4,2,1,71,0,0
77007,-27.7777777777778,4,2,1,5,0,0
77074,-25.6410256410256,4,2,1,71,0,0
77610,-38.4615384615385,4,2,1,71,0,0
78146,-33.3333333333334,4,2,1,71,0,0
78346,-33.3333333333334,4,2,1,5,0,0
78414,-125,4,2,1,71,0,0
78614,-125,4,2,1,5,0,0
78682,-25,4,2,1,71,0,0
78882,-25,4,2,1,5,0,0
78949,-36.4963503649635,4,2,1,71,0,0
79149,-36.4963503649635,4,2,1,5,0,0
79217,-15.9744408945687,4,2,1,81,0,1
79685,-15.9744408945687,4,2,1,5,0,1
79753,-35.7142857142857,4,2,1,71,0,0
80557,-19.1570881226054,4,2,1,71,0,0
80891,-19.1570881226054,4,2,1,5,0,0
80958,-14.4092219020173,4,2,1,71,0,0
81360,-17.8571428571429,4,2,1,81,0,1
81896,-38.4615384615385,4,2,1,71,0,0
82074,-50,4,2,1,71,0,0
82253,-71.4285714285715,4,2,1,71,0,0
82432,-38.4615384615385,4,2,1,71,0,0
82610,-50,4,2,1,71,0,0
82789,-71.4285714285715,4,2,1,71,0,0
83101,-50,4,2,1,71,0,0
83435,-50,4,2,1,5,0,0
83503,-50,4,2,1,71,0,0
83771,-250,4,2,1,71,0,0
84307,-62.5,4,2,1,71,0,0
84842,-250,4,2,1,71,0,0
85646,-38.4615384615385,4,2,1,81,0,0
86717,-38.4615384615385,4,2,1,91,0,0
87119,-38.4615384615385,4,2,2,91,0,0
87253,-38.4615384615385,4,2,1,91,0,0
87387,-38.4615384615385,4,2,2,91,0,0
87521,-50,4,2,2,91,0,0
87587,-50,4,2,2,5,0,0
87655,-50,4,2,2,91,0,0
87721,-50,4,2,2,5,0,0
87789,-38.4615384615385,4,2,3,81,0,1
88524,-38.4615384615385,4,2,3,5,0,1
88592,-38.4615384615385,4,2,3,81,0,1
88860,-50,4,2,3,81,0,1
89328,-50,4,2,3,5,0,1
89396,-50,4,2,3,81,0,1
89596,-50,4,2,3,5,0,1
89664,-76.9230769230765,4,2,3,81,0,1
89864,-76.9230769230765,4,2,3,5,0,1
89932,-41.6666666666667,4,2,3,81,0,1
90467,-50,4,2,3,81,0,1
90735,-100,4,2,3,81,0,1
91003,-41.6666666666667,4,2,3,81,0,1
91739,-41.6666666666667,4,2,3,5,0,1
91807,-50,4,2,3,81,0,1
92274,-50,4,2,3,5,0,1
92342,-50,4,2,3,81,0,1
92476,-41.6666666666667,4,2,3,81,0,1
92542,-41.6666666666667,4,2,3,5,0,1
92610,-41.6666666666667,4,2,3,81,0,1
92810,-41.6666666666667,4,2,3,5,0,1
92878,-100,4,2,3,81,0,1
93078,-100,4,2,3,5,0,1
93146,-41.6666666666667,4,2,3,81,0,1
93682,-33.3333333333334,4,2,3,81,0,1
93882,-33.3333333333334,4,2,3,5,0,1
93949,-125,4,2,3,81,0,1
94149,-125,4,2,3,5,0,1
94217,-33.3333333333334,4,2,3,81,0,1
94551,-33.3333333333334,4,2,3,5,0,1
94619,-90.9090909090905,4,2,3,81,0,1
94753,-38.4615384615385,4,2,3,81,0,1
95423,-50,4,2,3,81,0,1
95824,-38.4615384615385,4,2,3,81,0,1
96024,-38.4615384615385,4,2,3,5,0,1
96092,-33.3333333333334,4,2,3,81,0,1
96360,-55.5555555555555,4,2,3,81,0,1
96694,-55.5555555555555,4,2,3,5,0,1
96762,-55.5555555555555,4,2,3,81,0,1
97096,-55.5555555555555,4,2,3,5,0,1
97164,-55.5555555555555,4,2,3,81,0,1
97432,-41.6666666666667,4,2,3,81,0,1
97632,-41.6666666666667,4,2,3,5,0,1
97699,-33.3333333333334,4,2,3,81,0,1
97899,-33.3333333333334,4,2,3,5,0,1
97967,-45.4545454545455,4,2,3,81,0,1
98235,-41.6666666666667,4,2,3,81,0,1
98503,-38.4615384615385,4,2,3,81,0,1
98837,-38.4615384615385,4,2,3,5,0,1
98905,-50,4,2,3,81,0,1
99239,-50,4,2,3,5,0,1
99307,-50,4,2,3,81,0,1
99574,-38.4615384615385,4,2,3,81,0,1
99774,-38.4615384615385,4,2,3,5,0,1
99842,-71.4285714285715,4,2,3,81,0,1
100042,-71.4285714285715,4,2,3,5,0,1
100110,-71.4285714285715,4,2,3,81,0,1
100378,-33.3333333333334,4,2,3,81,0,1
100980,-33.3333333333334,4,2,3,5,0,1
101048,-50,4,2,3,81,0,1
101182,-38.4615384615385,4,2,3,81,0,1
101382,-38.4615384615385,4,2,3,5,0,1
101449,-25,4,2,3,81,0,1
101717,-66.6666666666665,4,2,3,81,0,1
102185,-66.6666666666665,4,2,3,5,0,1
102253,-41.6666666666667,4,2,3,81,0,1
102387,-38.4615384615385,4,2,3,81,0,1
102721,-38.4615384615385,4,2,3,5,0,1
102789,-33.3333333333334,4,2,3,81,0,1
103123,-33.3333333333334,4,2,3,5,0,1
103190,-50,4,2,3,81,0,1
103324,-38.4615384615385,4,2,3,81,0,1
103524,-38.4615384615385,4,2,3,5,0,1
103592,-50,4,2,3,81,0,1
103860,-33.3333333333334,4,2,3,81,0,1
104060,-33.3333333333334,4,2,3,5,0,1
104128,-38.4615384615385,4,2,3,81,0,1
104328,-38.4615384615385,4,2,3,5,0,1
104396,-38.4615384615385,4,2,3,81,0,1
104664,-33.3333333333334,4,2,3,81,0,1
104932,-33.3333333333334,4,2,1,51,0,0
105065,-125,4,2,1,51,0,0
105601,-116.279069767442,4,2,1,41,0,0
106137,-108.695652173913,4,2,1,41,0,0
106673,-102.040816326531,4,2,1,41,0,0
107208,-96.153846153846,4,2,1,41,0,0
107744,-90.909090909091,4,2,1,41,0,0
108280,-86.206896551724,4,2,1,41,0,0
108815,-81.967213114754,4,2,1,41,0,0
109217,-83.3333333333335,4,2,1,51,0,0
109485,-76.923076923077,4,2,1,51,0,0
109753,-71.4285714285715,4,2,1,61,0,0
110021,-66.6666666666665,4,2,1,61,0,0
110289,-62.5,4,2,1,71,0,0
110557,-58.8235294117645,4,2,1,71,0,0
110824,-55.5555555555555,4,2,1,81,0,0
111092,-52.6315789473685,4,2,1,81,0,0
112298,-52.6315789473685,4,2,2,81,0,0
113235,-50,4,2,2,81,0,0
113301,-50,4,2,2,5,0,0
113369,-50,4,2,2,81,0,0
113435,-50,4,2,2,5,0,0
113503,-25,4,2,3,81,0,1
113703,-25,4,2,3,5,0,1
113771,-38.4615384615385,4,2,3,81,0,1
114173,-33.3333333333334,4,2,3,81,0,1
114574,-38.4615384615385,4,2,3,81,0,1
114976,-50,4,2,3,81,0,1
115378,-83.3333333333335,4,2,3,81,0,1
115578,-83.3333333333335,4,2,3,5,0,1
115646,-33.3333333333334,4,2,3,81,0,1
115846,-33.3333333333334,4,2,3,5,0,1
115914,-38.4615384615385,4,2,3,81,0,1
116182,-50,4,2,3,81,0,1
116449,-27.7777777777778,4,2,3,81,0,1
116649,-27.7777777777778,4,2,3,5,0,1
116717,-38.4615384615385,4,2,3,81,0,1
117521,-76.923076923077,4,2,3,81,0,1
117721,-76.923076923077,4,2,3,5,0,1
117789,-29.4117647058824,4,2,3,81,0,1
117989,-29.4117647058824,4,2,3,5,0,1
118057,-29.4117647058824,4,2,3,81,0,1
118157,-29.4117647058824,4,2,3,5,0,1
118190,-66.6666666666665,4,2,3,81,0,1
118324,-27.7777777777778,4,2,3,81,0,1
118524,-27.7777777777778,4,2,3,5,0,1
118592,-27.7777777777778,4,2,3,81,0,1
118994,-33.3333333333334,4,2,3,81,0,1
119596,-33.3333333333334,4,2,3,5,0,1
119664,-33.3333333333334,4,2,3,81,0,1
119932,-27.7777777777778,4,2,3,81,0,1
120132,-27.7777777777778,4,2,3,5,0,1
120199,-66.6666666666665,4,2,3,81,0,1
120467,-26.3157894736842,4,2,3,81,0,1
120667,-26.3157894736842,4,2,3,5,0,1
120735,-66.6666666666665,4,2,3,81,0,1
121137,-38.4615384615385,4,2,3,81,0,1
121739,-38.4615384615385,4,2,3,5,0,1
121807,-66.6666666666665,4,2,3,81,0,1
122074,-38.4615384615385,4,2,3,81,0,1
122476,-50,4,2,3,81,0,1
122610,-38.4615384615385,4,2,3,81,0,1
122810,-38.4615384615385,4,2,3,5,0,1
122878,-76.9230769230765,4,2,3,81,0,1
123078,-76.9230769230765,4,2,3,5,0,1
123146,-41.6666666666667,4,2,3,81,0,1
123548,-50,4,2,3,81,0,1
123682,-33.3333333333334,4,2,3,81,0,1
123882,-33.3333333333334,4,2,3,5,0,1
123949,-90.9090909090905,4,2,3,81,0,1
124149,-90.9090909090905,4,2,3,5,0,1
124217,-33.3333333333334,4,2,3,81,0,1
124619,-50,4,2,3,81,0,1
124753,-38.4615384615385,4,2,3,81,0,1
124953,-38.4615384615385,4,2,3,5,0,1
125021,-100,4,2,3,81,0,1
125221,-100,4,2,3,5,0,1
125289,-100,4,2,3,81,0,1
125557,-38.4615384615385,4,2,3,81,0,1
125824,-33.3333333333334,4,2,3,81,0,1
126024,-33.3333333333334,4,2,3,5,0,1
126092,-38.4615384615385,4,2,3,81,0,1
126360,-33.3333333333334,4,2,3,81,0,1
126762,-50,4,2,3,81,0,1
126896,-38.4615384615385,4,2,3,81,0,1
127096,-38.4615384615385,4,2,3,5,0,1
127164,-38.4615384615385,4,2,3,81,0,1
127967,-33.3333333333334,4,2,3,81,0,1
128167,-33.3333333333334,4,2,3,5,0,1
128235,-33.3333333333334,4,2,3,81,0,1
128503,-29.4117647058824,4,2,3,81,0,1
128703,-29.4117647058824,4,2,3,5,0,1
128771,-50,4,2,3,81,0,1
129039,-33.3333333333334,4,2,3,81,0,1
129239,-33.3333333333334,4,2,3,5,0,1
129307,-50,4,2,3,81,0,1
129574,-250,4,2,1,81,0,0
130109,-250,4,2,1,71,0,0
130646,-250,4,2,1,51,0,0
136539,-125,4,2,3,61,0,0
137007,-125,4,2,3,5,0,0
137074,-125,4,2,3,81,0,0
139083,-125,4,2,1,31,0,0
139217,-125,4,2,1,81,0,0
139954,-125,4,2,1,31,0,0
140021,-125,4,2,1,81,0,0
141360,-38.4615384615385,4,2,3,81,0,1
141896,-33.3333333333334,4,2,3,81,0,1
142096,-33.3333333333334,4,2,3,5,0,1
142164,-33.3333333333334,4,2,3,81,0,1
142432,-50,4,2,3,81,0,1
143167,-50,4,2,3,5,0,1
143235,-100,4,2,3,81,0,1
143435,-100,4,2,3,5,0,1
143503,-33.3333333333334,4,2,3,81,0,1
144039,-38.4615384615385,4,2,3,81,0,1
144307,-66.6666666666665,4,2,3,81,0,1
144507,-66.6666666666665,4,2,3,5,0,1
144574,-33.3333333333334,4,2,3,81,0,1
145310,-33.3333333333334,4,2,3,5,0,1
145378,-66.6666666666665,4,2,3,81,0,1
145646,-33.3333333333334,4,2,3,81,0,1
146048,-38.4615384615385,4,2,3,81,0,1
146382,-38.4615384615385,4,2,3,5,0,1
146449,-90.9090909090905,4,2,3,81,0,1
146649,-90.9090909090905,4,2,3,5,0,1
146717,-38.4615384615385,4,2,3,81,0,1
147453,-38.4615384615385,4,2,3,5,0,1
147521,-100,4,2,3,81,0,1
147721,-100,4,2,3,5,0,1
147789,-28.5714285714286,4,2,3,81,0,1
148123,-28.5714285714286,4,2,3,5,0,1
148190,-66.6666666666665,4,2,3,81,0,1
148324,-50,4,2,3,81,0,1
149396,-38.4615384615385,4,2,3,81,0,1
149596,-38.4615384615385,4,2,3,5,0,1
149664,-50,4,2,3,81,0,1
149932,-33.3333333333334,4,2,3,81,0,1
150467,-38.4615384615385,4,2,3,81,0,1
150667,-38.4615384615385,4,2,3,5,0,1
150735,-38.4615384615385,4,2,3,81,0,1
151003,-50,4,2,3,81,0,1
151807,-90.9090909090905,4,2,3,81,0,1
152007,-90.9090909090905,4,2,3,5,0,1
152074,-33.3333333333334,4,2,3,81,0,1
152610,-41.6666666666667,4,2,3,81,0,1
153146,-38.4615384615385,4,2,3,81,0,1
153548,-50,4,2,3,81,0,1
153882,-50,4,2,3,5,0,1
153949,-33.3333333333334,4,2,3,81,0,1
154619,-38.4615384615385,4,2,3,81,0,1
154953,-38.4615384615385,4,2,3,5,0,1
155021,-100,4,2,3,81,0,1
155221,-100,4,2,3,5,0,1
155289,-33.3333333333334,4,2,3,81,0,1
156024,-33.3333333333334,4,2,3,5,0,1
156092,-100,4,2,3,81,0,1
156292,-100,4,2,3,5,0,1
156360,-25,4,2,3,81,0,1
156560,-25,4,2,3,5,0,1
156628,-90.9090909090905,4,2,3,81,0,1
156896,-25,4,2,3,81,0,1
157096,-25,4,2,3,5,0,1
157164,-90.9090909090905,4,2,3,81,0,1
157298,-90.9090909090905,4,2,2,71,0,1
157432,-90.9090909090905,4,2,2,71,0,0
157565,-100,4,2,2,71,0,0
158167,-100,4,2,2,5,0,0
158235,-50,4,2,2,71,0,0
158301,-50,4,2,2,5,0,0
158369,-33.3333333333334,4,2,2,71,0,0
158435,-33.3333333333334,4,2,2,5,0,0
158503,-33.3333333333334,4,2,3,81,0,1
159239,-33.3333333333334,4,2,3,5,0,1
159307,-33.3333333333334,4,2,3,81,0,1
159574,-38.4615384615385,4,2,3,81,0,1
159976,-50,4,2,3,81,0,1
160042,-50,4,2,3,5,0,1
160110,-50,4,2,3,81,0,1
160310,-50,4,2,3,5,0,1
160378,-100,4,2,3,81,0,1
160578,-100,4,2,3,5,0,1
160646,-33.3333333333334,4,2,3,81,0,1
161048,-66.6666666666665,4,2,3,81,0,1
161182,-38.4615384615385,4,2,3,81,0,1
161449,-100,4,2,3,81,0,1
161717,-38.4615384615385,4,2,3,81,0,1
162453,-38.4615384615385,4,2,3,5,0,1
162521,-50,4,2,3,81,0,1
162789,-38.4615384615385,4,2,3,81,0,1
162989,-38.4615384615385,4,2,3,5,0,1
163057,-38.4615384615385,4,2,3,81,0,1
163190,-41.6666666666667,4,2,3,81,0,1
163256,-41.6666666666667,4,2,3,5,0,1
163324,-41.6666666666667,4,2,3,81,0,1
163524,-41.6666666666667,4,2,3,5,0,1
163592,-100,4,2,3,81,0,1
163792,-100,4,2,3,5,0,1
163860,-41.6666666666667,4,2,3,81,0,1
164396,-33.3333333333334,4,2,3,81,0,1
164596,-33.3333333333334,4,2,3,5,0,1
164664,-125,4,2,3,81,0,1
164864,-125,4,2,3,5,0,1
164932,-33.3333333333334,4,2,3,81,0,1
165266,-33.3333333333334,4,2,3,5,0,1
165333,-90.9090909090905,4,2,3,81,0,1
165467,-38.4615384615385,4,2,3,81,0,1
166137,-50,4,2,3,81,0,1
166539,-38.4615384615385,4,2,3,81,0,1
166739,-38.4615384615385,4,2,3,5,0,1
166807,-33.3333333333334,4,2,3,81,0,1
167074,-55.5555555555555,4,2,3,81,0,1
167408,-55.5555555555555,4,2,3,5,0,1
167476,-55.5555555555555,4,2,3,81,0,1
167810,-55.5555555555555,4,2,3,5,0,1
167878,-55.5555555555555,4,2,3,81,0,1
168146,-41.6666666666667,4,2,3,81,0,1
168346,-41.6666666666667,4,2,3,5,0,1
168414,-33.3333333333334,4,2,3,81,0,1
168614,-33.3333333333334,4,2,3,5,0,1
168682,-45.4545454545455,4,2,3,81,0,1
168949,-38.4615384615385,4,2,3,81,0,1
169217,-33.3333333333334,4,2,3,81,0,1
169551,-33.3333333333334,4,2,3,5,0,1
169619,-125,4,2,3,81,0,1
169753,-50,4,2,3,81,0,1
169953,-50,4,2,3,5,0,1
170021,-50,4,2,3,81,0,1
170289,-33.3333333333334,4,2,3,81,0,1
170489,-33.3333333333334,4,2,3,5,0,1
170557,-71.4285714285715,4,2,3,81,0,1
170757,-71.4285714285715,4,2,3,5,0,1
170824,-71.4285714285715,4,2,3,81,0,1
171092,-33.3333333333334,4,2,3,81,0,1
171694,-33.3333333333334,4,2,3,5,0,1
171762,-50,4,2,3,81,0,1
171896,-38.4615384615385,4,2,3,81,0,1
172096,-38.4615384615385,4,2,3,5,0,1
172164,-38.4615384615385,4,2,3,81,0,1
172432,-66.6666666666665,4,2,3,81,0,1
172899,-66.6666666666665,4,2,3,5,0,1
172967,-41.6666666666667,4,2,3,81,0,1
173101,-38.4615384615385,4,2,3,81,0,1
173435,-38.4615384615385,4,2,3,5,0,1
173503,-33.3333333333334,4,2,3,81,0,1
173837,-33.3333333333334,4,2,3,5,0,1
173905,-50,4,2,3,81,0,1
174039,-38.4615384615385,4,2,3,81,0,1
174239,-38.4615384615385,4,2,3,5,0,1
174307,-50,4,2,3,81,0,1
174574,-33.3333333333334,4,2,3,81,0,1
174774,-33.3333333333334,4,2,3,5,0,1
174842,-38.4615384615385,4,2,3,81,0,1
175042,-38.4615384615385,4,2,3,5,0,1
175110,-38.4615384615385,4,2,3,81,0,1
175378,-33.3333333333334,4,2,3,81,0,1
175646,-33.3333333333334,4,2,1,51,0,0
175780,-125,4,2,1,51,0,0
176315,-116.279069767442,4,2,1,41,0,0
176851,-108.695652173913,4,2,1,41,0,0
177387,-102.040816326531,4,2,1,41,0,0
177923,-96.153846153846,4,2,1,41,0,0
178458,-90.909090909091,4,2,1,41,0,0
178994,-86.206896551724,4,2,1,41,0,0
179530,-81.967213114754,4,2,1,41,0,0
179932,-83.3333333333335,4,2,1,51,0,0
180199,-76.923076923077,4,2,1,51,0,0
180467,-71.4285714285715,4,2,1,61,0,0
180735,-66.6666666666665,4,2,1,61,0,0
181003,-62.5,4,2,1,71,0,0
181271,-58.8235294117645,4,2,1,71,0,0
181539,-55.5555555555555,4,2,1,81,0,0
181807,-52.6315789473685,4,2,1,81,0,0
183012,-52.6315789473685,4,2,2,81,0,0
183949,-50,4,2,2,81,0,0
184015,-50,4,2,2,5,0,0
184083,-50,4,2,2,81,0,0
184149,-50,4,2,2,5,0,0
184217,-50,4,2,1,100,0,0

[Colours]
Combo1 : 255,187,119
Combo2 : 159,255,159
Combo3 : 255,255,155

[HitObjects]
432,320,1003,5,0,2:0:0:0:
432,320,1539,1,0,2:0:0:0:
116,363,2074,5,0,2:0:0:0:
179,317,2208,2,0,P|210:327|239:339,1,63.0000000000002,0|0,2:0|2:0,2:0:0:0:
40,240,2610,6,0,P|72:236|102:229,1,63.0000000000002,8|0,2:1|2:0,2:0:0:0:
177,25,3146,1,0,2:0:0:0:
162,37,3280,2,0,P|169:68|175:99,1,63.0000000000002,0|0,2:0|2:0,2:0:0:0:
121,153,3682,5,8,2:1:0:0:
432,320,3949,5,0,2:0:0:0:
388,255,4083,1,0,2:0:0:0:
312,283,4217,2,0,P|287:291|240:300,1,63.0000000000002,0|0,2:0|2:0,2:0:0:0:
324,208,4619,2,0,P|293:198|265:186,1,63.0000000000002,0|0,2:0|2:0,2:0:0:0:
399,176,5021,2,0,P|388:163|374:138,1,31.5000000000001,0|0,2:0|2:0,2:0:0:0:
335,0,5289,6,0,P|326:35|313:70,1,63.0000000000002,0|0,2:0|2:0,2:0:0:0:
241,68,5690,1,0,2:0:0:0:
312,283,5824,1,8,2:1:0:0:
255,210,5958,6,0,P|263:183|265:173,1,31.5000000000001,0|0,2:0|2:0,2:0:0:0:
201,137,6226,5,0,2:0:0:0:
343,203,6360,1,0,2:0:0:0:
220,288,6494,6,0,P|180:279|153:275,1,63.0000000000002,0|0,2:0|2:0,2:0:0:0:
435,87,6896,1,8,2:1:0:0:
435,87,7164,5,0,2:0:0:0:
360,74,7298,1,0,2:0:0:0:
309,133,7432,1,0,2:0:0:0:
343,203,7565,2,0,P|378:195|413:189,1,63.0000000000002,0|0,2:0|2:0,2:0:0:0:
242,67,7967,6,0,P|198:59|157:48,1,84,8|0,2:1|2:0,2:0:0:0:
99,2,8369,1,0,2:0:0:0:
18,141,8503,6,0,P|62:124|104:104,1,94.5000000000004,0|0,2:0|2:0,2:0:0:0:
160,48,9039,1,8,2:1:0:0:
99,2,9173,1,0,2:0:0:0:
201,137,9307,5,0,2:0:0:0:
201,137,9574,1,0,2:0:0:0:
126,307,9708,6,0,P|107:284|100:241,1,63.0000000000002,0|0,2:0|2:0,2:0:0:0:
201,137,10110,2,0,P|220:160|227:203,1,63.0000000000002,8|0,2:1|2:0,2:0:0:0:
176,244,10512,1,0,2:0:0:0:
360,74,10646,6,0,B|413:76|458:115,2,105,0|0|8,3:0|2:0|2:1,2:0:0:0:
102,260,11449,6,0,L|106:278,1,15.75,0|0,3:0|2:0,2:0:0:0:
171,343,11717,6,0,B|134:306|71:321|71:321|56:374|-12:373,1,189,0|0,2:0|2:0,2:0:0:0:
0,300,12253,1,8,2:1:0:0:
258,200,12521,5,2,2:3:0:0:
257,194,12588,1,2,2:3:0:0:
257,188,12655,1,2,2:3:0:0:
368,339,12789,6,0,B|437:320|428:360|501:342,1,126,0|0,3:0|2:0,2:0:0:0:
295,311,13190,6,0,P|318:278|342:267,1,62.9999999999999,0|8,3:0|2:1,2:0:0:0:
337,268,13458,1,0,2:0:0:0:
383,130,13592,6,0,P|442:148|467:192,1,94.4999999999998,0|0,3:0|2:0,2:0:0:0:
512,227,13860,6,0,P|450:216|368:207,1,118.125,0|0,2:0|2:0,2:0:0:0:
391,215,14128,1,0,3:0:0:0:
512,64,14396,6,0,P|442:51|349:41,1,157.5,8|2,2:1|2:3,2:0:0:0:
358,49,14731,1,2,2:3:0:0:
360,56,14798,1,2,2:3:0:0:
63,33,14932,5,0,3:0:0:0:
63,33,15065,1,0,2:0:0:0:
24,106,15199,6,0,P|85:112|134:75,2,126,0|8|0,2:0|2:1|3:0,2:0:0:0:
143,242,16003,5,0,2:0:0:0:
171,343,16137,2,0,P|165:307|139:232,1,105,0|0,2:0|2:0,2:0:0:0:
309,114,16539,6,0,B|332:122|332:122|349:173|308:218|253:205,1,147,8|2,2:1|2:3,2:0:0:0:
265,203,16873,1,2,2:3:0:0:
258,200,16940,1,2,2:3:0:0:
368,339,17074,6,0,P|410:329|472:319,1,105,0|0,3:0|2:0,2:0:0:0:
368,339,17476,1,0,3:0:0:0:
469,231,17610,6,0,P|417:239|365:250,1,105,8|0,2:1|3:0,2:0:0:0:
469,231,18012,1,0,2:0:0:0:
134,74,18146,5,0,2:0:0:0:
199,27,18280,1,0,2:0:0:0:
266,66,18414,2,0,L|260:110,1,41.9999999999997,0|8,3:0|2:1,2:0:0:0:
500,368,18949,5,2,2:3:0:0:
499,362,19016,1,2,2:3:0:0:
499,356,19083,1,2,2:3:0:0:
37,249,19217,5,8,2:0:0:0:
105,197,19351,22,0,L|108:170,2,20.9999999999998,0|0|0,2:0|2:0|2:0,2:0:0:0:
37,249,19753,5,8,2:0:0:0:
144,284,19887,22,0,L|147:311,2,24.15,0|0|0,2:0|2:0|2:0,2:0:0:0:
37,249,20289,5,8,2:0:0:0:
204,162,20423,22,0,L|207:135,2,27.2999999999999,0|0|0,2:0|2:0|2:0,2:0:0:0:
37,249,20824,5,8,2:0:0:0:
240,307,20958,22,0,L|243:338,2,30.4499999999999,0|0|0,2:0|2:0|2:0,2:0:0:0:
37,249,21360,5,8,2:0:0:0:
311,139,21494,22,0,L|314:105,2,33.6,0|0|0,2:0|2:0|2:0,2:0:0:0:
37,249,21896,5,8,2:0:0:0:
344,326,22030,22,0,L|349:371,2,36.75,0|0|0,2:0|2:0|2:0,2:0:0:0:
37,249,22432,5,8,2:0:0:0:
418,123,22565,22,0,L|423:77,2,39.9,0|0|0,2:0|2:0|2:0,2:0:0:0:
37,249,22967,5,8,2:0:0:0:
451,345,23101,22,0,L|456:390,2,43.0500000000001,0|0|0,2:0|2:0|2:0,2:0:0:0:
37,249,23503,6,0,P|28:216|19:192,1,52.5,8|0,2:0|2:0,2:0:0:0:
91,46,23771,2,0,P|101:89|110:114,1,57.7499999999999,8|0,2:0|2:0,2:0:0:0:
363,326,24039,22,0,P|367:281|372:254,1,62.9999999999999,8|0,2:0|2:0,2:0:0:0:
279,140,24307,2,0,P|274:182|268:217,1,68.2499999999999,8|0,2:0|2:0,2:0:0:0:
91,46,24574,6,0,P|149:31|184:18,1,73.4999999999999,8|0,2:0|2:0,2:0:0:0:
279,140,24842,2,0,P|221:155|186:168,1,78.7500000000002,8|0,2:0|2:0,2:0:0:0:
330,64,25110,22,0,P|395:85|434:95,1,84,8|0,2:0|2:0,2:0:0:0:
512,272,25378,2,0,P|447:251|408:241,1,89.2500000000003,8|0,2:0|2:0,2:0:0:0:
0,359,25646,5,8,2:0:0:0:
51,372,25713,1,8,2:0:0:0:
100,362,25780,1,8,2:0:0:0:
139,337,25847,1,8,2:0:0:0:
165,300,25914,1,8,2:0:0:0:
172,260,25981,1,8,2:0:0:0:
166,224,26048,1,8,2:0:0:0:
142,196,26115,1,8,2:0:0:0:
112,185,26182,21,8,2:0:0:0:
106,205,26248,1,8,2:0:0:0:
94,188,26315,1,8,2:0:0:0:
88,206,26382,1,8,2:0:0:0:
77,191,26449,5,8,2:0:0:0:
29,177,26516,21,8,2:0:0:0:
5,129,26583,5,8,2:0:0:0:
22,73,26650,21,8,2:0:0:0:
91,46,26717,5,4,2:3:0:0:
91,46,27789,6,0,B|196:122|205:254|205:254|173:62|277:13|414:76|336:189|261:170,1,624.749999999999,8|0,2:3|2:0,2:0:0:0:
176,210,28324,6,0,B|115:201|65:256|99:261|40:317|-25:287,1,204.75,8|0,2:1|2:0,2:0:0:0:
8,214,28592,5,0,3:0:0:0:
8,214,28659,1,0,3:0:0:0:
8,214,28726,1,0,3:0:0:0:
148,345,28860,6,0,B|202:379|202:379|191:296|191:296|185:287|185:287|174:194,1,236.25,8|0,2:3|2:0,2:0:0:0:
322,258,29128,2,0,L|259:247,1,52.5,0|0,2:0|2:0,2:0:0:0:
413,59,29262,6,0,B|489:3|489:3|454:149|454:149|461:165|461:165|429:303,1,393.749999999999,8|0,2:3|2:0,2:0:0:0:
175,209,29664,6,0,B|130:213|154:147|229:89|316:80|341:132|281:155,1,236.25,8|0,2:3|2:0,2:0:0:0:
304,139,29932,6,0,B|303:139|302:139|302:139|302:140|302:140|302:139|302:139|301:139|300:139|300:139|300:138|300:138|299:139|299:139|298:140|298:140|298:141|298:141|297:140|297:140|296:140|296:140|296:139|296:139|296:140|296:140|295:140|295:140|294:141|294:141|294:140|294:140|293:140|292:140|292:140|292:139|292:139|291:140|291:140|290:140|290:140|290:141|290:141|289:140|289:140|288:140|288:140|288:139|288:139|287:140|287:140|286:140|286:140|286:141|286:141|285:140|285:140|284:140|284:140|284:139|284:139|283:140|283:140|282:141|282:141|282:140|282:140|281:140|280:140|280:140|280:139|280:139|279:140|279:140|278:140|278:140|278:141|278:141|277:140|277:140|276:139|276:139|275:140|275:140|274:140|274:140|274:141|274:141|274:140|274:140|273:140|272:140|272:140|272:139|272:139|271:139|271:139|270:140|270:140|269:139|269:139|268:138|268:138|267:139|267:139|266:140|266:140|265:139|265:139|264:138|264:138|264:139|264:139|263:139|262:139|262:139|262:138|262:138|261:138|261:138|260:137|260:137|260:138|260:138|259:138|259:138|258:139|258:139|258:138|258:138|257:138|257:138|256:137|256:137|255:137|255:137|254:138|254:138|254:137|254:137|253:137|253:137|252:136|252:136|252:137|252:137|251:137|251:137|250:137|250:137|250:136|250:136|249:136|249:136|249:135|249:135|248:136|248:136|247:136|247:136|246:136|246:136|246:135|246:135|245:135|245:135|245:134|245:134|244:135|244:135|243:135|243:135|242:136|242:136|242:134|242:134|241:134|241:134|241:133|241:133|240:134|240:134|239:134|239:134|238:134|238:134|238:133|238:133|237:133|237:133|237:132|237:132|236:133|236:133|236:132|235:132|235:132|234:133|234:133|234:132|234:132|233:132|233:132|233:131|233:131|232:131|232:131|231:131|231:131|231:132|231:132|231:131|231:131|230:130|230:130|230:129|230:129|229:130|229:130|228:130|228:130|227:130|227:130|227:129|227:129|226:129|226:129|226:128|226:128|225:128|225:128|224:128|224:128|223:129|223:129|223:128|223:128|223:127|222:127|222:127|222:126|222:126|221:127|221:127|220:126|220:126|220:127|220:127|220:126|220:126|219:126|219:125|219:125|219:124|219:124|218:125|218:125|217:125|217:124|217:124|216:125|216:125|216:124|216:124|215:124|215:124|215:122|215:122|214:123|214:123|213:123|213:123|213:122|213:122|212:122|212:121|212:121|212:120|212:120|211:121|211:121|210:121|210:120|210:120|209:121|209:121|209:120|209:120|208:119|208:119|209:118|209:118|208:119|208:119|207:118|207:118|206:119|206:119|206:118|206:118|205:117|205:117|205:116|205:116|204:116|204:116|202:116|202:116|203:115|203:115|202:115|202:115|202:114|202:114|201:114|201:114|200:113|200:113|199:114|199:114|200:113|200:113|199:112|199:112|199:111|199:111|198:111|198:111|197:111|197:111|196:111|196:111|197:110|197:110|196:110|196:109|196:109|196:108|196:108|195:109|195:109|195:108|195:108|193:108|193:108|194:107|194:107|193:107|193:107|194:105|194:105|192:106|192:106|192:105|192:105|191:105|191:105|191:104|191:104|190:104|190:104|191:102|191:102|190:103|190:103|189:102|189:102|188:102|188:102|188:101|188:101|188:100|188:100|187:100|187:100|187:99|186:99|186:99|185:99|185:99|186:98|186:98|185:98|185:97|185:97|186:96|186:96|185:97|185:97|184:96|184:96|183:96|183:96|183:95|183:95|183:94|183:94|183:93|183:93|182:93|182:93|181:93|181:93|181:92|181:92|181:91|180:91|180:91|181:90|181:90|180:90|180:90|179:89|179:89|178:90|178:90|179:89|179:89|178:88|178:88|179:87|179:87|178:87|178:87|177:87|177:86|177:86|176:86|176:86|176:85|176:85|176:84|176:84|175:84|175:84|175:83|175:83|174:83|174:83|174:82|174:82|174:81|174:81|174:80|174:80|173:80|173:80|173:79|173:79|171:80|171:80|172:79|172:79|172:78|171:78|171:78|172:77|172:77|171:77|171:77|170:77|170:76|170:76|169:76|169:76|170:75|170:75|169:75|169:75|170:74|170:74|169:74|169:74|168:73|168:73|167:73|167:73|167:72|167:72|167:71|167:71|167:70|167:70|166:70|166:70|164:70|164:70|165:69|165:69|165:68|164:68|164:68|165:67|165:67|164:67|164:67|163:67|163:66|163:66|162:67|162:67|163:66|163:66|162:65|162:65|163:64|163:64|161:64|161:64|161:63|161:63|160:64|160:64|160:63|160:63|160:62|159:62|159:62|160:61|160:61|159:61|159:61|158:61|158:60|158:60|157:61|157:61|158:60|158:60|157:59|157:59|157:58|157:58|156:58|156:58|155:57|155:57|154:58|154:58|155:57|155:57|154:56|154:56|154:55|154:55|153:55|153:55|153:54|153:54|152:55|152:55|152:54|152:54|152:53|151:53|151:53|152:52|152:52|151:52|151:52|150:52|150:52|149:52|149:52|149:51|149:51|148:50|148:50|149:49|149:49|148:50|148:50|147:49|147:49|146:49|146:49|146:48|146:48|145:48|145:48|145:47|145:47|144:47|144:47|143:47|143:47|143:46|143:46|142:46|142:45|142:45|142:44|142:44|141:45|141:45|141:44|140:44|140:44|139:45|139:45|140:44|140:44|139:43|139:43|139:42|139:42|138:42|138:42|137:42|137:42|136:43|136:43|136:41|136:41|135:41|135:41|136:40|136:40|135:40|135:40|134:40|134:40|133:40|133:40|133:39|133:39|132:39|132:39|132:38|132:38|131:38|131:38|130:38|130:38|129:38|129:38|129:37|129:37|129:36|129:36|128:36|128:36|127:36|127:36|126:37|126:37|126:36|126:36|125:35|125:35|125:34|125:34|124:35|124:35|123:34|123:34|122:35|122:35|122:34|122:34|121:33|121:33|121:32|121:32|120:33|120:33|119:33|119:33|119:32|119:32|118:32|118:32|117:31|117:31|117:32|117:32|116:31|116:31|115:32|115:32|115:31|115:31|114:31|114:31|114:29|114:29|113:30|113:30|112:30|112:30|111:31|111:31|111:30|111:30|110:29|110:29|110:28|110:28|109:29|109:29|108:29|108:29|107:30|107:30|107:28|107:28|106:28|106:28|106:27|106:27|105:28|105:28|104:28|104:28|103:29|103:29|103:27|103:27|102:27|102:27|102:26|102:26|101:27|101:27|100:27|100:27|100:28|100:28|99:27|99:27|99:26|98:26|98:26|98:25|98:25|97:26|97:26|96:26|96:26|96:27|96:27|95:26|95:26|94:26|94:26|94:24|94:24|93:25|93:25|92:25|92:25|92:26|92:26|92:25|92:25|91:25|91:25|90:24|90:24|90:25|90:25|89:25|88:25|88:25|87:24|87:24|86:23|86:23|86:24|86:24|85:24|85:24|84:25|84:25|84:24|84:24|83:24|83:24|82:23|82:23|82:24|82:24|81:24|81:24|80:25|80:25|80:24|80:24|79:24|79:24|78:23|78:23|78:24|78:24|77:24|77:24|76:24|76:24|76:23|76:23|75:23|75:23|74:22|74:22|74:23|74:23|73:23|73:23|72:24|72:24|72:23|72:23|71:23|71:23|70:22|70:22|70:23|70:23|69:23|69:23|68:24|68:24|68:23|68:23|67:23|67:23|66:22|66:22|66:23|66:23|65:23|65:23|64:24|64:24|64:23|64:23|63:23|63:23|62:23|62:23|62:24|62:24|61:24|61:24|60:25|60:25|60:24|60:24|59:24|59:24|58:23|58:23|58:24|58:24|57:24|57:24|56:25|56:25|56:24|56:24|55:24|55:24|54:23|54:23|54:24|54:24|53:24|53:24|52:25|52:25|52:24|52:24|51:25|51:25|50:24|50:24|50:25|50:25|49:25|49:25|48:26|48:26|48:25|48:25|47:25|47:25|46:24|46:24|46:25|46:25|45:25|45:25|44:27|44:27|44:26|44:26|43:26|43:26|42:25|42:25|42:26|42:26|41:26|41:26|41:27|41:27|40:26|40:26|39:27|39:27|38:26|38:26|38:27|38:27|37:27|37:27|37:28|37:28|36:27|36:27|35:27|35:28|35:28|34:27|34:27|34:28|34:28|33:28|33:28|33:29|33:29|32:28|32:28|31:28,1,551.249999999999,0|0,3:0|2:0,2:0:0:0:
8,214,30467,6,0,P|17:175|16:157,1,52.5000000000001,8|0,2:1|2:0,2:0:0:0:
92,163,30646,2,0,P|77:125|65:111,1,52.5000000000001,0|0,2:0|3:0,2:0:0:0:
133,70,30824,2,0,P|100:47|82:42,1,52.5000000000001,0|0,2:0|2:0,2:0:0:0:
229,315,31003,6,0,P|300:325|400:346,1,157.5,8|0,2:0|2:0,2:0:0:0:
481,316,31271,2,0,B|514:296|516:224|393:216|383:316|424:371,1,236.25,0|0,3:0|2:0,2:0:0:0:
294,182,31539,6,0,P|279:154|276:136,1,39.375,8|0,2:1|2:0,2:0:0:0:
311,64,31807,6,0,B|310:64|309:64|309:64|309:65|309:65|308:64|308:64|307:64|307:64|307:63|307:63|306:64|306:64|305:64|305:64|305:65|305:65|304:64|304:64|303:64|303:64|302:64|302:64|302:65|301:65|301:65|301:66|301:66|300:65|300:65|299:65|299:65|299:64|299:64|298:65|298:65|297:66|297:66|297:65|297:65|296:65|295:65|295:65|295:66|295:66|294:66|294:66|293:67|293:67|293:66|293:66|292:66|292:66|291:65|291:65|291:67|291:67|290:67|290:67|289:68|289:68|289:67|289:67|288:67|288:67|287:67|287:67|287:68|287:68|286:68|286:68|286:69|286:69|285:68|285:68|285:69|284:69|284:69|283:68|283:68|283:69|283:69|282:70|282:70|282:71|282:71|281:70|281:70|280:70|280:70|279:70|279:70|279:71|279:71|279:72|279:72|278:72|278:72|277:72|277:72|276:72|276:72|276:73|276:73|275:73|275:73|275:74|275:74|274:74|274:74|273:74|273:74|272:74|272:74|273:75|273:75|272:75|272:76|272:76|272:77|272:77|271:76|271:76|271:77|270:77|270:77|269:76|269:76|270:78|270:78|269:78|269:78|269:79|269:79|268:79|268:79|267:80|267:80|266:79|266:79|267:80|267:80|266:81|266:81|266:82|266:82|265:82|265:82|263:82|263:82|264:83|264:83|263:84|263:84|264:85|264:85|262:85|262:85|261:85|261:85|261:86|261:86|261:87|261:87|261:88|261:88|260:88|260:88|259:89|259:89|258:88|258:88|259:89|259:89|258:90|258:90|259:91|259:91|258:91|258:91|257:91|257:92|257:92|256:92|256:92|256:93|256:93|256:94|256:94|255:94|255:94|255:95|255:95|254:95|254:95|254:96|254:96|254:97|254:97|254:98|254:98|253:98|253:98|251:98|251:98|252:99|252:99|252:100|251:100|251:100|252:101|252:101|251:101|251:101|251:102|250:102|250:102|249:102|249:102|250:103|250:103|249:103|249:103|250:104|250:104|249:104|249:104|248:105|248:105|247:105|247:105|248:106|248:106|247:107|247:107|248:108|248:108|247:108|247:108|246:108|246:108|245:108|245:108|245:109|245:109|245:110|245:110|245:111|245:111|244:111|244:111|244:112|244:112|243:112|243:112|243:113|243:113|243:114|243:114|242:114|242:114|242:115|241:115|241:115|240:115|240:115|241:116|241:116|240:116|240:117|240:117|241:118|241:118|239:117|239:117|239:118|239:118|238:118|238:118|238:119|238:119|238:120|238:120|238:121|238:121|237:120|237:120|236:121|236:121|235:121|235:121|235:122|235:122|235:124|235:124|234:123|234:123|234:124|233:124|233:124|232:124|232:124|233:125|233:125|232:125|232:125|232:126|232:126|231:126|231:126|230:127|230:127|229:126|229:126|230:127|230:127|229:128|229:128|229:129|229:129|228:128|228:128|227:129|227:129|226:128|226:128|226:130|226:130|226:131|226:131|225:131|225:131|224:131|224:131|223:131|223:131|223:132|223:132|222:132|222:132|222:133|222:133|221:133|221:133|220:133|220:133|220:134|220:134|219:134|219:134|219:135|219:135|218:135|218:135|217:135|217:135|216:134|216:134|216:136|216:136|215:136|215:136|215:137|215:137|214:136|214:136|213:137|213:137|212:136|212:136|212:137|212:137|211:137|211:137|211:139|211:139|210:138|210:138|209:137|209:137|208:138|208:138|208:139|208:139|207:140|207:140|207:139|207:139|206:139|206:139|205:138|205:138|205:140|205:140|204:140|204:140|203:141|203:141|203:140|203:140|202:140|202:140|201:140|201:140|200:141|200:141|199:142|199:142|199:141|199:141|198:141|198:141|197:140|197:140|197:141|197:141|196:141|196:141|196:143|196:143|195:142|195:142|194:142|194:142|193:141|193:141|193:142|193:142|192:142|192:142|191:143|191:143|191:142|191:142|190:142|190:142|189:141|189:141|189:142|189:142|188:142|188:142|187:143|187:143|187:142|187:142|186:143|186:143|185:142|185:142|185:143|185:143|184:143,1,270.900000000001,0|0,3:0|2:0,2:0:0:0:
32,28,32074,6,0,B|184:115|221:272|188:386|73:412|7:359|-22:264|53:153,1,624.749999999999,8|0,2:3|2:0,2:0:0:0:
226,100,32610,6,0,L|294:107,4,52.5,8|0|0|0|0,2:1|2:0|2:0|2:0|2:0,2:0:0:0:
380,239,32878,5,0,3:0:0:0:
386,211,32945,1,0,3:0:0:0:
371,186,33012,1,0,3:0:0:0:
304,237,33146,6,0,B|439:251|371:349|519:356,1,236.25,8|0,2:3|2:0,2:0:0:0:
497,354,33414,2,0,L|491:287,1,39.3750000000001,0|0,2:0|2:0,2:0:0:0:
349,18,33548,6,0,B|354:56|354:56|357:60|357:60|361:99,1,78.7499999999998,8|0,2:3|2:0,2:0:0:0:
485,184,33682,2,0,B|516:178|541:137|499:78|442:70|359:104|371:205,1,267.75,8|0,2:1|2:0,2:0:0:0:
108,91,33949,6,0,B|90:96|47:95|35:3|110:-17|169:-7|192:74,1,236.25,8|0,2:3|2:0,2:0:0:0:
189,65,34217,6,0,B|189:66|189:67|189:67|188:67|188:67|188:68|188:69|188:69|187:69|187:69|188:69|188:69|188:70|188:70|189:71|189:71|187:71|187:71|187:72|187:72|186:73|186:73|187:73|187:73|186:74|186:74|187:75|187:75|186:75|186:75|186:76|186:76|185:77|185:77|186:77|186:77|185:78|185:78|186:79|186:79|185:79|185:79|185:80|185:80|184:80|184:80|185:81|185:81|184:82|184:82|185:83|185:83|184:83|184:83|184:84|184:84|183:84|183:84|184:85|184:85|183:86|183:86|184:87|184:87|183:87|183:87|183:88|183:88|182:88|182:88|183:89|183:89|182:89|182:90|182:90|183:90|183:90|182:91|182:91|182:92|182:92|181:92|181:92|182:93|182:93|181:94|181:94|182:94|182:94|181:95|181:95|180:96|180:96|181:97|181:97|180:98|180:98|181:98|181:98|180:98|180:98|180:99|180:99|179:100|179:100|180:100|180:100|179:101|179:101|180:102|180:102|179:102|179:102|179:103|179:103|178:104|178:104|179:104|179:104|178:105|178:105|179:106|179:106|178:106|178:106|178:107|178:107|177:107|177:107|178:108|178:108|177:109|177:109|178:110|178:110|177:110|177:110|177:111|177:111|176:111|176:111|177:112|177:112|176:113|176:113|177:114|177:114|176:114|176:114|176:115|176:115|175:115|175:115|176:116|176:116|175:117|175:117|176:118|176:118|175:118|175:118|175:119|175:119|174:119|174:119|175:120|175:120|174:121|174:121|175:121|175:121|174:122|174:122|174:123|174:123|173:123|173:123|174:124|174:124|173:125|173:125|174:125|174:125|173:126|173:126|173:127|173:127|172:127|172:127|173:128|173:128|173:129|173:129|172:129|172:129|172:130|172:130|171:131|171:131|172:132|172:132|172:133|172:133|171:133|171:133|171:134|171:134|170:135|170:135|171:135|171:135|171:136|171:136|171:137|171:137|170:137|170:137|170:138|170:138|169:138|169:138|170:139|170:139|170:140|170:140|170:141|170:141|169:141|169:141|169:142|169:142|168:142|168:142|169:143|169:143|169:144|169:144|170:145|170:145|168:145|168:145|168:146|168:146|167:146|167:146|168:147|168:147|168:148|168:148|169:149|169:149|168:149|168:149|167:150|167:150|166:150|166:150|167:151|167:151|167:152|167:152|168:153|168:153|167:153|167:153|166:154|166:154|165:154|165:154|166:155|166:155|166:156|166:156|167:156|167:156|166:157|166:157|165:158|165:158|164:158|164:158|165:159|165:159|165:160|165:160|166:160|166:160|165:161|165:161|165:162|165:162|163:162|163:162|164:162|164:162|164:163|164:163|165:164|165:164|164:164|164:164|164:165|164:165|163:166|163:166|163:167|163:167|164:168|164:168|163:168|163:168|163:169|163:169|162:169|162:169|162:170|162:170|162:171|162:171|163:172|163:172|162:172|162:172|162:173|162:173|161:173|161:173|162:174|162:174|161:175|161:175|162:176|162:176|161:176|161:176|161:177|161:177|160:177|160:177|161:178|161:178|160:179|160:179|161:180|161:180|160:180|160:180|160:181|160:181|159:181|159:181|160:182|160:182|160:183|160:183|160:184|160:184|159:184|159:184|159:185|159:185|158:185|158:185|159:186|159:186|159:187|159:187|159:188|159:188|158:188|158:188|158:189|158:189|157:189|157:189|158:190|158:190|158:191|158:191|159:191|159:191|157:192|157:192|157:193|157:193|156:193|156:193|157:194|157:194|157:195|157:195|158:195|158:195|157:196|157:196|156:197|156:197|155:197|155:197|156:198|156:198|156:199|156:199|157:199|157:199|156:200|156:200|154:201|154:201|155:201|155:201|155:202|155:202|156:203|156:203|155:203|155:203|155:204|155:204|154:205|154:205|154:206|154:206|155:207|155:207|154:207|154:207|154:208|154:208|153:209|153:209|154:209|154:209|153:210|153:210|154:211|154:211|153:211|153:211|153:212|153:212|152:212|152:212|153:213|153:213|152:214|152:214|153:215|153:215|152:215|152:215|152:216|152:216|151:216|151:216|152:217|152:217|152:218|152:218|152:219|152:219|151:219|151:219|151:220|151:220|150:220|150:220|151:221|151:221|151:222|151:222|152:223|152:223|150:223|150:223|150:224|150:224|149:224|149:224|150:225|150:225|150:226|150:226|151:227|151:227|150:227|150:227|149:228|149:228|148:228|148:228|149:229|149:229|149:230|149:230|150:231|150:231|149:231|149:231|149:232|149:232|148:232|148:232|148:233|148:233|148:234|148:234|149:234|149:234|148:235|148:235|148:236|148:236|147:236|147:236|148:237|148:237|147:238|147:238|148:238|148:238|147:239|147:239|147:240|147:240|146:240|146:240|147:241|147:241|146:242|146:242|147:242|147:242|146:243|146:243|145:244|145:244|146:244|146:244|146:245|146:245|147:246|147:246|145:246|145:246|145:248|145:248|144:248|144:248|145:248|145:248|145:249|145:249|146:250|146:250|145:250|145:250|144:251|144:251|143:252|143:252|144:252|144:252|144:253|144:253|145:254|145:254|144:254|144:254|144:255|144:255|142:256|142:256|143:256|143:256|143:257|143:257|144:258|144:258|143:258|143:258|143:259|143:259|142:259|142:259|143:260|143:260|142:261|142:261|143:262|143:262|142:262|142:262|142:263|142:263|141:263|141:263|142:264|142:264|142:265|142:265|142:266|142:266|141:266|141:266|141:267|141:267|140:267|140:267|141:268|141:268|141:269|141:269|141:270|141:270|140:271|140:271|139:271|139:271|140:272|140:272|140:273|140:273|141:274|141:274|140:274|140:274|139:275|139:275|138:275|138:275|139:276|139:276|139:277|139:277|140:277|140:277|139:278|139:278|139:279|139:279|138:279|138:279|138:280|138:280|138:281|138:281|139:281|139:281|138:282|138:282|138:283|138:283|137:283|137:283|138:284|138:284|138:285|138:285|137:286|137:286|137:287|137:287|136:287|136:287|137:287|137:287|137:289|137:289|138:289|138:289|136:290|136:290|135:291|135:291|136:291|136:291|136:292|136:292|135:292|135:292|135:293|135:293|135:292|135:292|134:292|133:292|133:292|133:291|133:291|133:292|133:292|132:291|132:291|131:292|131:292|131:291|131:291|130:291|130:291|129:290|129:290|128:291|128:291|127:292|127:292|127:291|127:291|126:291|126:291|125:290|125:290|125:291|125:291|124:291|124:291|123:291|123:291|122:291|122:291|121:289|121:289|121:290|121:290|120:290|120:290|119:291|119:291|119:290|119:290|118:290|118:290|117:289|117:289|116:290|116:290|115:291|115:291|115:290|115:290|114:290|114:290|113:289|113:289|112:290|112:290|111:291|111:291|111:290|111:290|110:290|110:290|109:289|109:289|109:290|109:290|108:290|108:290|107:291|107:291|107:290|107:290|106:290|106:290|105:289|105:289|105:291|105:291|104:291|104:291|103:292|103:292|103:291|103:291|102:291|102:291|101:290|101:290|101:291|101:291|100:291|100:291|99:292|99:292|99:291|99:291|98:291|98:291|97:290|97:290|97:291|97:291|96:291|96:291|95:292|95:292|95:291|95:291|94:292|94:292|93:291|93:291|93:292|93:292|92:292|92:292|91:293|91:293|91:292|91:292|90:292|90:292|89:291|89:291|89:292|89:292|88:293|88:293|87:294|87:294|87:293|87:293|86:293|86:293|85:292|85:292|85:293|85:293|84:293|84:293|84:295|84:295|83:294|83:294|82:294|82:294|81:293|81:293|81:294|81:294|80:294|80:294|80:296|80:296|79:295|79:295|78:295|78:295|77:294|77:294|77:295|77:295|76:296|76:296|76:297|76:297|75:296|75:296|74:296|74:296|73:295|73:295|73:296|73:296|73:297|72:297|72:297|72:298|72:298|71:297|71:297|70:297|70:297|70:298|70:298|69:298|69:298|69:299|69:299|67:298|67:298|67:299|67:299|66:298|66:298|66:299|66:299|65:300|65:300|65:301|65:301|64:300|64:300|63:300|63:300|62:300|62:300|62:301|62:301|61:301|61:301|61:302|61:302|60:302|60:302|59:302|59:302|58:301|58:301|58:302|58:302|58:303|58:303|58:304|58:304|57:303|57:303|56:304,1,548.100000000001,0|0,3:0|2:0,2:0:0:0:
11,236,34753,6,0,P|44:221|79:217,1,52.5000000000001,8|0,2:1|2:0,2:0:0:0:
220,277,34932,2,0,P|170:262|150:261,1,52.5000000000001,0|0,2:0|3:0,2:0:0:0:
73,378,35110,2,0,P|123:364|143:368,1,52.5000000000001,0|0,2:0|2:0,2:0:0:0:
371,180,35289,6,0,B|337:144|337:144|350:240|350:240|355:246|355:246|364:321,1,204.75,8|0,2:0|2:0,2:0:0:0:
278,364,35557,2,0,B|240:351|240:351|290:343,1,86.6250000000004,0|0,3:0|2:0,2:0:0:0:
494,335,35824,6,0,B|455:376|455:376|469:266|469:266|475:259|475:259|485:173,1,236.25,8|0,2:1|2:0,2:0:0:0:
459,99,36092,2,0,B|461:99|461:99|462:98|462:98|462:99|462:99|463:100|463:100|463:101|463:101|464:100|464:100|465:100|465:100|466:99|466:99|466:100|466:100|467:100|467:100|467:101|467:101|468:100|468:100|469:101|469:101|469:100|469:100|470:101|470:101|471:101|471:101|471:102|471:102|472:101|472:101|473:101|473:101|473:100|473:100|474:101|474:101|475:102|475:102|475:103|475:103|476:102|476:102|477:102|477:102|477:101|477:101|478:102|478:102|479:102|479:102|479:103|479:103|480:102|480:102|481:102|481:102|482:103|482:103|483:103|483:103|483:104|483:104|484:103|484:103|485:102|485:102|485:103|485:103|486:103|486:103|487:104|487:104|488:104|488:104|489:103|489:103|489:104|489:104|490:104|490:104|491:105|491:105|491:104|491:104|492:104|492:104|493:103|493:103|493:104|493:104|494:105|494:105|495:106|495:106|495:105|495:105|496:105|496:105|497:104|497:104|497:105|497:105|498:105|498:105|499:106|499:106|499:105|499:105|500:106|500:106|501:105|501:105|501:106|501:106|502:106|502:106|502:107|502:107|503:106|503:106|504:106|504:106|505:105|505:105|505:106|505:106|506:107|506:107|506:108|506:108|507:107|507:107|509:107|509:107|508:107|508:107|509:106|509:106|509:107|509:107|508:107|508:107|507:107|507:107|507:108|507:108|506:108|506:108|506:109|506:109|505:108|505:108|504:109|504:109|504:108|504:108|503:109|503:109|502:109|502:109|502:110|502:110|501:110|501:110|500:109|500:109|500:110|500:110|499:110|499:110|498:112|498:112|498:111|498:111|497:111|497:111|496:110|496:110|496:111|496:111|495:112|495:112|495:113|495:113|494:112|494:112|493:112|493:112|492:111|492:111|492:113|492:113|491:113|491:113|490:114|490:114|490:113|490:113|489:114|489:114|488:113|488:113|488:114|488:114|487:114|487:114|487:115|487:115|486:115|486:115|485:115|485:115|484:114|484:114|484:115|484:115|483:116|483:116|483:117|483:117|482:116|482:116|481:116|481:116|480:115|480:115|480:117|480:117|479:117|479:117|479:118|479:118|478:117|478:117|477:118|477:118|477:117|477:117|477:118|477:118|476:118|476:118|475:119|475:119|475:118|475:118|474:119|474:119|473:118|473:118|473:119|473:119|472:119|472:119|472:120|472:120|471:120|471:120|470:120|470:120|469:119|469:119|469:120|469:120|468:121|468:121|468:122|468:122|467:121|467:121|466:121|466:121|465:120|465:120|465:122|465:122|464:122|464:122|464:123|464:123|463:122|463:122|462:123|462:123|462:122|462:122|461:123|461:123|460:123|461:123|461:123|460:124|460:124|460:123,1,181.125,0|0,3:0|2:0,2:0:0:0:
244,91,36360,6,0,B|243:91|242:91|242:91|242:90|242:90|241:90|241:90|240:91|240:91|240:89|240:89|240:90|240:90|239:90|239:89|239:89|238:90|238:90|238:88|238:88|238:89|238:89|237:89|237:89|236:90|236:90|237:88|237:88|236:89|236:89|235:88|235:88|234:89|234:89|235:87|235:87|234:88|234:88|233:88|233:87|233:87|232:88|232:88|233:86|233:86|232:87|232:87|231:87|231:87|230:87|230:87|231:86|231:86|230:86|230:86|229:86|229:86|228:86|228:86|229:85|229:85|228:85|228:85|227:86|227:86|228:84|228:84|227:84|227:84|226:84|226:84|225:85|225:85|226:83|226:83|225:84|225:84|224:83|224:83|223:84|223:84|224:82|224:82|223:82|223:82|222:82|222:82|221:83|221:83|223:81|223:81|222:81|222:81|221:81|221:81|220:81|220:81|221:80|221:80|220:80|220:80|219:80|219:80|218:80|218:80|219:78|219:78|218:79|218:79|218:78|218:78|217:79|217:79|218:77|218:77|217:78|217:78|216:77|216:77|215:78|215:78|216:76|216:76|215:76|215:76|213:76|213:76|215:75|215:75|214:75|214:75|213:75|213:74|213:74|212:75|212:75|214:73|214:73|212:74|212:74|212:73|212:73|211:73|211:73|212:72|212:72|211:72|211:72|211:71|211:71|209:72|209:72|211:70|211:70|210:71|210:71|210:70|209:70|209:70|208:70|208:70|210:69|210:69|209:69|209:69|208:69|208:68|208:68|207:68|207:68|209:67|209:67|208:67|208:67|207:67|207:66|207:66|206:66|206:66|208:65|208:65|207:66|207:66|206:65|206:65|205:65|205:65|207:64|207:64|206:64|206:64|205:63|205:63|204:63|204:63|206:62|206:62|205:62|205:62|204:61|204:61|203:61|203:61|205:60|205:60|204:60|204:60|204:59|204:59|202:59|202:59|204:58|204:58|203:58|203:58|203:57|203:57|202:57|202:57|204:57|204:57|203:56|203:56|202:56|202:55|202:55|201:55|201:55|203:55|203:55|202:54|202:54|202:53|202:53|201:53|201:53|203:53|203:53|202:53|202:53|202:52|202:51|202:51|200:51|200:51|202:51|202:51|201:51|201:51|201:50|201:50|200:49|200:49|202:49|202:49|201:48|201:48|200:47|200:47|202:47|202:47|201:46|201:46|200:45|200:45|202:45|202:45|201:45|201:45|201:44|201:44|200:43|200:43|202:43|202:43|201:43|201:43|201:42|201:42|200:41|200:41|202:41|202:41|201:41|201:41|201:40|201:40|201:39|201:39|203:39|203:39|202:39|202:39|202:38|202:38|201:37|201:37|203:37|203:37|202:37|202:37|202:36|202:36|201:35|201:35|203:35|203:35|202:35|202:35|203:34|203:34|202:33|202:33|204:34|204:34|203:33|203:33|203:32|203:32|203:31|203:31|204:32|204:32|204:31|204:31|204:30|204:30|203:29|203:29|205:30|205:30|205:29|205:29|205:28|205:28|204:27|204:27|206:28|206:28|205:27|205:27|206:27|206:26|206:26|205:25|205:25|207:26|207:26|206:25|206:25|207:25|207:25|206:24|206:24|208:25|208:25|207:24|207:24|208:23|208:23|207:22|207:22|209:23|209:23|208:22|208:22|209:22|209:21|209:21|208:20|208:20|210:21|210:21|210:20|210:20|210:19|210:19|211:20|211:20|211:19|211:19|211:18|212:18|212:18|211:17|211:17|213:18|213:18|212:17|212:17|213:17|213:17|212:16|212:16|214:17|214:17|214:16|214:16|214:15|214:15|214:14|214:14|215:16|215:16|215:15|215:15|215:14|216:14|216:14|216:13|216:13|217:14|217:14|217:13|217:13|217:12|217:12|218:13|218:13|218:12|218:12|219:12|219:12|219:10|219:10|220:12|220:12|220:11|220:11|221:10|221:10|221:9|221:9|222:11|222:11|222:10|222:10|222:9|222:9|222:8|222:8|223:10|223:10|223:9|223:9|224:9|224:8|224:8|224:7|224:7|225:9|225:9|225:8|225:8|226:8|226:8|226:7|226:7|227:8|227:8|227:7|227:7|228:7|228:7|228:6|228:6|229:8|229:8|229:6|229:6|230:6|230:6|230:5|230:5|230:7|230:7|231:6|231:6|232:5|232:5|232:4|232:4|232:6|232:6|232:5|232:5|233:5|233:5|234:4|234:4|234:6|234:6|234:5|234:5|235:5|235:5|236:4|236:4|236:5|236:5|236:4|236:4|237:4|237:4|238:3|238:3|238:5|238:5|238:4|238:4|239:4|239:4|240:3|240:3|240:5|240:5|240:4|240:4|241:4|241:4|242:3|242:3|242:5|242:5|242:4|242:4|243:4|243:4|244:3|244:3|244:5|244:5|244:4|244:4|245:4|245:4|246:3|246:3|246:5|246:5|246:4|246:4|247:4|247:4|248:3|248:3|248:5|248:5|248:4|248:4|249:4|249:4|250:3|250:3|250:5|250:5|250:4|250:4|251:4|251:5|251:5|252:4|252:4|252:6|252:6|252:5|252:5|253:5|253:5|254:4|254:4|254:6|254:6|254:5|254:5|255:5|255:5|256:5|256:5|255:7|255:7|256:6|256:6|257:6|257:6|258:5|258:5|257:7|257:7|258:6|258:6|259:7|259:7|260:6|260:6|259:8|259:8|260:7|260:7|261:8|261:8|262:7|262:7|261:9|261:9|262:8|262:8|263:8|263:8|264:8|264:8|263:10|263:10|264:9|264:9|265:9|265:9|264:11|264:11|265:10|265:10|266:10|266:10|267:10|267:10|266:12|266:12|267:11|267:11|268:11|268:11|269:11|269:11|268:13|268:13|269:12|269:12|269:13|269:13|270:12|270:12|269:14|269:14|270:13|270:13|271:14|271:14|272:13|272:13|271:15|271:15|272:15|272:15|274:15|274:15|272:16|272:16|273:16|273:16|274:16|274:17|274:17|275:16|275:16|274:18|274:18|275:17|275:17|275:18|275:18|276:18|276:18|275:19|275:19|276:19|276:19|277:19|277:19|278:19|278:19|276:20|276:20|277:20|277:20|278:21|278:21|279:21|279:21|278:22|278:22|279:22|279:22|279:23|279:23|280:22|280:22|279:24|279:24|280:23|280:23|280:24|280:24|282:24|282:24|280:25|280:25|281:25|281:25|281:26|281:26|283:26|283:26|281:27|281:27|282:27|282:27|283:28|283:28|284:28|284:28|282:29|282:29|283:29|283:29|285:29|285:29|283:30|283:30|284:30|284:30|284:31|284:31|285:31|285:31|284:32|284:32|285:32|285:32|285:33|285:33|286:33|286:33|285:34|285:34|286:34|286:34|286:35|286:35|287:35|287:35|285:36|285:36|286:36|286:36|287:36|287:37|287:37|288:37|288:37|286:37|286:37|287:38|287:38|289:39|289:39|287:39|287:39|288:39|288:39|288:40|288:40|289:41|289:41|287:41|287:41|288:41|288:41|289:42|289:42|290:43|290:43|288:43|288:43|289:43|289:43|289:44|289:44|290:45|290:45|288:45|288:45|289:45|289:45|289:46|290:46|290:46|291:47|291:47|289:47|289:47|290:47|290:47|290:48|290:48|291:49|291:49|289:49|289:49|290:49|290:49|290:50|290:50|291:51|291:51|289:51|289:51|290:51|290:51|291:52|291:52|292:53|292:53|290:53|290:53|291:53|291:53|291:54|291:54|292:55|292:55|290:55|290:55|291:55|291:55|291:56|291:56|292:57|292:57|290:57|290:57|291:57|291:57|291:58|291:58|292:59|292:59|290:59|290:59|291:59|291:59|291:60|291:60|292:61|292:61|290:61|290:61|291:61|291:61|291:62|291:62|292:63|292:63|290:63|290:63|291:63|291:63|291:64|291:64|292:65|292:65|290:65|290:65|291:65|291:65|291:66|291:66|292:67|292:67|290:67|290:67|291:67|291:67|291:68|291:68|292:69|292:69|290:69|290:69|291:69|291:69|291:70|291:70|292:71|292:71|290:71|290:71|291:71|291:71|291:72|291:72|292:73|292:73|290:72|290:72|291:73|291:73|290:74|290:74|291:75|291:75|289:74|289:74|290:75|290:75|290:76|290:76|291:77|291:77|289:76|289:76|290:77|290:77|290:78|290:78|291:79|291:79|289:78|289:78|290:79|290:79|290:80|290:80|290:81|290:81|289:80|289:80|289:81|289:81|289:82|289:82|290:83|290:83|288:82|288:82|289:83|289:83|289:84|289:84|290:85|290:85|288:84|288:84|288:85|288:85|288:86|288:86|289:87|289:87|287:86|287:86|288:87|288:87|288:88|288:88|289:89|289:89|287:88|287:88|287:89|287:89|287:90|287:90|288:91|288:91|286:90|286:90|287:91|287:91|287:92|287:92|286:92|286:92|286:93|286:93|286:94|286:94|287:94|287:94|285:94|285:94|286:95|286:95|285:95|285:95|286:96|286:96|284:96|284:96|285:97|285:97|286:98|286:98|284:98|284:98|284:99|284:99|285:100|285:100|283:99|283:99|284:100|284:100|283:101|283:101|284:102|284:102|282:101|282:101|283:102|283:102|283:103|283:103|283:104|283:104|281:103|281:103|282:104|282:104|282:105|282:105|283:106|283:106|281:105|281:105|281:106|281:106|281:107|281:107|282:108|282:108|280:107|280:107|281:108|281:108|280:108|280:108|281:109|281:109|279:108|279:108|280:109|280:109|279:110|279:110|280:111|280:111|278:110|278:110|279:111|279:111|279:112|278:112|278:112|279:113|279:113|277:112|277:112|278:113|278:113|278:114|278:114|278:115|278:115|276:114|276:114|277:115|277:115|277:116|277:116|277:117|277:117|275:116|275:116|276:116|276:116|276:117|276:117|276:118|276:118|274:117|274:117|275:118|275:118|275:119|275:119|275:120|275:120|273:119|273:119|274:120|274:120|274:121|274:121|274:122|274:122|273:121|273:121|273:122|273:122|273:123|273:123|273:124|273:124|271:122|271:122|272:123|272:123|272:124|272:124|272:125|272:125|270:124|270:124|271:125|271:125|271:126|270:126|270:126|271:127|271:127|269:126|269:126|270:127|270:127|269:127|269:128|269:128|270:128|270:128|268:127|268:127|269:128|269:128|268:129|268:129|269:130|269:130|267:129|267:129|268:130|268:130|267:131|267:131|268:132|268:132|266:131|266:131|266:132|266:132|266:134|266:134|265:132|265:132|265:133|265:133|265:134|265:134|265:135|265:135|263:134|263:134|264:135|264:135|264:136|263:136|263:136|264:137|264:137|262:135|262:135|263:136|263:136|262:137|262:137|263:138|263:138|261:137|261:137|262:138|262:138|261:139|261:139|261:140|261:140|260:138|260:138|260:140|260:140|260:141|260:141|259:140|259:140|259:141|259:141|258:142|258:142|259:143|259:143|257:142|257:142|258:143|258:143|257:143|257:143|257:144|257:144|256:143|256:143|256:144|256:144|256:145|256:145|256:146|256:146|255:144|255:144|255:146|255:146|254:146|254:146|255:147|255:147|253:146|253:146|254:147|254:147|253:148|253:148|253:149|253:149|252:147|252:147|252:148|252:148|252:149|252:149|252:150|252:150|251:149|251:149|251:150|251:150|250:150|250:151|250:151|250:152|250:152|249:150|249:150|249:151|249:151|249:152|249:152|249:153|249:153|248:152|248:152|248:153|248:153|247:153|247:153|248:154|248:154|246:153|246:153|247:154|247:154|246:155|246:155|246:156|246:156|245:154|245:154|245:155|245:155|245:156|244:156|244:156|245:157|245:157|243:156|243:156|244:157|244:157|243:157|243:157|243:158|243:158|242:157|242:157|242:158|242:158|241:159|241:159|242:160|242:160|240:158|240:158|241:159|241:159|240:160|240:160|240:161|240:161|239:160|239:160|239:161|239:161|238:161|238:161|239:162|239:162|237:161|237:161|237:162|237:162|237:163|237:163|237:164|237:164|236:162|236:162|236:163|236:163|235:164|235:164|235:165|235:165|234:163|234:163|234:164|234:164|234:165|233:165|233:165|234:166|234:166|233:165|233:165|233:166|233:166|232:166|232:166|232:167|232:167|231:166|231:166|231:167|231:167|230:167|230:167|230:168|230:168|229:167|229:167|230:168|230:168|229:168|229:169|229:169|229:170|229:170|228:168|228:168|228:169|228:169|227:169|227:170|227:170|227:171|227:171|226:169|226:169|226:170|226:170|226:171|225:171|225:171|226:172|226:172|224:170|224:170|225:171|225:171|224:172|224:172|224:173|224:173|223:171|223:171|223:172|223:172|222:173|222:173|222:174|222:174|221:172|221:172|221:173|221:173|221:174|220:174|220:174|220:175|220:175|219:173|219:173|219:175|219:175|219:176|219:176|218:174|218:174|218:175|218:175|217:176|217:176|217:177|217:177|216:175|216:175|216:176|216:176|215:177|215:177|215:178|215:178|214:176|214:176|214:177|214:177|214:178|213:178|213:178|213:179|213:179|212:177|212:177|212:178|212:178|212:179|212:179|212:180|212:180|211:178|211:178|211:179|211:179|210:180|210:180|210:181|210:181|209:179|209:179|209:180|209:180|208:180|208:181|208:181|208:182|208:182|207:180|207:180|207:181|207:181|206:181|206:181|206:183|206:183|205:181|205:181|205:182|205:182|204:182|204:182|204:183|204:183|204:182|204:182|203:183|203:183|203:184|203:184|202:182|202:182|202:183|202:183|201:184|201:184|201:185|201:185|200:183|200:183|200:184|200:184|199:184|199:185|199:185|199:186|199:186|198:184|198:184|198:185|198:185|197:185|197:185|197:186|197:186|196:185|196:185|196:186|196:186|195:186|195:186|195:187|195:187|194:185|194:185|194:186|194:186|194:187|193:187|193:187|193:188|193:188|192:186|192:186|192:187|192:187|191:187|191:187|191:188|191:188|191:187|191:187|190:188|190:188|189:188|189:188|189:189|189:189|189:187|189:187|188:188|188:188|187:189|187:189|187:190|187:190|187:188|187:188|187:189|187:189|186:189|186:189|185:190|185:190|185:188|185:188|185:189|185:189|184:189|184:190|184:190|183:191|183:191|183:189|183:189|183:190|183:190|182:190|182:190|181:191|181:191|181:189|181:189|181:190|181:190|180:190|180:190|179:192|179:192|179:190|179:190|179:191|179:191|178:191|178:191|178:192|178:192|177:190|177:190|177:191|177:191|176:191|176:191|175:192|175:192|175:190|175:190|175:191|175:191|174:192|174:192|173:193|173:193|173:191|173:191|173:192|173:192|172:192|172:192|171:193|171:193|171:191|171:191|171:192|171:192|170:192|170:192|169:193|169:193|169:191|169:191|169:192|169:192|168:192|168:192|167:193|167:193|167:191|167:191|167:192|167:192|166:192|166:193|166:193|166:194|166:194|165:192|165:192|165:193|165:193|164:193|164:193|163:194|163:194|163:192|163:192|163:193|163:193|162:193|162:193|161:194|161:194|161:192|161:192|161:193|161:193|160:193|160:193|159:194|159:194|159:192|159:192|159:193|159:193|158:193|158:193|157:194|157:194|157:192|157:192|157:193|157:193|156:193|156:193|155:194|155:194|155:192|155:192|155:193|155:193|154:193|154:193|153:194|153:194|154:192|154:192|153:193|153:193|152:193|152:192|152:192|151:193|151:193|152:191|152:191|151:192|151:192|150:192|150:192|149:193|149:193|150:191|150:191|149:192|149:192|148:192|148:192|147:193|147:193|148:191|148:191|147:192|147:192|146:192|146:192|145:193|145:193|146:191|146:191|145:192|145:192|145:191|144:191|144:191|143:192|143:192|144:190|144:190|143:191|143:191|142:191|142:191|141:192|141:192|142:190|142:190|141:191|141:191|140:190|140:190|139:191|139:191|140:189|140:189|139:190|139:190|138:190|138:190|137:191|137:191|138:189|138:189|137:190|137:190|137:189|136:189|136:189|136:190|136:190|136:188|136:188|135:189|135:189|134:188|134:188|134:189|134:189|134:187|134:187|133:188|133:188|132:188|132:188|133:187|133:187|132:187|132:187|131:187|131:187|130:188|130:188|131:186|131:186|130:186|130:186|129:186|129:186|128:187|128:187|129:185|129:185|128:185|128:185|127:185|127:185|126:185|126:185|127:184|127:184|126:184|126:184|125:184|125:184|126:183|126:183|125:183|125:183|124:183|124:183|123:183|123:183|124:181|124:181|123:182|123:182|122:181|122:181|121:182|121:182|123:180|123:180|122:181|122:181|121:180|121:180|120:180|120:180|121:179|121:179|120:179|120:179|118:179|118:179|120:178|120:178|119:178|119:178|119:177|118:177|118:177|117:177|117:177|119:176|119:176|118:176|118:176|117:176|117:176|116:176|116:176|118:175|118:175|116:175|116:175|116:174|116:174|115:174|115:174|117:173|117:173|115:173|115:173|115:172|115:172|114:172|114:172|116:171|116:171|114:171|114:171|114:170|114:170|113:170|113:170|115:169|115:169|114:169|114:169|113:169|113:169|112:168|112:168|114:168|114:168|113:168|113:168|113:167|113:167|112:166|112:166|114:166|114:166|113:166|113:166|112:165|112:165|111:164|111:164|113:164|113:164|112:164|112:164|112:163|112:163|111:162|111:162|113:162|113:162|112:162|112:162|112:161|112:161|111:160|111:160|113:160|113:160|112:160|112:160|112:159|112:159|111:158|111:158|113:158|113:158|112:158|112:158|112:157|112:157|111:156|111:156|113:156|113:156|112:156|112:156|113:155|113:155|112:154|112:154|114:155|114:155|113:154|113:154|113:153|113:153|113:152|113:152|114:153|114:153|114:152|114:152|114:151|114:151|113:150|113:150|115:151|115:151|115:150|115:150|115:149|115:149|114:148|114:148|116:149|116:149|116:148|116:148|116:147|116:147|117:148|117:148|117:147|117:147|117:146|117:146|117:145|117:145|118:146|118:146|118:145|118:145|119:145|119:144|119:144|118:143|118:143|120:145|120:145|120:144|120:144|120:143|120:143|120:142|120:142|121:144|121:144|121:143|121:143|122:142|122:142|122:141|122:141|123:143|123:143|123:142|123:142|123:141|124:141|124:141|124:140|124:140|125:142|125:142|125:141|125:141|125:140|126:140|126:140|126:139|126:139|126:141|126:141|126:140|126:140|127:140|127:140|128:139|128:139|128:141|128:141|128:139|128:139|129:139|129:139|130:138|130:138|130:140|130:140|130:139|130:139|131:139|131:139|132:138|132:138|132:140|132:140|132:139|132:139|133:139|133:139|134:138|134:138|134:140|134:140|134:139|134:139|135:139|135:139|136:138|136:138|136:140|136:140|136:139|136:139|137:140|137:140|138:139|138:139|138:141|138:141|138:140|138:140|139:140|139:140|140:139|140:139|139:141|139:141|140:141|140:141|141:141|141:141|142:140|142:140|141:142|141:142|142:141|142:141|143:142|143:142|144:141|144:141|143:143|143:143|144:142|144:142|144:143|145:143|145:143|146:142|146:142|144:144|144:144|145:143|145:143|146:144|146:144|147:144|147:144|146:145|146:145|147:145|147:145|148:145|148:145|149:145|149:145|147:146|147:146|148:146|148:146|149:147|149:147|150:146|150:146|149:148|149:148|150:148|150:148|152:148|152:148|150:149|150:149|151:149|151:149|151:150|152:150|152:150|153:150|153:150|151:151|151:151|152:151|152:151|153:151|153:151|154:151|154:151|152:152|152:152|153:152|153:152|154:153|154:153|155:153|155:153|153:154|153:154|154:154|154:154|155:155|155:155|156:155|156:155|154:156|154:156|155:156|155:156|156:157|156:157|157:157|157:157|155:158|155:158|156:158|156:158|157:159|157:159|158:159|158:159|156:159|156:159|157:160,1,1538.05959426184,8|0,3:0|2:0,2:0:0:0:
286,180,36896,6,0,P|352:196|383:224,1,90.9999999999999,8|0,2:1|2:0,2:0:0:0:
407,289,37074,2,0,P|387:223|396:182,1,90.9999999999999,0|0,2:0|2:0,2:0:0:0:
439,123,37253,2,0,P|392:172|352:185,1,90.9999999999999,0|0,2:0|2:0,2:0:0:0:
133,337,37432,5,8,2:3:0:0:
133,337,37699,6,0,B|132:337|131:336|131:336|131:337|131:337|130:336|130:336|129:335|129:335|129:336|129:336|128:335|128:335|127:336|127:336|127:335|127:335|126:335|126:334|126:334|126:333|126:333|125:334|125:334|124:334|124:334|123:334|123:334|123:333|123:333|122:333|122:333|122:332|122:332|121:332|121:332|120:332|120:332|119:333|119:333|119:332|119:332|119:331|118:331|118:331|118:330|118:330|118:331|118:331|117:331|117:330|117:330|116:331|116:331|116:330|116:330|115:330|115:330|115:328|115:328|114:329|114:329|113:329|113:329|112:329|112:329|112:328|112:328|111:328|111:328|111:326|111:326|110:327|110:327|109:327|109:327|109:326|109:326|108:326|108:326|108:325|108:325|107:325|107:325|106:325|106:325|105:325|105:325|105:324|105:324|104:324|104:324|105:323|105:323|104:323|104:323|103:323|103:322|103:322|102:323|102:323|102:322|102:322|101:321|101:321|101:320|101:320|100:321|100:321|100:320|100:320|98:321|98:321|99:320|99:320|98:319|98:319|98:318|98:318|97:318|97:318|96:318|96:318|95:318|95:318|95:317|95:317|95:315|95:315|94:316|94:316|93:315|93:315|92:316|92:316|92:315|92:315|92:314|92:314|92:313|92:313|91:313|91:313|90:313|90:313|89:313|89:313|89:312|89:312|89:311|89:311|89:310|89:310|88:311|88:311|87:310|87:310|86:310|86:310|87:309|87:309|86:309|86:309|86:307|86:307|85:308|85:308|85:307|85:307|83:307|83:307|84:306|84:306|83:306|83:306|84:305|84:305|82:305|82:305|82:304|82:304|81:304|81:304|81:303|81:303|81:301|81:301|80:302|80:302|79:301|79:301|78:301|78:301|79:300|79:300|78:300|78:299|78:299|78:298|78:298|77:299|77:299|77:298|77:298|76:298|76:298|76:297|76:297|76:296|76:296|76:295|76:295|75:295|75:295|74:295|74:295|73:295|73:295|74:294|74:294|73:293|73:293|74:292|74:292|73:292|73:292|72:292|72:291|72:291|71:291|71:291|72:290|72:290|71:290|71:290|72:289|72:289|71:289|71:289|70:288|70:288|69:288|69:288|70:287|70:287|69:286|69:286|70:285|70:285|69:285|69:285|68:285|68:284|68:284|67:284|67:284|68:283|68:283|67:283|67:283|68:282|68:282|67:282|67:282|66:281|66:281|65:281|65:281|66:280|66:280|66:279|65:279|65:279|66:278|66:278|65:278|65:278|65:277|65:277|64:277|64:277|64:276|64:276|64:275|64:275|65:275|65:275|63:275|63:275|63:274|63:273|63:273|62:273|62:273|63:273|63:273|62:272|62:272|63:271|63:271|62:271|62:271|62:270|62:270|60:270|60:270|61:269|61:269|61:268|61:268|62:267|62:267|61:267|61:267|60:266|60:266|59:266|59:266|60:265|60:265|60:264|60:264|60:263|60:263|59:263|59:263|59:262|59:262|58:262|58:262|59:261|59:261|59:260|59:260|58:259|58:259|58:258|58:258|57:258|57:258|58:257|58:257|58:256|58:256|57:256|57:256|57:255|57:255|56:254|56:254|57:253|57:253|57:252|57:252|56:252|56:252|56:251|56:251|55:250|55:250|56:250|56:250|56:249|56:249|57:248|57:248|56:248|56:248|56:247|56:247|55:246|55:246|55:245|55:245|56:244|56:244|55:244|55:244|55:243|55:243|54:242|54:242|55:242|55:242|55:241|55:241|56:240|56:240|55:240|55:240|55:239|55:239|54:238|54:238|55:238|55:238|54:237|54:237|55:236|55:236|54:236|54:236|54:235|54:235|53:234|53:234|54:234|54:234|54:233|54:233|55:232|55:232|54:232|54:232|54:231|54:231|53:230|53:230|54:230|54:230|54:229|54:229|55:228|55:228|54:228|54:228|54:227|54:227|53:226|53:226|54:226|54:226|54:225|54:225|55:224|55:224|54:224|54:224|54:223|54:223|53:222|53:222|54:222|54:222|54:221|54:221|55:220|55:220|54:220|54:220|54:219|54:219|53:218|53:218|54:218|54:218|54:217|55:217|55:217|56:216|56:216|55:216|55:216|55:215|55:215|54:214|54:214|55:214|55:214|55:213|55:213|56:212|56:212|55:212|55:212|55:211|55:211|54:210|54:210|55:210|55:210|55:209|55:209|56:208|56:208|55:208|55:208|56:207|56:207|55:206|55:206|56:206|56:206|56:205|56:205|57:205|57:205|56:204|56:204|56:203|56:203|55:202|55:202|56:202|56:202|57:201|57:201|58:201|58:201|57:200|57:200|57:199|57:199|56:198|56:198|57:198|57:198|57:197|58:197|58:197|59:197|59:197|58:196|58:196|58:195|58:195|57:194|57:194|58:194|58:194|58:193|59:193|59:193|60:193|60:193|59:192|59:192|59:191|59:191|58:190|58:190|59:190|59:190|60:189|60:189|61:189|61:189|60:188|60:188|60:187|60:187|59:186|59:186|60:186|60:186|61:186|61:185|61:185|62:185|62:185|61:184|61:184|61:183|61:183|62:182|62:182|63:181|63:181|62:181|62:181|63:180|63:180|62:179|62:179|63:179|63:179|63:178|63:178|65:178|65:178|64:177|64:177|64:176|64:176|63:175|63:175|65:175|65:175|65:174|65:174|66:174|66:174|65:173|65:173|66:173|66:172|66:172|65:171|65:171|66:171|66:171|67:171|67:170|67:170|68:170|68:170|67:170|67:170|67:169|67:169|67:168|67:168|68:168|68:168|68:167|68:167|69:167|69:167|69:166|69:166|69:165|69:165|69:164|69:164|70:164|70:164|70:163|70:163|71:163|71:163|71:162|71:162|71:161|71:161|72:161|72:161|72:160|72:160|73:160|73:160|73:159|73:159|73:158|73:158|73:157|73:157|74:157|74:157|75:157|75:157|75:156|75:156|75:155|75:155|75:154|75:154|76:154|76:154|76:153|76:153|77:153|77:153|77:152|77:152|77:151|77:151|78:151|78:151|78:150|79:150|79:150|80:150|80:150|79:149|79:149|80:148|80:148|79:147|79:147|80:147|80:147|81:147|81:147|82:147|82:147|82:146|82:146|82:145|82:145|82:144|82:144|83:144|83:144|83:143|83:143|85:144|85:144|84:143|84:143|85:142|85:142|84:141|84:141|85:141|85:141|86:141|86:140|86:140|87:141|87:141|87:140|87:140|87:139|87:139|87:138|87:138|88:138|88:138|89:138|89:137|89:137|90:138|90:138|90:137|90:137|90:136|90:136|90:135|90:135|91:135|91:135|93:135|93:135|92:134|92:134|93:133|93:133|93:132|93:132|94:132|94:132|95:132|95:132|95:131|95:131|96:131|96:130|96:130|96:129|96:129|97:130|97:130|97:129|97:129|98:129|98:129|98:128|98:128|99:128|99:128|99:127|99:127|100:127|100:127|101:126|101:126|100:127|100:127|101:127|101:127|101:126|101:126|101:127|102:127|102:127|103:127|103:127|102:128|102:128|103:128|103:129|103:129|103:130|103:130|103:129|103:129|104:130|104:130|105:130|105:130|105:131|105:131|105:132|105:132|105:133|105:133|106:133|106:133|107:133|107:133|108:133|108:133|107:134|107:134|108:134|108:135|108:135|108:136|108:136|109:136|109:136|110:136|110:136|110:137|110:137|111:138|111:138|110:139|110:139|111:139|111:139|112:139|112:139|113:139|113:139|113:140|113:140|113:141|113:141|113:142|113:142|114:141|114:141|115:142|115:142|116:142|116:142|116:143|116:143|116:145|116:145|117:144|117:144|118:144|118:145|118:145|119:144|119:144|119:145|119:145|119:146|119:146|119:147|119:147|120:147|120:147|121:147|121:147|122:147|122:147|122:148|122:148|123:148|123:148|123:149|123:149|124:149|124:149|125:149|125:149|125:150|125:150|126:150|126:150|126:152|126:152|127:151|127:151|128:151|128:151|129:151|129:151|129:152|129:152|130:152|130:152|130:154|130:154|130:153|130:153|131:153|131:153|132:153|132:153|132:154|132:154|133:154|133:154|133:155|133:155|134:155|134:155|135:155|135:155|136:154|136:154|136:155|136:155|137:156|137:156|137:157|137:157|138:156|138:156|139:156|139:156|140:156|140:156|140:157|140:157|141:157|141:157|141:158|141:158|142:157|142:157|143:157|143:157|144:158|144:158|145:158|145:158|145:159|145:159|145:158|145:158|146:158|146:158|147:157|147:157|147:159|147:159|148:159|148:159|149:160|149:160|149:159|149:159|150:159|150:159|151:158|151:158|151:159|151:159|153:159|153:159|153:160|153:160|153:159|153:159|154:159|154:159|155:158|155:158|155:159|155:159|157:160,1,561.75,0|0,3:0|2:0,2:0:0:0:
286,180,38101,6,0,B|285:180|284:179|284:179|284:180|284:180|284:179|284:179|283:179|283:179|283:178|283:178|282:178|282:178|281:178|281:178|280:179|280:179|280:178|280:178|279:178|279:177|279:177|279:176|279:176|278:177|278:177|277:177|277:177|276:178|276:178|276:176|276:176|275:176|275:176|275:175|275:175|274:176|274:176|273:176|273:176|272:176|272:176|272:175|272:175|271:175|271:175|271:174|271:174|270:175|270:175|269:175|269:175|269:176|269:176|268:174|268:174|267:174|267:174|267:173|267:173|266:174|266:174|265:174|265:174|265:175|265:175|264:174|264:174|263:173|263:173|263:172|263:172|262:173|262:173|261:173|261:173|261:174|261:174|260:173|260:173|259:173|259:173|259:172|259:172|258:173|258:173|258:172|258:172|257:173|257:173|256:172|256:172|255:172|255:172|255:171|255:171|255:172|255:172|254:172|254:172|253:173|253:173|253:172|253:172|252:172|252:172|251:171|251:171|250:172|250:172|249:173|249:173|248:172|248:172|247:170|247:170|247:171|247:171|246:171|246:171|245:172|245:172|244:171|244:171|243:170|243:170|243:171|243:171|242:171|242:171|241:172|241:172|241:171|241:171|240:171|240:171|239:170|239:170|239:171|239:171|238:171|238:171|237:172|237:172|237:171|237:171|236:171|236:171|235:170|235:170|235:171|235:171|234:172|234:172|233:173|233:173|233:172|233:172|232:172|232:172|231:171|231:171|231:172|231:172|230:172|230:172|229:173|229:173|229:172|229:172|228:172|228:172|227:171|227:171|227:172|227:172|226:172|226:172|225:173|225:173|225:172|225:172|224:172|224:173|224:173|223:172|223:172|223:173|223:173|222:173|222:173|221:174|221:174|221:173|221:173|220:173|220:173|219:172|219:172|219:173|219:173|218:173|218:173|217:175|217:175|217:174|217:174|216:174|216:174|215:173|215:173|215:174|215:174|214:174|214:174|214:175|214:175|213:175|213:175|212:175|212:175|211:174|211:174|211:175|211:175|210:175|210:175|210:176|210:176|209:176|209:176|208:176|208:176|207:175|207:175|207:176|207:176|206:176|206:176|206:178|206:178|205:177|205:177|204:177|204:177|203:176|203:176|203:177|203:177|202:178|202:178|202:179|202:179|201:178|201:178|200:178|200:178|200:177|200:177|199:179|199:179|198:180|198:180|198:179|198:179|197:179|197:180|197:180|196:179|196:179|196:180|196:180|195:180|195:180|195:182|195:182|194:181|194:181|193:181|193:181|192:181|192:181|192:182|192:182|191:182|191:182|191:183|191:183|190:183|190:183|189:183|189:183|188:182|188:182|188:183|188:183|188:184|188:184|188:185|188:185|187:184|187:184|186:185|186:185|185:184|185:184|185:185|185:185|184:186|184:186|184:187|184:187|183:186|183:186|183:187|182:187|182:187|181:186|181:186|181:187|181:187|181:188|181:188|181:189|181:189|180:188|180:188|179:189|179:189|178:189|178:189|178:190|178:190|177:190|177:190|178:191|178:191|177:191|177:191|176:191|176:191|175:191|175:191|175:192|175:192|174:192|174:192|174:194|174:194|173:193|173:193|172:194|172:194|171:193|171:193|172:194|172:194|171:195|171:195|171:196|171:196|170:196|170:196|169:196|169:196|168:196|168:196|169:197|169:197|168:197|168:198|168:198|168:199|168:199|167:198|167:198|167:199|166:199|166:199|165:198|165:198|166:200|166:200|165:200|165:200|165:201|165:201|164:201|164:201|163:202|163:202|162:201|162:201|163:202|163:202|162:203|162:203|162:204|162:204|161:204|161:204|160:204|160:204|160:205|160:205|160:206|159:206|159:206|160:207|160:207|159:207|159:207|158:207|158:207|157:207|157:207|157:208|157:208|157:209|157:209|157:210|157:210|156:210|156:210|155:210|155:210|154:210|154:210|155:211|155:211|154:211|154:212|154:212|154:213|154:213|153:213|153:213|152:213|152:213|152:214|152:214|152:215|151:215|151:215|152:216|152:216|151:216|151:216|150:216|150:216|149:216|149:216|149:217|149:217|149:218|149:218|149:219|149:219|148:219|148:219|146:219|146:219|147:220|147:220|146:221|146:221|147:222|147:222|146:222|146:222|145:222|145:223|145:223|144:222|144:222|144:223|144:223|144:224|144:224|144:225|144:225|143:225|143:225|142:226|142:226|141:225|141:225|142:226|142:226|141:227|141:227|142:228|142:228|140:228|140:228|140:229|140:229|139:228|139:228|139:229|139:229|139:230|138:230|138:230|139:231|139:231|138:231|138:231|137:231|137:232|137:232|136:231|136:231|136:232|136:232|136:233|136:233|136:234|136:234|135:234|135:234|134:235|134:235|133:234|133:234|134:235|134:235|133:236|133:236|133:237|133:237|132:237|132:237|130:237|130:237|131:238|131:238|130:238|130:239|130:239|130:240|130:240|129:239|129:239|129:240|129:240|128:240|128:240|128:241|128:241|127:241|127:241|127:243|127:243|126:242|126:242|126:243|126:243|125:242|125:242|125:243|125:243|124:244|124:244|124:245|124:245|123:245|123:245|122:245|122:245|121:245|121:245|122:246|122:246|121:246|121:246|121:248|121:248|120:247|120:247|119:248|119:248|118:247|118:247|118:248|118:248|118:249|118:249|118:250|118:250|117:249|117:249|116:250|116:250|115:249|115:249|115:250|115:250|115:251|114:251|114:251|114:252|114:252|113:251|113:251|113:252|113:252|112:251|112:251|112:252|112:252|111:253|111:253|111:254|111:254|110:253|110:253|109:254|109:254|108:253|108:253|108:254|108:254|108:255|107:255|107:255|107:256|107:256|106:255|106:255|105:256|105:256|105:255|105:255|105:256|105:256|104:256|104:257|104:257|104:258|104:258|103:257|103:257|102:257|102:257|101:257|101:257|101:258|101:258|100:258|100:258|100:259|100:259|99:258|99:258|98:259|98:259|97:258|97:258|97:259|97:259|96:259|96:260|96:260|96:261|96:261|95:260|95:260|94:260|94:260|93:259|93:259|93:260|93:260|93:261|92:261|92:261|92:262|92:262|91:261|91:261|90:261|90:261|90:262|90:262|89:262|89:262|88:263|88:263|88:262|88:262|87:262|87:262|86:262|86:262|86:263|86:263|85:263|85:263|84:264|84:264|84:263|84:263|83:263|83:263|82:263|82:263|82:264|82:264|81:264|81:264|81:265|81:265|80:264|80:264|79:264|79:264|78:264|78:264|78:265|78:265|77:265|77:265|77:266|77:266|76:265|76:265|75:265|75:265|74:264|74:264|74:265|74:265|73:265|73:265|73:267|73:267|72:266|72:266|71:266|71:266|70:265|70:265|70:266|70:266|69:266|69:266|69:267|69:267|68:266|68:266|67:266|67:266|66:265|66:265|66:266|66:266|65:266|65:266|65:267|65:267|64:267|64:267|63:267|63:267|62:266|62:266|62:267|62:267|61:267|61:267|61:268|61:268|60:267|60:267|59:267|59:267|58:266|58:266|58:267|58:267|57:267|57:267|57:268|57:268|56:267|56:267|55:267|55:267|54:266|54:266|54:267|54:267|53:267|53:267|53:268|53:268|52:267|52:267|51:267|51:267|50:266|50:266|50:267|50:267|49:267|49:267|49:268|49:268|48:267|48:267|47:267|47:267|47:266|47:266|46:267|46:267|45:267|45:267|45:268|45:268|44:267|44:267|43:267|43:267|43:266|43:266|42:267|42:267|41:267|41:267|41:268|41:268|40:267|40:267|39:267|39:267|39:266|39:266|38:267|38:267|37:267|37:267|36:268|36:268|36:267|36:267|35:267|35:267|35:266|35:266|34:267|34:267|33:267|33:267|32:268|32:268|32:267|32:267|31:267|31:267|31:266|31:266|30:267|30:267|29:267|29:267|28:268|28:268|28:266|28:266|27:266|27:266|27:265|27:265|26:266|26:266|25:266|25:266|24:267|24:267|24:266|24:266|23:266|23:266|23:265|23:265|22:266|22:266|21:266|21:266|20:267|20:267|20:266|20:266|19:265|19:265|19:264|19:264|18:265|18:265|17:265|17:265|16:266|16:266|16:265|16:265|15:265|15:265|15:264|15:264|14:265|14:265|13:265|13:265|12:264|12:264|11:264|11:264|11:263|11:263|10:264|10:264|9:264|9:264|9:265|9:265|8:264|8:264|7:263|7:263|7:262|7:262|6:263|6:263|5:263|5:263|5:264|5:264|4:263,1,554.400000000001,0|0,3:0|2:0,2:0:0:0:
66,71,38436,5,0,2:0:0:0:
78,77,38503,2,0,L|94:158,14,52.5,0|0|0|0|0|0|0|0|0|0|0|0|0|0|0,3:0|2:0|2:0|2:0|2:0|2:0|2:0|2:0|2:0|2:0|2:0|2:0|2:0|2:0|2:0,2:0:0:0:
214,191,39039,6,0,P|257:177|283:178,1,70,8|0,2:1|2:0,2:0:0:0:
414,184,39217,2,0,P|380:153|368:130,1,70,0|0,2:0|3:0,2:0:0:0:
311,28,39396,2,0,P|301:72|287:94,1,70,0|0,2:0|2:0,2:0:0:0:
323,285,39574,6,0,P|338:239|353:219,1,52.5000000000001,8|0,2:3|2:0,2:0:0:0:
445,46,39753,2,0,P|396:55|372:52,1,52.5000000000001,0|0,2:0|3:0,2:0:0:0:
176,70,39932,2,0,P|208:107|218:130,1,52.5000000000001,0|0,2:0|2:0,2:0:0:0:
214,191,40110,2,0,P|203:207|208:188,1,52.5,8|0,2:1|2:0,2:0:0:0:
97,186,40244,6,0,B|195:178|220:235|192:241|236:304|341:281,1,262.5,0|0,3:0|2:0,2:0:0:0:
383,340,40646,5,8,2:0:0:0:
288,92,40780,1,0,2:0:0:0:
459,221,40914,6,0,L|445:225,1,10.5,0|0,3:0|2:0,2:0:0:0:
180,107,41182,5,8,2:0:0:0:
275,355,41315,1,0,2:0:0:0:
448,223,41449,6,0,L|459:221,4,10.5,0|0|0|0|0,3:0|2:0|2:0|2:0|2:0,2:0:0:0:
175,377,41717,5,8,2:0:0:0:
80,129,41851,1,0,2:0:0:0:
459,221,41985,6,0,L|445:225,1,10.5,0|0,3:0|2:0,2:0:0:0:
158,281,42253,5,10,2:0:0:0:
199,284,42320,1,2,2:0:0:0:
236,303,42387,1,2,2:0:0:0:
258,338,42454,1,2,2:0:0:0:
252,359,42521,5,2,3:2:0:0:
314,351,42588,1,2,2:0:0:0:
376,343,42655,1,2,2:0:0:0:
438,337,42722,1,2,2:0:0:0:
510,321,42789,6,0,P|510:265|495:240,1,62.9999999999999,8|0,2:0|2:0,2:0:0:0:
512,43,42923,2,0,P|512:99|497:124,1,62.9999999999999,8|0,2:0|2:0,2:0:0:0:
426,267,43057,6,0,P|400:228|371:207,1,62.9999999999999,8|0,2:0|2:0,2:0:0:0:
430,78,43190,2,0,P|404:117|375:138,1,62.9999999999999,8|0,2:0|2:0,2:0:0:0:
301,241,43324,6,0,P|235:245|212:253,1,62.9999999999999,8|0,2:0|2:0,2:0:0:0:
304,108,43458,2,0,P|238:104|215:96,1,62.9999999999999,8|0,2:0|2:0,2:0:0:0:
174,304,43592,6,0,P|120:340|106:361,1,62.9999999999999,8|0,2:0|2:0,2:0:0:0:
175,54,43726,2,0,P|121:18|107:-3,1,62.9999999999999,8|0,2:0|2:0,2:0:0:0:
18,269,43860,5,8,2:0:0:0:
56,262,43927,1,8,2:0:0:0:
87,238,43994,1,8,2:0:0:0:
103,203,44061,1,8,2:0:0:0:
101,164,44128,1,8,2:0:0:0:
81,131,44195,1,8,2:0:0:0:
45,123,44262,5,8,2:0:0:0:
45,123,44329,1,8,2:0:0:0:
45,123,44396,1,0,3:0:0:0:
462,236,44530,5,8,2:0:0:0:
462,236,44597,1,8,2:0:0:0:
462,236,44664,2,0,L|397:245,1,52.5,8|0,2:0|2:0,2:0:0:0:
282,332,44798,2,0,L|347:323,1,52.5,8|0,2:0|2:0,2:0:0:0:
483,327,44932,6,0,B|374:316|423:239|296:241,1,210,4|0,3:0|2:0,2:0:0:0:
154,0,45333,5,8,2:3:0:0:
181,82,45467,2,0,B|211:66|227:46|227:46|190:190,1,204.75,8|0,2:0|2:0,2:0:0:0:
87,238,45735,5,2,1:2:0:0:
71,234,45802,1,2,2:0:0:0:
60,249,45869,1,2,2:0:0:0:
39,250,45936,1,2,2:0:0:0:
22,259,46003,2,0,P|116:292|198:381,1,210,0|0,3:0|2:0,2:0:0:0:
17,160,46405,1,8,2:3:0:0:
122,128,46539,2,0,P|156:184|164:240,1,105,8|0,2:0|2:0,2:0:0:0:
421,30,46807,6,0,P|398:77|393:113,1,78.75,0|0,1:0|2:0,2:0:0:0:
462,162,47074,6,0,B|429:118|347:94|292:150|287:188|287:188|349:187|372:240,1,273,0|0,3:0|2:0,2:0:0:0:
255,71,47476,1,8,2:3:0:0:
392,333,47610,2,0,P|403:274|419:227,1,105,8|0,2:0|2:0,2:0:0:0:
242,320,47878,6,0,P|118:330|63:348,1,157.5,0|0,1:0|2:0,2:0:0:0:
31,384,48146,2,0,B|-61:315|-35:200|57:208|75:260|43:282,1,210,0|0,3:0|2:0,2:0:0:0:
146,126,48548,1,8,2:3:0:0:
180,218,48682,2,0,B|224:173|225:89|132:96|137:154,1,157.5,8|0,2:0|2:0,2:0:0:0:
64,102,48949,6,0,P|71:145|72:163,3,39.3750000000001,2|2|2|2,1:2|2:0|2:0|2:0,2:0:0:0:
180,218,49217,6,0,B|257:231|257:231|286:284|286:284|387:271,1,210,0|0,3:0|2:0,2:0:0:0:
482,92,49619,6,0,B|453:84|453:84|448:87|448:87|405:78,1,52.5,8|0,2:3|2:0,2:0:0:0:
380,28,49753,2,0,B|340:39|340:39|305:69|311:134|361:157,1,157.5,8|0,2:0|2:0,2:0:0:0:
445,259,50021,6,0,P|449:219|455:181,1,78.75,0|0,1:0|2:0,2:0:0:0:
512,305,50289,6,0,B|448:288|387:318|444:341|392:392|304:396|264:345|313:312|343:366,1,273,0|0,3:0|2:0,2:0:0:0:
455,181,50690,1,8,2:3:0:0:
486,384,50824,6,0,P|411:317|314:254,1,204.75,8|0,2:0|2:0,2:0:0:0:
289,72,51092,6,0,P|299:62|292:72,1,47.2500000000002,0|0,1:0|2:0,2:0:0:0:
339,142,51360,6,0,B|319:98|266:92|233:115|222:146|224:170|224:170|227:194|219:238|157:261|103:239|85:187,1,315,0|0,3:0|2:0,2:0:0:0:
118,228,51762,2,0,L|126:182,1,26.25,8|0,2:3|2:0,2:0:0:0:
46,47,51896,6,0,B|-5:10|-5:10|31:188,1,210,8|0,2:0|1:0,2:0:0:0:
24,154,52298,1,0,2:0:0:0:
235,265,52432,5,0,3:0:0:0:
172,327,52565,2,0,P|123:315|86:310,1,84,0|0,1:0|2:0,2:0:0:0:
258,112,52833,5,8,2:3:0:0:
339,142,52967,2,0,B|325:173|299:188|299:188|362:359,1,204.75,8|0,2:0|2:0,2:0:0:0:
348,321,53235,6,0,L|427:327,1,68.2499999999999,8|0,2:3|2:0,2:0:0:0:
470,246,53369,2,0,L|401:241,1,68.2499999999999,8|0,2:3|2:0,2:0:0:0:
178,29,53503,6,0,B|91:67|104:193|198:224|258:129|194:89,1,262.5,0|0,3:0|2:0,2:0:0:0:
215,114,53905,2,0,B|142:111|101:162|133:180|91:237|18:210,1,210,0|0,3:0|2:0,2:0:0:0:
36,138,54307,5,0,3:0:0:0:
36,138,54373,1,0,3:0:0:0:
36,138,54440,1,0,3:0:0:0:
193,292,54574,6,0,P|264:303|379:330,1,157.5,8|0,2:3|2:0,2:0:0:0:
416,257,54842,6,0,B|385:242|372:218|372:218|385:332|385:332|398:371|445:361,1,236.25,0|0,3:0|2:0,2:0:0:0:
331,215,55244,2,0,B|300:200|287:176|287:176|300:290|300:290|313:329|360:319,1,236.25,0|0,3:0|2:0,2:0:0:0:
512,109,55646,6,0,P|438:115|399:9,1,173.25,0|0,3:0|2:0,2:0:0:0:
403,22,55914,1,0,2:0:0:0:
150,120,56048,2,0,B|178:68|244:43|314:66|314:66|317:97|348:136,1,231,0|0,3:0|2:0,2:0:0:0:
512,214,56449,5,2,3:2:0:0:
495,224,56516,1,2,2:0:0:0:
497,251,56583,1,2,2:0:0:0:
486,266,56650,1,2,2:0:0:0:
485,287,56717,2,0,B|443:250|393:268|393:268|377:327|312:328,1,189,8|0,2:3|2:0,2:0:0:0:
231,301,56985,6,0,B|290:291|330:334|307:343|345:392|403:383,1,196.875000000001,0|0,3:0|2:0,2:0:0:0:
414,374,57387,1,0,3:0:0:0:
393,184,57521,6,0,L|331:204,1,62.9999999999999,8|0,2:3|2:0,2:0:0:0:
150,120,57655,2,0,L|207:145,1,62.9999999999999,8|0,2:3|2:0,2:0:0:0:
353,36,57789,6,0,B|367:6|372:-17|372:-17|302:-30|247:16|247:16|290:81|289:139,1,315,0|0,3:0|2:0,2:0:0:0:
289,132,58190,2,0,B|252:125|277:73|364:82|439:140|426:200|363:184,1,210,0|0,3:0|2:0,2:0:0:0:
308,228,58592,5,0,3:0:0:0:
308,228,58659,1,0,3:0:0:0:
308,228,58726,1,0,3:0:0:0:
37,358,58860,6,0,P|48:284|59:197,1,157.5,8|0,2:3|2:0,2:0:0:0:
25,60,59128,6,0,B|7:74|-14:77|-14:77|128:115,1,173.25,0|0,3:0|2:0,2:0:0:0:
111,110,59396,2,0,L|102:42,1,57.7499999999999,8|0,1:0|2:0,2:0:0:0:
58,201,59530,6,0,B|37:231|9:249|9:249|194:207|194:207|223:185|217:152,1,315,0|0,3:0|2:0,2:0:0:0:
408,86,59932,6,0,B|443:57|457:-14|343:-23|320:-9|273:86|310:180|415:224,1,341.25,0|0,3:0|2:0,2:0:0:0:
361,190,60333,2,0,L|421:178,1,52.5,0|0,3:0|2:0,2:0:0:0:
512,285,60467,6,0,B|471:261|400:310|440:331|373:379|316:343,1,204.75,8|0,1:0|2:0,2:0:0:0:
285,292,60735,2,0,L|294:248,3,39.3750000000001,2|2|2|2,3:2|2:0|2:0|2:0,2:0:0:0:
167,384,61003,6,0,P|154:308|123:191,1,189,8|0,2:3|2:0,2:0:0:0:
270,65,61271,2,0,B|296:84|296:84|304:125|248:180|206:153,1,157.5,0|0,3:0|2:0,2:0:0:0:
220,169,61539,6,0,P|172:141|164:112,1,52.5,8|0,1:0|2:0,2:0:0:0:
173,68,61673,1,0,3:0:0:0:
292,253,61807,6,0,P|323:282|354:293,1,62.9999999999999,8|0,2:3|2:0,2:0:0:0:
382,356,61940,2,0,P|439:344|458:329,1,62.9999999999999,8|0,2:3|2:0,2:0:0:0:
512,124,62074,5,8,2:0:0:0:
487,41,62208,6,0,P|495:24|501:16,2,20.9999999999998,0|0|0,2:0|2:0|2:0,2:0:0:0:
512,124,62610,21,8,2:0:0:0:
411,25,62744,6,0,P|408:6|409:-6,2,24.15,0|0|0,2:0|2:0|2:0,2:0:0:0:
512,124,63146,21,8,2:0:0:0:
335,38,63280,6,0,P|322:22|318:11,2,24.15,0|0|0,2:0|2:0|2:0,2:0:0:0:
512,124,63682,21,8,2:0:0:0:
273,90,63815,6,0,P|255:80|247:71,2,27.2999999999999,0|0|0,2:0|2:0|2:0,2:0:0:0:
512,124,64217,21,8,2:0:0:0:
230,154,64351,6,0,P|210:149|200:143,2,30.4499999999999,0|0|0,2:0|2:0|2:0,2:0:0:0:
512,124,64753,21,8,2:0:0:0:
211,230,64887,6,0,P|188:230|175:227,2,33.6,0|0|0,2:0|2:0|2:0,2:0:0:0:
512,124,65289,21,8,2:0:0:0:
235,303,65423,6,0,P|213:309|199:309,2,36.75,0|0|0,2:0|2:0|2:0,2:0:0:0:
512,124,65824,21,8,2:0:0:0:
283,359,65958,6,0,P|263:375|249:381,2,39.9,0|0|0,2:0|2:0|2:0,2:0:0:0:
512,124,66360,22,0,P|469:112|455:105,1,52.5,8|0,2:0|2:0,2:0:0:0:
389,177,66628,2,0,P|353:186|327:197,1,57.7499999999999,8|0,2:0|2:0,2:0:0:0:
204,81,66896,2,0,P|152:66|125:55,1,62.9999999999999,8|0,2:0|2:0,2:0:0:0:
332,8,67164,6,0,P|318:59|314:78,1,68.2499999999999,8|0,2:0|2:0,2:0:0:0:
140,163,67432,2,0,P|158:210|167:243,1,73.4999999999999,8|0,2:0|2:0,2:0:0:0:
344,312,67699,2,0,P|332:356|326:392,1,78.7500000000002,8|0,2:0|2:0,2:0:0:0:
60,336,67967,22,0,P|114:319|147:313,1,84,8|0,2:0|2:0,2:0:0:0:
350,162,68235,2,0,P|307:150|267:132,1,89.2500000000003,8|0,2:0|2:0,2:0:0:0:
29,0,68503,5,8,2:0:0:0:
0,59,68570,1,8,2:0:0:0:
11,115,68637,1,8,2:0:0:0:
55,144,68704,1,8,2:0:0:0:
99,154,68771,21,8,2:0:0:0:
105,175,68838,1,8,2:0:0:0:
115,141,68905,1,8,2:0:0:0:
122,164,68972,1,8,2:0:0:0:
138,149,69039,5,8,2:0:0:0:
188,150,69106,1,8,2:0:0:0:
236,181,69173,1,8,2:0:0:0:
258,236,69240,1,8,2:0:0:0:
245,298,69307,1,8,2:0:0:0:
193,339,69373,1,8,2:0:0:0:
122,337,69440,5,8,2:0:0:0:
122,337,69507,1,8,2:0:0:0:
122,337,69574,1,8,2:0:0:0:
350,162,69708,5,8,2:0:0:0:
350,162,69976,1,8,2:0:0:0:
258,104,70244,5,8,2:0:0:0:
258,104,70311,1,8,2:0:0:0:
258,104,70378,2,0,L|267:159,1,52.5,8|0,2:0|2:0,2:0:0:0:
480,369,70512,2,0,L|471:314,1,52.5,8|0,2:0|2:0,2:0:0:0:
350,162,70646,6,0,B|409:99|541:142|540:251|457:312|367:320|323:295|303:266|303:266|289:240|261:218|207:228|142:270|148:318|193:379|263:340|266:309,1,661.499999999999,8|0,2:3|2:0,2:0:0:0:
332,384,71182,6,0,B|352:343|350:333|312:238|304:227|252:225,1,204.75,8|0,2:1|2:0,2:0:0:0:
238,336,71449,5,0,3:0:0:0:
238,336,71516,1,0,3:0:0:0:
238,336,71583,1,0,3:0:0:0:
68,62,71717,6,0,B|41:70|17:53|3:28|3:28|-8:57|-8:57|0:89|74:132|136:81|136:81|171:29|231:19|284:72,1,393.749999999999,8|0,2:3|2:0,2:0:0:0:
350,162,72119,2,0,B|377:154|401:171|415:196|415:196|426:167|426:167|418:135|344:92|282:143|282:143|247:195|187:205|134:152,1,393.749999999999,8|0,2:3|2:0,2:0:0:0:
209,112,72521,6,0,B|259:230|269:286|269:286|239:339|180:331,1,267.75,8|0,2:3|2:0,2:0:0:0:
203,331,72789,6,0,B|203:330|203:329|203:329|202:329|202:329|203:328|203:328|203:327|203:327|205:327|205:327|204:326|204:326|204:325|204:325|203:325|203:325|204:325|204:325|204:324|204:323|204:323|205:323|205:323|204:322|204:322|205:321|205:321|204:321|204:321|205:321|205:321|205:320|205:320|206:319|206:319|205:319|205:319|205:318|205:318|205:317|205:317|206:317|206:317|206:316|206:316|207:315|207:315|206:315|206:315|206:314|207:314|207:314|206:313|206:313|207:313|207:313|207:312|207:312|208:312|208:312|208:311|208:311|208:310|208:310|207:309|207:309|208:309|208:309|209:308|209:308|210:308|210:308|209:307|209:307|209:306|209:306|209:305|209:305|210:305|210:305|211:305|211:305|211:304|211:304|211:303|211:303|211:302|211:302|212:302|212:302|212:301|212:301|213:301|213:301|213:300|213:300|213:299|213:299|213:298|213:298|214:298|214:298|215:298|215:298|215:297|215:297|215:296|215:296|215:295|215:295|216:295|216:295|217:294|217:294|218:294|218:294|217:293|217:293|218:293|218:293|217:292|217:292|218:292|218:292|219:291|219:291|220:291|220:291|220:290|220:290|220:289|220:289|220:288|220:288|221:289|221:289|222:288|222:288|223:288|223:288|222:287|222:287|223:287|223:287|223:285|223:285|224:286|224:286|224:285|224:285|225:286|225:286|225:285|225:285|226:284|226:284|225:283|225:283|226:283|226:283|227:282|227:282|228:283|228:283|228:282|228:282|229:281|229:281|229:280|229:280|230:280|230:280|231:280|231:280|231:279|231:279|232:279|232:279|232:277|232:277|233:278|233:278|234:277|234:277|234:278|234:278|234:277|234:277|235:276|235:276|235:275|235:275|236:276|236:276|237:275|237:275|238:276|238:276|238:275|238:275|239:274|239:274|238:273|238:273|239:274|239:274|240:273|240:273|241:274|241:274|241:273|241:273|242:272|242:272|242:271|242:271|243:272|243:272|243:271|244:271|244:271|245:272|245:272|245:271|245:271|245:270|245:270|245:269|245:269|246:270|246:270|247:269|247:269|248:270|248:270|248:269|248:269|249:268|249:268|249:267|249:267|250:268|250:268|251:268|251:268|252:268|252:268|252:267|252:267|253:267|253:267|253:266|253:266|254:266|254:266|255:267|255:267|256:266|256:266|257:265|257:265|257:264|257:264|258:264|258:264|259:265|259:265|259:264|259:264|260:264|260:264|260:263|260:263|261:263|261:263|262:263|262:263|263:264|263:264|263:263|263:263|264:262|264:262|264:261|264:261|265:262|265:262|266:262|266:262|266:263|266:263|267:261|267:261|268:261|268:261|268:260|268:260|269:261|269:261|270:261|270:261|271:260|271:260|272:260|272:260|272:259|272:259|272:260|272:260|273:260|273:260|274:261|274:261|274:259|274:259|275:259|275:259|276:258|276:258|276:259|276:259|277:259|277:259|278:260|278:260|278:259|278:259|279:259|279:259|280:257|280:257|280:258|280:258|281:258|281:258|282:259|282:259|282:258|282:258|283:258|283:258|284:257|284:257|284:258|284:258|285:258|285:258|286:259|286:259|286:258|286:258|287:258|287:258|288:257|288:257|289:257|289:257|290:258|290:258|290:257|290:257|291:257|291:257|292:256|292:256|292:257|292:257|293:257|293:257|294:258|294:258|294:257|294:257|295:257|295:257|296:256|296:256|296:257|296:257|297:257|297:257|298:258|298:258|298:257|298:257|299:257|299:257|300:256|300:256|300:257|300:257|301:257|301:257|302:258|302:258|302:257|302:257|303:257|303:257|304:257|304:257|304:258|304:258|305:258|305:258|306:259|306:259|306:258|306:258|307:258|307:258|308:257|308:257|308:258|308:258|309:258|309:258|310:259|310:259|310:258|310:258|311:258|311:258|312:257|312:257|312:259|312:259|313:259|313:259|313:260|313:260|314:259|314:259|315:259|315:259|316:258|316:258|316:259|316:259|317:259|317:259|317:261|317:261|318:260|318:260|319:260|319:260|320:259|320:259|320:260|320:260|321:260|321:260|321:261|321:261|322:261|322:261|323:261|323:261|324:260|324:260|324:261|324:261|325:261|325:261|325:263|325:263|326:262|326:262|327:262|327:262|327:261|327:261|328:262|328:262|328:263|329:263|329:263|329:264|329:264|330:263|330:263|331:263|331:263|331:264|331:264|332:264|332:264|332:265|332:265|333:265|333:265|334:265|334:265|335:264|335:264|335:265|335:265|336:266|336:266|336:267|336:267|337:266|337:266|338:267|338:267|339:266|339:266|339:267|339:267|340:268|340:268|340:269|340:269|340:268|340:268|341:268|341:268|342:268|342:268|342:269|342:269|343:269|343:269|343:271|343:271|344:270|344:270|345:270|345:270|346:270|346:270|346:271|346:271|346:272|346:272|346:273|346:273|347:272|347:272|348:272|348:273|348:273|349:272|349:272|349:273|349:273|350:274|350:274|350:275|350:275|351:274|351:274|351:275|351:275|352:274|352:274|352:276|352:276|353:276|353:276|353:277|353:277|354:277|354:277|355:277|355:277|356:277|356:277|355:278|355:278|356:278|356:279|356:279|356:280|356:280|357:279|357:279|357:280|358:280|358:280|359:280|359:280|358:281|358:281|359:281|359:281|359:282|359:282|360:282|360:282|361:283|361:283|362:282|362:282|361:283|361:283|362:284|362:284|362:285|362:285|363:285|363:285|363:286|363:286|364:285|364:285|364:286|364:286|364:287|365:287|365:287|364:288|364:288|365:288|365:288|366:288|366:289|366:289|367:288|367:288|367:289|367:289|367:290|367:290|367:291|367:291|368:291|368:291|369:292|369:292|370:291|370:291|369:292|369:292|370:293|370:293|369:294|369:294|371:294|371:294|371:295|371:295|372:294|372:294|372:295|372:295|372:296|372:296|372:297|372:297|373:297|373:297|374:298|374:298|375:298|375:298|374:299|374:299|375:299|375:299|374:300|374:300|375:300|375:300|376:301|376:301|377:301|377:301|377:302|377:302|377:303|377:303|377:304|377:304|378:303|378:303|378:304|378:304|379:304|379:304|379:305|379:305|379:306|380:306|380:306|379:307|379:307|380:307|380:307|381:307|381:308|381:308|382:307|382:307|381:308|381:308|382:309|382:309|381:310|381:310|382:310|382:310|383:311|383:311|384:311|384:311|384:312|384:312|384:313|384:313|385:313|385:313|385:314|385:314|386:314|386:314|386:315|386:315|387:316|387:316|386:317|386:317|387:316|387:316|387:317|388:317|388:317|389:317|389:317|388:318|388:318|389:319|389:319|388:320|388:320|390:320|390:320|391:320|391:320|391:321|391:321|391:322|391:322|391:323|391:323|392:323|392:323|393:324|393:324|394:323|394:323|393:324|393:324|394:325|394:325|393:326|393:326|395:326|395:326|395:327|395:327|396:326|396:326|396:327|396:327|396:328|396:328|396:329|396:329|397:329|397:329|398:329|398:330|398:330|399:329|399:329|398:330|398:330|399:331|399:331|399:332|399:332|400:332|400:332|401:333|401:333|402:332|402:332|401:333|401:333|402:334|402:334|402:335|402:335|403:335|403:335|404:335|404:335|404:336|404:336|404:337|405:337|405:337|404:338|404:338|406:338|406:338|407:338|407:338|407:339|407:339|408:340|408:340|407:341|407:341|409:340|409:340|409:341|409:341|410:340|410:340|410:341|410:341|411:342|411:342|411:343|411:343|412:343|412:343|413:343|413:343|413:344|413:344|414:344|414:344|414:346|414:346|415:345|415:345|416:346|416:346|417:345|417:345|417:346|417:346|417:347|417:347|417:348|417:348|418:347|418:347|419:348|419:348|420:347|420:347|420:348|420:348|420:349|421:349|421:349|421:350|421:350|422:349|422:349|422:350|422:350|423:349|423:349|423:350|423:350|424:351|424:351|424:352|424:352|425:351|425:351|426:352|426:352|427:351|427:351|427:352|427:352|427:353|428:353|428:353|428:354|428:354|429:353|429:353|429:354|430:354|430:354|430:353|430:353|430:354|430:354|431:354|431:355|431:355|431:356|431:356|432:355|432:355|433:355|433:355|434:355|434:355|434:356|434:356|435:356|435:356|435:357|435:357|436:356|436:356|436:357|437:357|437:357|438:356|438:356|438:357|438:357|439:358|439:358|439:359|439:359|440:358|440:358|441:358|441:358|441:357|441:357|442:359|442:359|443:360|443:360|443:359|443:359|444:359|444:359|445:359|445:359|445:360|445:360|446:360|446:360|447:361|447:361|447:360|447:360|448:361|448:361|449:360|449:360|449:361|449:361|450:361|450:361|450:362|450:362|451:361|451:361|452:361|452:362|452:362|453:361|453:361|453:362|453:362|454:362|454:362|454:363|454:363|455:362|455:362|456:362|456:362|457:361|457:361|457:363|457:363|458:363|458:363|458:364|458:364|459:363|459:363|460:363|460:363|461:362|461:362|461:363|461:363|462:363|462:363|462:364|462:364|463:363|463:363|464:364|464:364|465:363|465:363|465:364|465:364|466:364|466:364|466:365|466:365|467:364|467:364|468:364|468:364|469:363|469:363|469:364|469:364|470:364|470:364|470:365|470:365|471:364|471:364|472:364|472:364|472:363|472:363|473:364|473:364|474:364|474:364|474:366|474:366|475:364|475:364|476:364|476:364|477:365|477:365|478:365|478:365|479:365|479:365|480:365|480:365|480:364|480:364|481:364|481:364|482:364|482:364|482:365|482:365|483:364|483:364|484:364|484:364|484:363|484:363|485:364|485:364|486:364|486:364|486:365|486:365|487:364|487:364|488:364|488:364|488:363|488:363|489:364|489:364|490:364|490:364|490:365|490:365|491:364|491:364|492:364|492:364|492:363|492:363|493:364|493:364|494:364|494:364|495:363,1,645.750000000001,0|0,3:0|2:0,2:0:0:0:
468,135,73324,6,0,B|440:142|423:160|423:160|433:120|462:124,1,90.9999999999999,8|0,2:1|2:0,2:0:0:0:
358,213,73503,2,0,B|378:233|402:239|402:239|362:250|351:223,1,90.9999999999999,0|0,2:0|3:0,2:0:0:0:
481,266,73682,2,0,B|488:238|481:214|481:214|511:243|493:266,1,90.9999999999999,0|0,2:0|2:0,2:0:0:0:
350,54,73860,6,0,P|233:67|161:81,1,157.5,8|0,2:0|2:0,2:0:0:0:
103,48,74128,2,0,B|70:28|68:-44|191:-52|201:48|160:103,1,236.25,0|0,3:0|2:0,2:0:0:0:
67,253,74396,6,0,P|53:229|71:251,1,78.75,8|0,2:1|2:0,2:0:0:0:
1,172,74664,6,0,B|2:171|2:171|2:170|2:170|3:170|3:170|4:170|4:170|5:170|5:170|5:169|5:169|5:168|5:168|5:167|5:167|6:168|6:168|7:167|7:167|8:167|8:167|8:166|8:166|8:165|8:165|9:165|9:165|10:165|10:165|11:165|11:165|11:164|11:164|12:163|12:163|11:162|11:162|12:163|12:163|13:163|13:162|13:162|14:163|14:163|14:162|14:162|15:161|15:161|15:160|15:160|16:161|16:161|16:160|17:160|17:160|17:161|17:161|17:160|17:160|18:159|18:159|18:158|18:158|19:159|19:159|20:158|20:158|21:159|21:159|21:158|21:158|22:157|22:157|22:156|22:156|23:157|23:157|23:156|24:156|24:156|24:157|24:157|24:156|24:156|25:156|25:155|25:155|25:154|25:154|26:155|26:155|27:155|27:155|28:155|28:155|28:154|28:154|29:154|29:154|29:153|29:153|30:153|30:153|31:153|31:153|32:154|32:154|32:153|32:153|33:152|33:152|33:151|33:151|34:152|34:152|35:152|35:152|36:151|36:151|37:151|37:151|37:150|37:150|38:151|38:151|39:150|39:150|39:151|39:151|39:150|39:150|40:150|40:150|41:149|41:149|41:150|41:150|42:150|42:149|42:149|43:150|43:150|43:149|43:149|44:149|44:149|45:148|45:148|45:149|45:149|46:149|46:149|47:149|47:149|47:148|47:148|48:148|48:148|49:147|49:147|49:148|49:148|50:148|50:148|51:149|51:149|51:148|51:148|52:148|52:148|53:147|53:147|53:148|53:148|54:148|54:148|55:149|55:149|55:147|55:147|56:147|56:147|57:146|57:146|57:147|57:147|58:147|58:147|59:148|59:148|59:147|59:147|60:147|60:147|61:146|61:146|61:147|61:147|62:147|62:147|63:148|63:148|63:147|63:147|64:147|64:147|65:146|65:146|65:147|65:147|66:147|66:147|67:148|67:148|67:147|67:147|68:147|68:147|69:146|69:146|69:147|69:147|70:147|70:147|71:149|71:149|71:148|71:148|72:148|72:148|73:147|73:147|73:148|73:148|74:148|74:148|75:149|75:149|75:148|75:148|76:148|76:148|77:147|77:147|77:148|77:148|78:149|78:149|78:150|78:150|79:149|79:149|80:149|80:149|81:148|81:148|81:149|81:149|82:149|82:149|82:150|82:150|83:150|83:150|84:150|84:150|85:149|85:149|85:150|85:150|86:150|86:150|86:151|86:151|87:151|87:151|88:151|88:151|89:150|89:150|89:151|89:151|90:151|90:151|90:152|90:152|91:152|91:152|92:152|92:152|92:151|92:151|93:152|93:152|93:153|93:153|94:154|94:154|94:153|94:153|95:153|95:153|96:153|96:153|96:154|96:154|97:154|97:154|97:155|97:155|98:155|98:155|99:155|99:155|100:154|100:154|100:155|100:155|101:156|101:156|101:157|101:157|102:156|102:156|102:157|103:157|103:157|104:156|104:156|104:157|104:157|104:158|104:158|104:159|104:159|105:158|105:158|106:158|106:158|107:158|107:158|107:159|107:159|108:159|108:159|108:161|108:161|109:160|109:160|110:160|110:160|111:160|111:160|111:161|111:161|111:163|111:163|112:162|112:162|113:162|113:163|113:163|114:162|114:162|114:163|114:163|115:164|115:164|115:165|115:165|116:164|116:164|116:165|116:165|117:164|117:164|117:165|117:165|118:166|118:166|118:167|118:167|119:167|119:167|120:167|120:167|121:167|121:167|120:168|120:168|121:168|121:168|121:170|121:170|122:169|122:169|123:169|123:170|123:170|124:169|124:169|124:170|124:170|124:171|124:171|124:172|124:172|125:172|125:172|126:172|126:172|127:172|127:172|127:173|127:173|127:174|127:174|127:175|127:175|128:174|128:174|128:175|129:175|129:175|130:175|130:175|129:176|129:176|130:176|130:176|130:178|130:178|131:177|131:177|131:178|131:178|133:178|133:178|132:179|132:179|133:179|133:179|132:181|132:181|133:180|133:180|134:181|134:181|135:181|135:181|135:182|135:182|135:184|135:184|136:183|136:183|136:184|137:184|137:184|138:184|138:184|137:185|137:185|138:185|138:186|138:186|137:187|137:187|138:186|138:186|139:187|139:187|140:187|140:187|140:188|140:188|140:189|140:189|140:190|140:190|141:190|141:190|141:191|141:191|142:190|142:190|142:191|142:191|142:192|142:192|142:193|142:193|143:193|143:193|143:194|143:194|144:194|144:194|144:195|144:195|144:196|144:196|144:197|144:197|145:197|145:197|145:198|145:198|146:198|146:198|146:199|146:199|146:200|146:200|147:200|147:200|147:201|147:201|148:201|148:201|148:202|148:202|148:203|148:203|147:204|147:204|149:204|149:204|149:205|149:205|150:204|150:204|150:206|150:206|149:207|149:207|151:207|151:207|151:208|151:208|152:208|152:208|152:209|152:209|152:210|152:210|152:211|152:211|153:211|153:211|154:211|154:211|154:212|154:212|154:213|155:213|155:213|154:214|154:214|155:214|155:214|156:215|156:215|157:214|157:214|156:215|156:215|157:216|157:216|157:217|157:217|158:217|158:218|158:218|159:217|159:217|159:219|159:219|159:220|159:220|160:220|160:220|161:221|161:221|162:220|162:220|161:221|161:221|162:222|162:222|162:223|162:223|163:223|163:223|163:224|163:224|165:223|165:223|164:224|164:224|165:225|165:225|165:226|165:226|166:226|166:226|167:226|167:226|167:227|167:227|168:228|168:228|168:229|168:229|169:228|169:228|169:229|169:229|170:229|170:229|170:230|170:230|171:230|171:230|171:231|171:231|172:231|172:231|174:231|174:231|173:232|173:232|174:232|174:233|174:233|174:234|174:234|175:233|175:233|175:234|176:234|176:234|177:233|177:233|177:234|177:234|177:235|177:235|177:236|177:236|178:235|178:235|179:236|179:236|180:235|180:235|180:236|180:236|181:237|181:237|181:238|181:238|182:237|182:237|183:238|183:238|184:237|184:237|184:238|184:238|185:239|185:239|185:240|185:240|186:239|186:239|187:239|187:239|187:240|187:240|188:240|188:240|188:241|188:241|189:240|189:240|190:241|190:241|191:240|191:240|191:241|191:241|192:241|192:241|192:242|192:242|193:242|193:242|194:242|194:242|195:241|195:241|195:242|195:242|196:242|196:242|196:244|196:244|197:243|197:243|198:243|198:243|198:242|198:242|199:243|199:243|200:243|200:243|200:244|200:244|201:244|201:244|202:244|202:244|203:243|203:243|203:244|203:244|204:244|204:244|204:245|204:245|205:244|205:244|206:244|206:244|206:243|206:243|207:244|207:244|208:245|208:245|208:246|208:246|209:245|209:245|210:245|210:245|210:244|210:244|211:245|211:245|212:245|212:245|212:246|212:246|213:245|213:245|214:245|214:245|214:244|214:244|215:245|215:245|216:245|216:245|216:246|216:246|217:245|217:245|218:245|218:245|218:244|218:244|219:245|219:245|220:245|220:245|220:246|220:246|221:245|221:245|222:245|222:245|222:244|222:244|223:245|223:245|224:245,1,463.049999999998,0|0,3:0|2:0,2:0:0:0:
428,185,74932,6,0,B|482:213|503:255|499:312|406:375|330:357|286:265|313:120|342:-24|415:-66|553:-45|580:60|523:108|427:83,1,661.499999999999,8|0,2:3|2:0,2:0:0:0:
277,158,75467,6,0,P|237:171|193:150,4,57.7499999999998,8|0|0|0|0,2:1|2:0|2:0|2:0|2:0,2:0:0:0:
237,88,75735,5,0,3:0:0:0:
237,88,75802,1,0,3:0:0:0:
237,88,75869,1,0,3:0:0:0:
67,253,76003,6,0,B|67:231|30:223|30:223|104:180|182:250|186:304|154:360,1,259.875,8|0,2:3|2:0,2:0:0:0:
169,317,76271,2,0,L|124:327,1,39.3750000000001,0|0,2:0|2:0,2:0:0:0:
362,167,76405,6,0,B|321:161|321:161|314:164|314:164|267:156,1,86.625,8|0,2:3|2:0,2:0:0:0:
237,88,76539,2,0,B|273:7|358:12|404:29|404:29|372:56|366:107,1,259.875,8|0,2:1|2:0,2:0:0:0:
510,328,76807,6,0,B|478:346|479:381|479:381|459:312|431:246|431:246|392:232|361:268,1,283.5,8|0,2:3|2:0,2:0:0:0:
364,266,77074,6,0,B|365:267|365:267|366:266|366:266|366:267|366:267|367:268|367:268|367:269|367:269|368:268|368:268|369:269|369:269|370:268|370:268|370:269|370:269|371:270|371:270|371:271|371:271|372:270|372:270|373:270|373:270|373:271|373:271|374:271|374:271|375:272|375:272|375:271|375:271|376:271|376:272|376:272|377:271|377:271|377:272|377:272|378:272|378:272|378:273|378:273|379:272|379:272|380:272|380:272|381:272|381:272|381:273|381:273|382:273|382:273|383:274|383:274|383:273|383:273|384:273|384:273|385:272|385:272|385:273|385:273|386:273|386:273|387:274|387:274|387:273|387:273|388:274|388:274|389:273|389:273|389:274|389:274|390:274|390:274|391:275|391:275|391:274|391:274|392:274|392:274|393:273|393:273|393:274|393:274|394:274|394:274|395:274|395:274|396:273|396:273|397:272|397:272|397:273|397:273|398:273|398:273|399:274|399:274|399:273|399:273|400:273|400:273|400:272|400:272|401:273|401:273|402:273|402:273|403:274|403:274|403:272|403:272|404:272|404:272|404:271|404:271|405:272|405:272|406:272|406:272|407:273|407:273|407:272|407:272|408:271|408:271|408:270|408:270|409:271|409:271|410:271|410:271|411:272|411:272|411:270|411:270|412:270|412:270|412:269|412:269|413:270|413:270|414:269|414:269|414:270|414:270|415:269|415:269|416:268|416:268|417:268|417:268|418:269|418:269|418:268|418:268|419:267|419:267|419:266|419:266|420:267|420:267|421:266|421:266|422:267|422:267|422:266|422:266|422:265|423:265|423:265|423:264|423:264|424:265|424:265|424:264|424:264|425:265|425:265|425:264|425:264|426:264|426:263|426:263|426:262|426:262|427:263|427:263|428:263|428:262|428:262|429:263|429:263|429:262|429:262|429:261|430:261|430:261|429:260|429:260|430:261|430:261|431:260|431:260|432:261|432:261|432:260|432:260|433:259|433:259|433:258|433:258|434:258|434:258|435:258|435:258|435:257|435:257|436:257|436:257|436:255|436:255|437:256|437:256|437:255|438:255|438:255|439:256|439:256|438:255|438:255|439:254|439:254|439:253|439:253|440:253|440:253|441:253|441:253|442:253|442:253|441:252|441:252|442:252|442:251|442:251|442:250|442:250|443:251|443:251|443:250|444:250|444:250|445:250|445:250|444:249|444:249|445:249|445:249|445:248|445:248|446:248|446:248|446:247|446:247|447:247|447:247|448:246|448:246|447:245|447:245|449:245|449:245|449:244|449:244|450:245|450:245|450:243|450:243|450:242|450:242|451:242|451:242|452:242|452:241|452:241|453:242|453:242|452:240|452:240|453:240|453:240|453:239|453:239|454:239|454:239|454:238|454:238|455:238|455:238|455:237|455:237|456:237|456:237|455:236|455:236|456:236|456:236|457:235|457:235|458:235|458:235|457:234|457:234|458:234|458:233|458:233|458:232|458:232|459:233|459:233|459:232|459:232|460:232|460:232|460:231|460:231|460:230|460:230|460:229|460:229|461:229|461:229|461:228|461:228|463:229|463:229|462:228|462:228|462:227|462:227|462:226|462:226|463:226|463:226|463:225|464:225|464:225|465:225|465:225|464:224|464:224|465:223|465:223|464:222|464:222|465:222|465:222|466:222|466:222|467:222|467:222|466:221|466:221|466:220|467:220|467:220|466:219|466:219|467:219|467:219|468:218|468:218|469:218|469:218|468:217|468:217|468:216|468:216|469:216|469:216|469:215|469:215|470:215|470:215|470:214|470:214|470:213|470:213|470:212|470:212|471:212|471:212|471:211|471:211|472:211|472:211|472:210|472:210|472:209|472:209|471:208|471:208|472:208|472:208|473:208|473:207|473:207|474:207|474:207|473:206|473:206|474:206|474:206|473:205|473:205|474:205|474:205|474:204|474:204|476:204|476:204|475:203|475:203|475:202|475:202|474:201|474:201|476:201|476:201|476:200|476:200|477:200|477:200|476:199|476:199|477:199|477:198|477:198|476:197|476:197|477:197|477:197|477:196|477:196|479:196|479:196|478:195|478:195|478:194|478:194|477:194|477:194|478:194|478:194|479:193|479:193|480:192|480:192|479:192|479:192|479:191|479:191|479:190|479:190|480:190|480:190|480:189|480:189|481:189|481:189|480:188|480:188|480:187|481:187|481:187|480:186|480:186|481:186|481:186|481:185|481:185|482:185|482:185|481:184|481:184|482:183|482:183|481:182|481:182|482:182|482:182|482:181|482:181|483:181|483:181|482:180|482:180|483:180|483:179|483:179|482:178|482:178|483:178|483:178|483:177|483:177|484:177|484:177|483:176|483:176|484:176|484:175|484:175|483:174|483:174|484:174|484:174|484:173|484:173|485:173|485:173|484:172|484:172|484:171|484:171|485:170|485:170|485:169|485:169|486:169|486:169|485:168|485:168|485:167|485:167|484:167|484:167|485:166|485:166|486:165|486:165|487:165|487:165|486:164|486:164|486:163|486:163|485:163|485:163|486:162|486:162|486:161|486:161|487:161|487:161|486:160|486:160|485:159|485:159|487:158|487:158|487:157|487:157|488:157|488:157|487:156|487:156|487:155|487:155|486:155|486:155|487:154|487:154|487:153|487:153|488:153|488:153|487:152|487:152|487:151|487:151|486:151|486:151|487:150|487:150|488:149|488:149|487:149|487:149|487:148|487:147|487:147|486:147|486:147|487:147|487:147|487:146|487:146|489:145|489:145|487:145|487:145|488:144|488:143|488:143|487:143|487:143|488:143|488:143|488:142|488:142|489:141|489:141|488:140|488:140|488:139|488:139|486:139|486:139|487:138|487:138|487:137|487:137|488:137|488:137|487:136|487:136|487:135|487:135|486:135|486:135|487:135|487:135|487:134|487:134|488:133|488:133|487:133|487:133|487:132|487:132|486:131|486:131|487:131|487:131|487:130|487:130|488:129|488:129|487:129|487:129|487:128|487:128|486:127|486:127|487:127|487:127|486:126|486:126|487:125|487:125|486:125|486:125|486:124|486:124|485:123|485:123|486:123|486:123|486:122|486:122|487:121|487:121|486:121|486:121|485:120|485:120|484:119|484:119|485:119|485:119|485:118|485:118|486:117|486:117|485:117|485:117|485:116|484:116|484:116|483:116|483:116|484:115|484:115|484:114|484:114|485:113|485:113|484:113|484:113|483:112|483:112|482:112|482:112|483:111|483:111|483:110|483:110|483:109|483:109|482:109|482:109|482:108|482:108|481:108|481:108|482:107|482:107|481:107|481:106|481:106|482:105|482:105|481:105|481:105|480:105|480:105|479:105|479:105|480:104|480:104|480:103|479:103|479:103|480:102|480:102|479:102|479:102|479:101|478:101|478:101|477:101|477:101|478:100|478:100|477:99|477:99|478:98|478:98|477:98|477:98|476:98|476:98|475:98|475:98|476:97|476:97|475:96|475:96|475:95|475:95|474:95|474:95|473:95|473:95|473:94|473:94|472:93|472:93|473:92|473:92|472:93|472:93|471:92|471:92|470:92|470:92|470:91|470:91|469:91|469:91|469:90|469:90|468:90|468:90|467:90|467:90|466:91|466:91|466:89|466:89|465:88|465:88|465:89|465:89|464:89|464:88|464:88|463:89|463:89|463:88|463:88|462:88|462:88|461:87|461:87|461:88|461:88|460:88|460:88|459:89|459:89|459:88|459:88|458:88|458:88|457:87|457:87|457:89|457:89|456:89|456:89|456:90|456:90|455:89|455:89|454:89|454:90|454:90|453:89|453:89|453:90|453:90|452:90|452:90|452:92|452:92|451:91|451:91|451:92|451:92|449:91|449:91|450:92|450:92|449:93|449:93|449:94|449:94|448:94|448:94|448:95|448:95|447:94|447:94|447:95|447:95|447:96|447:96|447:97|447:97|446:97|446:97|446:98|446:98|444:98|444:98|445:99|445:99|445:100|445:100|445:101|445:101|444:101|444:101|444:102|444:102|443:102|443:102|444:103|444:103|444:104|444:104|443:105|443:105|443:106|443:106|442:106|442:106|443:106|443:106|443:107|443:107|444:108|444:108|443:108|443:108|443:109|443:109|442:110|442:110|443:110|443:110|443:111|443:111|444:112|444:112|443:112|443:112|443:113|443:113|442:114|442:114|443:114|443:114|443:115|443:115|444:116|444:116|443:116|443:116|443:117|443:117|443:118|443:118|444:118|444:118|444:119|444:119|445:120|445:120|444:120|444:120|444:121|444:121|444:122|444:122|445:122|445:122|445:123|445:123|446:123|446:123|445:124|445:124|446:125|446:125|445:126|445:126|446:126|446:126|446:127|447:127|447:127|448:127|448:127|447:128|447:128|447:129|447:129|447:130|447:130|448:130|448:130|450:130|450:130|449:131|449:131|449:132|450:132|450:132|449:133|449:133|450:133|450:133|451:134|451:134|452:134|452:134|451:135|451:135|452:135|452:135|451:136|451:136|453:136|453:136|453:137|453:137|454:137|454:137|454:138|454:138|455:138|455:138|454:139|454:139|455:139|455:139|456:139|456:140|456:140|457:139|457:139|457:140|457:140|457:141|457:141|457:142|457:142|458:142|458:142|459:142|459:142|460:142|460:142|460:143|460:143|461:143|461:143|461:145|461:145|462:144|462:144|463:145|462:144|462:144|463:144|463:144|463:145,1,614.250000000001,0|0,3:0|2:0,2:0:0:0:
92,148,77610,6,0,B|117:156|127:176|127:176|124:153|142:126,1,90.9999999999999,8|0,2:1|2:0,2:0:0:0:
45,53,77789,2,0,B|25:70|3:69|3:69|24:78|39:107,1,90.9999999999999,0|0,2:0|3:0,2:0:0:0:
153,61,77967,2,0,B|147:35|159:16|159:16|141:30|108:28,1,90.9999999999999,0|0,2:0|2:0,2:0:0:0:
54,246,78146,6,0,B|227:185|227:185|193:212|212:258,1,236.25,8|0,2:0|2:0,2:0:0:0:
338,340,78414,2,0,P|355:316|359:270,1,63,0|0,3:0|2:0,2:0:0:0:
218,361,78682,6,0,B|259:381|309:371|367:263|360:196|300:172|196:199|214:293|298:320,1,315,8|0,2:1|2:0,2:0:0:0:
490,113,78949,6,0,B|489:113|489:113|488:114|488:114|488:112|488:112|487:111|487:111|487:110|487:110|486:111|486:111|486:110|486:110|485:110|485:110|485:109|485:109|484:108|484:108|485:107|485:107|484:108|484:108|483:107|483:107|482:107|482:107|482:106|482:106|482:105|482:105|483:104|483:104|481:104|481:104|481:103|481:103|480:103|480:103|481:102|481:102|480:102|480:102|481:101|481:101|480:101|480:101|480:100|480:100|479:99|479:99|480:99|480:99|479:98|479:98|480:97|480:97|479:97|479:97|479:96|479:96|478:95|478:95|479:95|479:95|479:94|479:94|480:93|480:93|479:93|479:93|479:92|479:92|478:91|478:91|479:91|479:91|480:90|480:90|481:89|481:89|480:89|480:89|480:88|480:88|479:87|479:87|481:87|481:87|481:86|481:86|482:86|482:86|481:85|481:85|482:84|482:84|481:83|481:83|482:83|482:83|483:82|483:82|484:83|484:83|483:82|483:82|484:81|484:81|484:80|484:80|485:80|485:80|485:79|485:79|486:80|486:80|486:79|486:79|487:78|487:78|487:77|487:77|488:77|488:77|489:77|489:77|489:76|489:76|490:76|490:76|490:75|490:75|491:75|491:75|492:75|492:75|493:76|493:76|493:74|493:74|494:74|494:74|494:73|494:73|495:74|495:74|496:74|496:74|497:73|497:73|498:73|498:73|498:72|498:72|498:73|498:73|499:73|499:73|500:74|500:74|500:73|500:73|501:73|501:73|502:72|502:72|502:73|502:73|503:73|503:73|504:74|504:74|504:73|504:73|505:73|505:73|506:73|506:73|506:74|506:74|507:74|507:74|507:75|507:75|508:74|508:74|509:75|509:75|510:74|510:74|510:75|510:75|511:76|511:76|511:77|511:77|512:76|512:76|513:77|513:77|514:76|514:76|514:77|514:77|514:78|514:78|514:79|514:79|515:78|515:78|516:79|516:79|517:79|517:79|516:80|516:80|517:81|517:81|517:82|517:82|518:81|518:81|518:82|518:82|519:82|519:82|519:83|519:83|519:84|519:84|519:85|519:85|520:85|520:85|520:86|520:86|521:86|521:86|521:87|521:87|520:88|520:88|521:88|521:88|522:89|522:89|523:90|523:90|522:90|522:90|522:91|522:91|521:92|521:92|522:92|522:92|522:93|522:93|523:94|523:94|522:94|522:94|522:95|522:95|521:96|521:96|522:96|522:96|522:97|522:97|523:98|523:98|522:98|522:98|522:99|522:99|521:99|521:99|522:100|522:100|521:101|521:101|522:102|522:102|521:102|521:102|521:103|521:103|519:103|519:103|520:104|520:104|520:105|520:105|520:106|520:106|519:106|519:106|518:106|518:106|518:107|518:107|517:108|517:108|518:109|518:109|517:109|517:109|516:110|516:110|515:109|515:109|515:110|515:110|515:111|515:111|515:112|515:112|514:112|514:112|513:112|513:112|512:112|512:112|512:113|512:113|511:113|511:113|511:114|511:114|510:114|510:114|509:113|509:113|509:115|509:115|508:115|508:115|508:116|508:116|507:115|507:115|506:115|506:115|505:115|505:115|505:116|505:116|504:116|504:116|504:117|504:117|503:116|503:116|502:116|502:116|501:115|501:115|501:116|501:116|502:116|499:116,1,215.775,0|0,3:0|2:0,2:0:0:0:
508,202,79217,6,0,B|507:202|506:202|506:202|506:203|506:203|505:202|505:202|504:202|504:202|504:201|504:201|503:202|503:202|502:202|502:202|502:203|502:203|501:202|501:202|500:202|500:202|500:200|500:200|499:201|499:201|498:201|498:201|498:202|498:202|497:201|497:201|496:201|496:201|496:200|496:200|495:201|495:201|494:201|494:201|494:202|494:202|493:201|493:201|492:201|492:201|492:200|492:200|491:200|491:200|490:200|490:200|490:201|490:201|490:200|490:200|489:200|489:200|488:199|488:199|488:200|488:200|487:200|487:200|486:200|486:200|486:199|486:199|485:199|485:199|484:198|484:198|484:199|484:199|483:199|483:199|482:200|482:200|482:199|482:199|481:198|481:198|480:197|480:197|480:198|480:198|479:198|479:198|478:199|478:199|478:198|478:198|477:197|477:197|477:196|477:196|476:197|476:197|475:197|475:197|474:198|474:198|474:197|474:197|473:196|473:196|473:195|473:195|472:196|472:196|471:196|471:196|470:196|470:196|470:195|470:195|469:195|469:195|469:194|469:194|468:195|468:195|467:194|467:194|466:195|466:195|466:194|466:194|465:194|465:194|465:193|465:193|464:193|464:193|463:194|463:194|463:193|463:193|462:192|462:192|462:191|462:191|461:192|461:192|460:192|460:191|460:191|459:192|459:192|459:191|459:191|458:191|458:191|458:190|458:190|457:190|457:190|456:190|456:190|455:191|455:191|455:189|455:189|454:189|454:189|454:188|454:188|453:189|453:189|453:188|453:188|452:189|452:189|452:188|452:188|451:187|451:187|451:186|451:186|450:187|450:187|449:187|449:186|449:186|448:187|448:187|448:186|448:186|447:185|447:185|447:184|447:184|446:185|446:185|446:184|446:184|445:185|445:185|445:184|445:184|444:184|444:183|444:183|444:182|444:182|443:183|443:183|442:182|442:182|441:183|441:183|441:182|441:182|441:181|440:181|440:181|440:180|440:180|440:181|440:181|439:180|439:180|438:181|438:181|438:180|438:180|437:179|437:179|437:178|437:178|436:178|436:178|435:178|435:178|434:178|434:178|435:177|435:177|434:177|434:177|434:176|434:176|433:176|433:176|432:175|432:175|431:176|431:176|432:175|432:175|431:174|431:174|431:173|431:173|430:174|430:174|429:173|429:173|428:173|428:173|428:172|428:172|428:171|428:171|427:171|427:171|426:170|426:170|425:171|425:171|425:170|425:170|425:169|425:169|425:168|425:168|424:168|424:168|423:168|423:168|422:168|422:168|423:167|423:167|422:166|422:166|422:165|422:165|421:165|421:165|420:165|420:165|419:165|419:165|420:164|420:164|419:163|419:163|420:162|420:162|419:162|419:162|418:162|418:162|417:162|417:162|417:161|417:161|417:160|417:160|417:159|417:159|416:159|416:159|415:159|415:159|414:159|414:159|415:158|415:158|414:157|414:157|415:156|415:156|413:156|413:156|413:155|413:155|412:156|412:156|412:155|412:155|412:154|412:154|412:153|412:153|411:153|411:153|411:152|411:152|409:152|409:152|410:151|410:151|409:150|409:150|410:150|410:150|409:150|409:150|409:149|408:149|408:149|407:149|407:149|408:148|408:148|407:147|407:147|408:146|408:146|407:146|407:146|406:146|406:145|406:145|405:145|405:145|406:145|406:145|405:144|405:144|406:143|406:143|405:143|405:143|404:142|404:142|403:142|403:142|404:141|404:141|403:140|403:140|404:139|404:139|403:139|403:139|402:138|402:138|401:138|401:138|402:137|402:137|401:137|401:137|402:136|402:136|401:136|401:136|401:135|401:135|399:135|399:135|400:134|400:134|400:133|400:133|400:132|400:132|399:132|399:132|399:131|399:131|398:131|398:131|398:130|398:130|398:129|398:129|399:129|399:129|398:128|398:128|397:128|397:128|396:127|396:127|397:127|397:127|397:126|396:126|396:126|397:125|397:125|396:125|396:125|396:124|396:124|395:124|395:124|395:123|395:123|395:122|395:122|396:121|396:121|395:121|395:121|394:121|394:120|394:120|393:120|393:120|394:119|394:119|393:118|393:118|394:117|394:117|393:117|393:117|393:116|393:116|392:116|392:116|392:115|392:115|393:114|393:114|392:114|392:114|391:113|391:113|390:113|390:113|391:112|391:112|391:111|390:111|390:111|391:110|391:110|390:110|390:110|390:109|390:109|389:109|389:109|389:108|389:108|389:107|389:107|390:106|390:106|389:106|389:106|388:106|388:105|388:105|387:105|387:105|388:104|388:104|387:103|387:103|388:103|388:103|387:103|387:103|387:102|387:102|386:102|386:102|386:101|386:101|386:100|386:100|387:99|387:99|385:99|385:99|385:98|385:98|384:98|384:98|385:97|385:97|384:96|384:96|385:95|385:95|384:95|384:95|383:94|383:94|382:94|382:94|383:93|383:93|383:92|383:92|382:92|382:92|382:91|382:91|381:91|381:91|381:90|381:90|381:89|381:89|382:88|382:88|380:88|380:88|380:87|380:87|379:87|379:87|379:86|379:86|379:85|379:85|380:84|380:84|379:84|379:84|378:84|378:84|377:84|377:84|378:83|378:83|377:82|377:82|378:81|378:81|377:81|377:81|376:80|376:80|375:80|375:80|376:79|376:79|375:79|375:78|375:78|376:77|376:77|374:78|374:78|374:77|374:77|373:77|373:77|373:76|373:76|373:75|373:75|373:74|373:74|372:74|372:74|372:73|372:73|371:74|371:74|371:73|371:73|371:72|371:72|371:71|371:71|370:71|370:71|370:70|369:70|369:70|368:70|368:70|369:69|369:69|368:69|368:69|369:67|369:67|368:68|368:68|367:67|367:67|366:67|366:67|366:66|366:66|366:65|366:65|366:64|366:64|365:65|365:65|365:64|364:64|364:64|363:64|363:64|364:63|364:63|363:63|363:62|363:62|363:61|363:61|362:62|362:62|362:61|362:61|361:61|361:61|361:60|361:60|360:59|360:59|361:58|361:58|360:59|360:59|359:58|359:58|358:58|358:58|358:57|358:57|358:56|358:56|357:56|357:56|356:55|356:55|355:56|355:56|355:55|355:55|355:54|355:54|355:53|355:53|354:53|354:53|353:53|353:53|352:53|352:53|352:52|352:52|351:51|351:51|352:50|352:50|351:51|351:51|350:50|350:50|349:51|349:51|349:50|349:50|349:49|348:49|348:49|349:48|349:48|348:48|348:48|347:48|347:48|346:48|346:48|346:47|346:47|345:47|345:47|345:46|345:46|344:46|344:46|343:46|343:46|342:46|342:46|343:45|343:45|342:45|342:44|342:44|342:43|342:43|341:44|341:44|340:44|340:43|340:43|339:44|339:44|339:43|339:43|338:42|338:42|338:41|338:41|337:42|337:42|337:41|337:41|336:42|336:42|336:41|336:41|335:41|335:40|335:40|335:39|335:39|334:40|334:40|333:40|333:40|332:40|332:40|332:39|332:39|331:39|331:39|331:38|331:38|330:38|330:38|329:38|329:38|328:39|328:39|328:37|328:37|327:36|327:36|327:37|327:37|326:36|326:36|325:37|325:37|325:36|325:36|324:36|324:36|324:35|324:35|323:35|323:35|322:35|322:35|321:36|321:36|321:35|321:35|320:34|320:34|320:33|320:33|319:34|319:34|318:34|318:34|317:34|317:34|317:33|317:33|316:33|316:33|316:32|316:32|315:33|315:33|314:33|314:33|313:32|313:32|312:32|312:32|312:31|312:31|311:32|311:32|310:32|310:32|309:31|309:31|308:31|308:31|308:30|308:30|307:31|307:31|306:32|306:32|306:31|306:31|305:31|305:30|305:30|304:29|304:29|304:30|304:30|303:30|303:30|302:31|302:31|302:30|302:30|301:30|300:30|300:30|300:29|300:29|300:30|300:30|299:30|299:30|298:31|298:31|298:30|298:30|297:30|297:30|296:28|296:28|296:29|296:29|295:29|295:29|294:30|294:30|294:29|294:29|293:29|293:29|292:28|292:28|292:29|292:29|291:29|291:29|290:30|290:30|290:29|290:29|289:29|289:29|288:28|288:28|288:29|288:29|287:29|287:29|286:30|286:30|286:29|286:29|285:29|285:29|284:28|284:28|284:29|284:29|283:29|283:29|282:31|282:31|282:30|282:30|281:30|281:30|280:29|280:29|280:30|280:30|279:30|279:30|278:31|278:31|278:30|278:30|277:30|277:30|276:29|276:29|276:30|276:30|275:30|275:30|274:31|274:31|273:31|273:31|272:30|272:30|272:31|272:31|271:31|271:31|270:32|270:32|270:31|270:31|269:32|269:32|268:31|268:31|268:32|268:32|267:32|267:32|267:33|267:33|266:32|266:32|265:33|265:33|264:32|264:32|264:33|264:33|263:33|263:33|263:34|263:34|262:34|262:34|261:34|261:34|260:33|260:33|260:34|260:34|260:35|259:35|259:35|259:36|259:36|258:35|258:35|257:35|257:35|256:36|256:36|256:37|256:37|255:37|255:37|254:37|254:37|253:36|253:36|253:37|253:37|252:38|252:38|251:39|251:39|251:38|251:38|250:38|250:38|249:37|249:37|249:38|249:38|248:38|248:38|247:39|247:39|246:39|246:39|245:38|245:38|245:39|245:39|244:39|244:39|244:40|244:40|243:39|243:39|242:39|242:39|241:38|241:38|241:40|241:40|240:40|240:40|240:41|240:41|239:40|239:40|238:40|238:40|237:39|237:39|237:40|237:40|236:40|236:40|236:41|236:41|235:40|235:40|234:40|234:40|233:39|233:39|233:40|233:40|232:41|232:41|232:42|232:42|231:41|231:41|230:41|230:41|229:40|229:40|229:41|229:41|228:41|228:41|227:42|227:42|227:41|227:41|226:41|226:41|225:40|225:40|225:41|225:41|224:41|224:41|224:42|224:42|223:41|223:41|222:41|222:41|221:40|221:40|221:41|221:41|220:41|220:41|219:42|219:42|219:41|219:41|218:41|218:41|218:40|218:40|217:41|217:41|216:41|216:41|215:42|215:42|215:41|215:41|214:41|214:41|214:40|214:40|213:41|213:41|212:40|212:40|211:41|211:41|211:40|211:40|210:40|210:40|210:39|210:39|209:40|209:40|208:40|208:40|207:41|207:41|207:40|207:40|206:40|206:40|206:39|206:39|205:40|205:40|205:39|204:39|204:39|203:40|203:40|203:39|203:39|202:39|202:39|202:38|202:38|201:39|201:39|200:39|200:39|199:39|199:39|199:38|199:38|198:38|198:38|198:37|198:37|197:38|197:38|196:38|196:38|195:38|195:38|195:37|195:37|194:37|194:37|194:36|194:36|194:37|194:37|193:36|193:36|192:37|192:37|191:36|191:36|190:35|190:35|189:35|189:35|188:36|188:36|188:35|188:35|187:34|187:34|187:33|187:33|186:34|186:34|185:33|185:33|184:34|184:34|184:33|184:33|183:32|183:32|183:31|183:31|182:32|182:32|182:31|182:31|181:32|181:32|181:31|181:31|180:31|180:30|180:30|180:29|180:29|179:30|179:30|179:29|178:29|178:29|177:30|177:30|177:29|177:29|177:28|177:28|177:27|177:27|176:27|176:27|175:27|175:27|174:27|174:27|174:26|174:26|174:25|174:25|174:24|174:24|173:25|173:25|173:24|172:24|172:24|171:24|171:24|172:23|172:23|171:23|171:23|172:21|172:21|170:22|170:22|170:21|170:21|169:21|169:21|169:20|169:20|169:19|169:19|169:18|169:18|168:18|168:18|168:17|168:17|167:17|167:17|167:16|167:16|168:15|168:15|167:15|167:15|167:14|166:14|166:14|165:13|165:13|166:13|166:13|166:12|166:12|167:11|167:11|166:11|166:11|166:10|166:10|165:9|165:9|166:9|166:9|166:8|166:8|168:8|168:8|167:7|167:7|167:6|167:6|167:5|167:5|168:5|168:5|168:4|168:4|169:4|169:4|169:3|169:3|169:2|169:2|170:2|170:2|171:2|171:1|171:1|172:2|172:2|172:1|172:1|172:0|173:0|173:0|173:-1|173:-1|174:0|174:0|175:0|175:0|176:-1|176:-1|177:-2|177:-2|177:-1|177:-1|178:-1|178:-1|179:-1|179:-1|179:-2|179:-2|180:-2|180:-2|181:-3|181:-3|181:-2|181:-2|182:-2|182:-2|183:-1|183:-1|183:-2|183:-2|184:-2|184:-2|185:-3|185:-3|185:-2|185:-2|186:-2|186:-2|187:0|187:0|187:-1|187:-1|188:-1|188:-1|189:-2|189:-2|189:-1|189:-1|190:-1|190:-1|191:0|191:0|191:-1|191:-1|192:-1|192:-1|193:-1|193:-1|193:0|193:0|194:0|194:0|195:1|195:1|195:0|195:0|196:0|196:0|197:0|197:0|197:1|197:1|198:1|198:1|198:2|198:2|199:1|199:1|200:2|200:2|201:1|201:1|201:2|201:2|202:2|202:2|202:4|202:4|203:3|203:3|204:3|204:3|205:3|205:3|205:4|205:4|206:4|206:4|206:5|206:5|207:4|207:4|207:5|207:5|208:4|208:4|208:5|208:5|209:6|209:6|209:7|209:7|210:6|210:6|211:7|211:7|212:6|212:6|212:7|212:7|213:8|213:8|213:9|213:9|214:8|214:8|214:9|215:9|215:9|215:8|215:8|215:9|215:9|216:9|216:10|216:10|216:11|216:11|217:10|217:10|218:10|218:11|218:11|219:10|219:10|219:11|219:11|220:12|220:12|220:13|220:13|220:12|220:12|221:13|221:13|222:12|222:12|222:13|222:13|223:14|223:14|223:15|223:15|224:14|224:14|224:15|225:15|225:15|226:14|226:14|225:16|225:16|226:16|226:16|226:17|226:17|227:17|227:17|228:17|228:17|229:17|229:17|229:18|229:18|229:19|229:19|229:20|229:20|230:19|230:19|231:19|231:20|231:20|232:19|232:19|232:20|232:20|232:21|233:21|233:21|232:22|232:22|233:22|233:22|234:22|234:22|235:22|235:22|235:23|235:23|236:24|236:24|235:25|235:25|236:24|236:24|237:25|237:25|238:24|238:24|238:25|238:25|238:26|239:26|239:26|238:27|238:27|239:27|239:27|240:27|240:27|241:27|241:27|241:28|241:28|242:29|242:29|241:30|241:30|242:30|242:30|243:30|243:30|244:30|244:30|244:31|244:31|245:32|245:32|244:33|244:33|245:32|245:32|246:33|246:33|247:33|247:33|247:34|247:34|247:35|247:35|248:35|248:35|249:35|249:36|249:36|250:35|250:35|250:37|250:37|250:38|250:38|251:38|251:38|252:39|252:39|253:40|253:40|251:41|251:41|251:42|251:42|252:43|252:43|250:43|250:43|250:44|250:44|249:45|249:45|250:45|250:45|250:46|250:46|250:47|250:47|249:47|249:47|249:48|249:48|248:48|248:48|249:49|249:49|249:50|249:50|249:51|249:51|248:51|248:51|248:52|248:52|247:52|247:52|248:53|248:53|248:54|248:54|249:55|249:55|248:55|248:55|248:56|248:56|247:56|247:56|248:57|248:57|247:58|247:58|248:59|248:59|247:59|247:59|247:60|247:60|246:60|246:60|247:61|247:61|247:62|247:62|248:62|248:62|247:63|247:63|247:64|247:64|246:64|246:64|247:65|247:65|247:66|247:66|248:66|248:66|247:67|247:67|247:68|247:68|246:68|246:68|247:69|247:69|247:70|247:70|248:70|248:70|247:71|247:71|247:72|247:72|247:73|247:73|248:74|248:74|249:74|249:74|248:75|248:75|248:76|248:76|247:77|247:77|248:77|248:77|248:78|248:78|249:78|249:78|248:79|248:79|248:80|249:80|249:80|248:81|248:81|249:81|249:81|249:82|249:82|250:82|250:82|249:83|249:83|249:84|249:84|250:85|250:85|250:86|250:86|251:86|251:86|250:87|250:87|251:88|251:88|250:88|250:88|251:89|251:89|252:90|252:90|251:90|251:90|252:91|252:91|251:92|251:92|252:92|252:92|252:93|253:93|253:93|254:93|254:93|253:94|253:94|253:95|253:95|253:96|253:96|254:96|254:96|254:97|254:97|255:97|255:97|255:98|255:98|255:99|255:99|254:100|254:100|255:100|255:100|256:100|256:101|256:101|257:100|257:100|256:101|256:101|257:102|257:102|256:103|256:103|257:103|257:103|258:104|258:104|259:104|259:104|258:105|258:105|259:105|259:106|259:106|258:107|258:107|260:106|260:106|260:107|260:107|261:107|261:107|261:108|261:108|261:109|261:109|261:110|261:110|262:110|262:110|262:111|262:111|264:110|264:110|263:111|263:111|264:112|264:112|263:113|263:113|264:113|264:113|265:113|265:114|265:114|266:113|266:113|266:114|266:114|266:115|266:115|266:116|266:116|267:116|267:116|268:116|268:116|269:116|269:116|269:117|269:117|269:118|269:118|269:119|269:119|270:118|270:118|270:119|271:119|271:119|272:119|272:119|272:120|272:120|272:121|272:121|273:121|273:121|274:121|274:122|274:122|275:121|275:121|275:122|275:122|275:123|275:123|275:124|275:124|276:123|276:123|277:124|277:124|278:123|278:123|278:124|278:124|278:125|279:125|279:125|279:126|279:126|280:125|280:125|280:126|281:126|281:126|282:125|282:125|282:126|282:126|283:127|283:127|283:128|283:128|283:127|283:127|284:127|284:127|285:127|285:127|285:128|285:128|286:128|286:128|286:129|286:129|287:128|287:128|288:129|288:129|289:128|289:128|289:129|289:129|290:129|290:129|290:130|290:130|291:130|291:130|292:130|292:130|293:129|293:129|293:130|293:130|294:130|294:130|294:131|294:131|295:130|295:130|296:130|296:130|296:129|296:129|297:130|297:130|298:130|298:130|298:131|298:131|299:130|299:130|300:130,1,1150.275,8|0,3:0|2:0,2:0:0:0:
218,361,79753,6,0,B|180:370|160:335|160:335|176:351|192:351,1,98,8|0,2:1|2:0,2:0:0:0:
336,235,79932,2,0,B|362:266|342:297|342:297|348:276|340:260,1,98,0|0,2:0|2:0,2:0:0:0:
156,213,80110,2,0,B|167:175|206:176|206:176|185:181|176:195,1,98,0|0,2:0|2:0,2:0:0:0:
243,269,80289,5,8,2:3:0:0:
243,269,80557,6,0,B|243:270|243:270|243:271|243:271|242:271|242:271|242:272|242:273|242:273|241:273|241:273|242:274|242:274|241:274|241:274|242:275|242:275|241:275|241:275|241:276|241:276|239:276|239:276|240:277|240:277|240:278|240:278|241:279|241:279|240:279|240:279|239:279|239:280|239:280|238:280|238:280|239:281|239:281|239:282|239:282|239:283|239:283|238:283|238:283|238:284|238:284|237:284|237:284|237:285|237:285|238:286|238:286|237:286|237:286|236:287|236:287|235:287|235:287|236:288|236:288|236:289|235:289|235:289|236:290|236:290|235:290|235:290|235:291|235:291|233:291|233:291|234:292|234:292|234:293|234:293|235:294|235:294|233:294|233:294|233:295|233:295|232:295|232:295|232:296|232:296|232:297|232:297|231:297|231:297|231:298|231:298|230:298|230:298|231:299|231:299|230:300|230:300|231:301|231:301|230:301|230:301|229:301|229:302|229:302|228:302|228:302|229:303|229:303|228:303|228:304|228:304|229:304|229:304|228:304|228:304|227:305|227:305|226:305|226:305|227:306|227:306|226:307|226:307|226:308|226:308|225:308|225:309|225:309|224:308|224:308|224:309|224:309|224:310|224:310|224:311|224:311|223:311|223:311|223:312|223:312|222:312|222:312|222:313|222:313|222:314|222:314|221:314|221:314|221:315|221:315|219:315|219:315|220:316|220:316|219:317|219:317|220:318|220:318|219:318|219:318|218:318|218:318|217:318|217:318|218:319|218:319|217:320|217:320|217:321|217:321|216:321|216:321|216:322|216:322|215:321|215:321|215:322|215:322|215:323|214:323|214:323|215:324|215:324|214:324|214:324|213:325|213:325|212:325|212:325|213:325|213:325|212:326|212:326|212:327|212:327|211:327|211:327|211:328|211:328|209:327|209:327|210:328|210:328|209:329|209:329|210:330|210:330|209:330|209:330|208:330|208:331|208:331|207:330|207:330|207:331|207:331|207:332|206:332|206:332|207:333|207:333|206:333|206:333|205:333|205:334|205:334|204:333|204:333|204:334|204:334|204:335|204:335|204:336|204:336|203:336|203:336|202:336|202:336|201:336|201:336|201:337|201:337|201:338|201:338|201:339|201:339|200:338|200:338|199:339|199:339|198:339|198:339|198:340|198:340|198:341|198:341|197:341|197:341|196:342|196:342|195:341|195:341|195:342|195:342|195:343|195:343|195:344|195:344|194:343|194:343|193:344|193:344|192:344|192:344|192:345|192:345|192:347|192:347|191:346|191:346|190:346|190:347|190:347|189:346|189:346|189:347|189:347|188:348|188:348|188:349|188:349|187:348|187:348|187:349|187:349|186:348|186:348|186:349|186:349|185:350|185:350|185:351|185:351|184:351|184:351|183:351|183:351|182:351|182:351|183:352|183:352|182:352|182:352|182:353|182:353|181:353|181:353|180:353|180:353|179:353|179:353|179:354|179:354|178:354|178:354|178:355|178:355|177:355|177:355|176:355|176:355|176:356|176:356|175:356|175:356|175:357|175:357|174:357|174:357|173:357|173:357|172:357|172:357|172:358|172:358|171:358|171:358|171:359|171:359|170:359|170:359|169:358|169:358|169:359|169:359|168:360|168:360|168:361|168:361|167:360|167:360|166:360|166:361|166:361|165:360|165:360|165:361|165:361|164:361|164:362|164:362|164:363|164:363|163:362|163:362|162:362|162:362|161:362|161:362|161:363|161:363|160:363|160:363|160:364|160:364|159:363|159:363|159:364|158:364|158:364|158:363|158:363|157:364|157:364|157:365|157:365|156:366|156:366|156:365|156:365|155:365|155:365|154:364|154:364|154:365|154:365|153:366|153:366|153:367|153:367|152:366|152:366|151:366|151:366|150:366|150:366|150:367|150:367|149:367|149:367|149:368|149:368|148:367|148:367|147:367|147:368|147:368|146:367|146:367|146:368|146:368|145:368|145:368|145:369|145:369|144:368|144:368|143:369|143:369|142:368|142:368|142:369|142:369|141:369|141:369|141:370|141:370|140:369|140:369|139:369|139:369|138:370|138:370|137:370|137:370|137:371|137:371|136:370|136:370|135:370|135:370|135:369|135:369|134:370|134:370|133:370|133:370|133:372|133:372|132:371|132:371|131:371|131:371|131:370|131:370|130:371|130:371|129:371|129:371|129:372|129:372|128:371|128:371|127:371|127:371|127:370|127:370|126:371|126:371|125:373|125:373|124:372|124:372|123:372|123:372|123:371|123:371|123:372|123:372|122:372|121:372|121:372|121:373|121:373|120:372|120:372|119:372|119:372|119:371|119:371|118:372|118:372|117:373|117:373|116:372|116:372|115:372|115:372|115:371|115:371|114:372|114:372|113:372|113:372|113:373|113:373|112:372|112:372|111:372|111:372|111:371|111:371|110:372|110:372|109:373|109:373|108:372|108:372|107:371|107:371|106:372|106:372|105:372|105:372|105:373|105:373|105:372|105:372|104:372|103:372|103:372|103:370|103:370|102:371|102:371|101:372|101:372|101:371|101:371|100:371|99:371|99:371|99:370|99:370|98:371|98:371|97:372|97:372|97:371|97:371|96:371|96:371|95:369|95:369|95:370|95:370|94:370|94:370|93:371|93:371|93:370|93:370|92:370|92:370|91:369|91:369|91:370|91:370|90:369|90:369|89:370|89:370|89:369|89:369|88:369|88:369|87:368|87:368|87:369|87:369|86:369|86:368|86:368|85:369|85:369|85:368|85:368|84:368|84:368|84:367|84:367|83:368|83:368|82:368|82:367|82:367|81:368|81:368|81:367|81:367|80:367|80:367|80:366|80:366|79:367|79:367|78:366|78:366|77:367|77:367|77:366|77:366|76:366|76:366|76:364|76:364|75:365|75:365|74:365|74:365|74:366|74:366|73:365|73:365|73:364|72:364|72:364|72:363|72:363|72:364|72:364|71:364|71:363|71:363|70:364|70:364|70:363|70:363|69:363|69:363|69:361|69:361|68:362|68:362|67:362|67:362|66:362|66:362|66:361|66:361|65:361|65:361|65:360|65:360|64:360|64:360|63:360|63:360|63:359|63:359|62:359|62:359|62:358|62:358|61:358|61:358|60:358|60:358|59:359|59:359|59:357|59:357|58:357|58:357|58:356|58:356|57:356|57:356|56:356|56:356|56:355|56:355|55:355|55:355|55:354|55:354|54:354|54:354|53:354|53:354|52:354|52:354|52:353|52:353|52:352|52:352|52:351|52:351|51:352|51:352|50:351|50:351|49:352|49:352|49:351|49:351|49:350|48:350|48:350|49:349|49:349|48:349|48:349|47:349|47:349|46:349|46:349|46:348|46:348|46:347|46:347|46:346|46:346|45:346|45:346|44:346|44:346|43:346|43:346|43:345|43:345|43:344|43:344|43:343|43:343|42:344|42:344|42:343|41:343|41:343|40:343|40:343|41:342|41:342|40:342|40:341|40:341|40:340|40:340|39:341|39:341|39:340|39:340|38:340|38:340|38:339|38:339|37:338|37:338|38:337|38:337|37:338|37:338|36:337|36:337|35:337|35:337|36:336|36:336|35:335|35:335|36:334|36:334|34:334|34:334|34:333|34:333|33:334|33:334|33:333|33:333|33:332|33:332|33:331|33:331|32:331|32:331|32:330|32:330|31:330|31:330|31:329|31:329|31:328|31:328|32:327|32:327|30:327|30:327|29:326|29:326|30:326|30:326|29:325|29:325|30:324|30:324|29:324|29:324|29:323|28:323|28:323|27:323|27:323|28:322|28:322|28:321|28:321|28:320|28:320|27:320|27:320|27:319|27:319|26:319|26:319|27:318|27:318|26:317|26:317|27:316|27:316|26:316|26:316|26:315|26:315|25:315|25:315|26:314|26:314|25:313|25:313|26:313|26:313|25:312|25:312|25:311|25:311|24:311|24:311|25:310|25:310|25:309|25:309|26:309|26:309|25:308|25:308|24:307|24:307|23:307|23:307|24:306|24:306|24:305|24:305|25:305|25:305|24:304|24:304|24:303|24:303|23:303|23:303|24:302|24:302|24:301|24:301|25:301|25:301|24:300|24:300|24:299|24:299|23:299|23:299|24:298|24:298|24:297|24:297|25:297|25:297|24:296|24:296|25:296|25:295|25:295|24:295|24:295|25:294|25:294|25:293|25:293|26:293|26:293|25:292|25:292|25:291|25:291|24:291|24:291|25:291|25:291|26:290|26:290|27:289|27:289|26:289|26:289|26:288|26:288|25:287|25:287|27:287|27:287|27:286|27:286|28:286|28:286|27:285|27:285|27:284|28:284|28:284|27:283|27:283|28:283|28:283|28:282|28:282|29:282|29:282|29:281|29:281|29:280|29:280|28:279|28:279|30:279|30:279|30:278|30:278|31:278|31:278|30:278|30:278|31:277|31:277|30:276|30:276|32:276|32:276|32:275|32:275|33:275|33:275|33:274|33:274|33:273|33:273|33:272|33:272|34:272|34:272|35:272|35:272|35:271|35:271|35:270|36:270|36:270|35:269|35:269|36:269|36:269|37:269|37:269|38:269|38:269|38:268|38:268|38:267|38:267|38:266|38:266|39:266|39:266|40:266|40:266|41:266|41:266|40:265|40:265|41:265|41:264|41:264|41:263|41:263|42:264|42:264|42:263|43:263|43:263|44:263|44:263|43:262|43:262|44:262|44:262|44:261|44:261|45:261|45:261|46:261|46:261|47:261|47:261|47:260|47:260|47:259|47:259|47:258|47:258|48:259|48:259|49:259|49:258|49:258|50:259|50:259|50:258|50:258|51:257|51:257|51:256|51:256|52:257|52:257|53:256|53:256|53:257|53:257|53:256|53:256|54:256|54:255|54:255|54:254|54:254|55:255|55:255|56:255|56:255|57:255|57:255|57:254|57:254|58:254|58:254|58:253|58:253|59:253|59:253|60:253|60:253|61:254|61:254|61:253|61:253|62:253|62:253|62:251|62:251|63:252|63:252|64:252|64:252|64:253|64:253|65:252|65:252|65:251|66:251|66:251|66:250|66:250|67:251|67:251|68:251|68:251|68:252|68:252|69:251|69:251|70:249|70:249|70:250|70:250|71:250|72:250|72:250|72:251|72:251|72:250|72:250|73:250|73:250|74:249|74:249|74:250|74:250|75:250|75:250|76:251|76:251|76:250|76:250|77:249|77:249|78:248|78:248|78:249|78:249|79:249|79:249|80:250|80:250|80:249|80:249|81:249|81:249|82:248|82:248|82:249|82:249|83:249|83:249|84:250|84:250|84:249|84:249|85:249|86:249,1,685.124999999999,0|0,3:0|2:0,2:0:0:0:
180,190,80958,6,0,B|180:189|180:188|180:188|179:188|179:188|180:188|180:188|179:187|179:186|179:186|180:186|180:186|179:185|179:185|178:184|178:184|179:183|179:183|179:182|179:182|178:182|178:182|178:181|178:181|177:180|177:180|178:179|178:179|179:178|179:178|177:178|177:178|177:177|177:177|176:176|176:176|177:176|177:176|177:175|177:175|178:174|178:174|176:174|176:174|176:173|176:173|175:173|175:173|176:172|176:172|176:171|176:171|177:170|177:170|175:170|175:170|175:169|175:169|174:169|174:169|175:168|175:168|175:167|175:167|175:166|175:166|174:166|174:166|174:165|174:165|173:165|173:165|174:164|174:164|173:163|173:163|174:162|174:162|173:162|173:162|173:161|173:161|172:161|172:161|172:160|172:160|172:159|172:159|173:159|173:159|172:159|172:159|172:158|171:158|171:158|170:157|170:157|171:157|171:157|171:156|171:156|172:155|172:155|170:155|170:155|170:154|170:154|169:154|169:154|170:153|170:153|169:152|169:152|170:151|170:151|169:151|169:151|169:150|169:150|167:150|167:150|168:149|168:149|168:148|168:148|168:147|168:147|167:147|167:147|167:146|167:146|166:146|166:146|167:145|167:145|166:145|166:145|167:144|167:144|166:144|166:144|166:143|165:143|165:143|164:143|164:143|165:142|165:142|165:141|164:141|164:141|165:140|165:140|164:140|164:140|164:139|164:139|162:139|162:139|163:138|163:138|163:137|163:137|163:136|163:136|162:136|162:136|161:136|161:136|161:135|161:135|161:134|161:134|161:133|161:133|160:133|160:133|160:132|160:132|158:132|158:132|159:131|159:131|159:130|159:130|159:129|159:129|158:130|158:130|158:129|158:129|157:129|157:129|157:128|157:128|157:127|157:127|157:126|157:126|156:126|156:126|155:125|155:125|154:125|154:125|155:125|155:125|155:124|154:124|154:124|155:123|155:123|154:123|154:123|153:122|153:122|152:122|152:122|153:121|153:121|152:121|152:120|152:120|153:120|153:120|152:120|152:120|151:119|151:119|150:119|150:119|150:118|150:118|150:117|150:117|150:116|150:116|149:116|149:116|148:115|148:115|149:116|148:116|148:116|148:115|148:115|149:115|149:116|149:116|149:117|149:117|150:116|150:116|151:117|151:117|152:116|152:116|152:117|152:117|152:118|152:118|152:119|152:119|153:118|153:118|154:119|154:119|155:118|155:118|155:119|155:119|156:120|156:120|156:121|156:121|157:120|157:120|157:121|158:121|158:121|159:120|159:120|158:121|158:121|159:122|159:122|159:123|159:123|160:122|160:122|161:123|161:123|162:122|162:122|162:123|162:123|163:124|163:124|163:125|163:125|164:125|164:125|165:124|165:124|165:126|165:126|166:126|166:126|166:127|166:127|167:127|167:127|168:127|168:127|169:127|169:127|169:128|169:128|169:130|169:130|170:129|170:129|171:129|171:129|172:129|172:129|172:130|172:130|173:131|173:131|173:132|173:132|173:131|173:131|174:132|174:132|175:131|175:131|175:132|175:132|176:133|176:133|176:134|176:134|177:133|177:133|178:134|178:134|178:135|178:135|179:135|179:135|179:136|179:136|180:136|180:136|181:136|181:136|182:136|182:136|182:137|182:137|182:138|182:138|182:139|182:139|183:138|183:138|184:139|184:139|185:138|185:138|185:139|185:139|186:140|186:140|185:141|185:141|187:141|187:141|188:141|188:141|188:142|188:142|189:142|189:142|189:143|189:143|190:143|190:143|190:144|190:144|192:143|192:143|191:144|191:144|192:145|192:145|192:146|192:146|193:145|193:145|193:146|193:146|195:145|195:145|194:147|194:147|195:147|195:147|195:148|195:148|196:148|196:148|197:149|197:149|198:148|198:148|197:149|197:149|198:150|198:150|198:151|198:151|199:150|199:150|200:151|200:151|201:151|201:151|201:152|201:152|201:153|201:153|202:153|202:153|203:154|203:154|204:153|204:153|204:154|204:154|204:155|204:155|204:156|204:156|205:156|205:156|206:156|206:156|207:156|207:156|207:157|207:157|207:158|207:158|207:159|207:159|208:158|208:158|209:159|209:159|210:158|210:158|210:160|210:160|210:161|210:161|211:161|211:161|212:162|212:162|213:161|213:161|213:162|213:162|213:163|213:163|213:164|213:164|214:164|214:164|215:164|215:164|216:164|216:164|216:165|216:165|216:166|216:166|216:167|216:167|217:166|217:166|218:167|218:167|219:166|219:166|219:168|219:168|219:169|219:169|220:169|220:169|221:170|221:170|222:169|222:169|221:170|221:170|222:171|222:171|222:172|222:172|223:172|223:172|224:173|224:173|225:172|225:172|224:173|224:173|225:174|225:174|225:175|225:175|226:175|226:175|227:175|227:175|227:176|227:176|228:177|228:177|227:178|227:178|229:177|229:177|229:178|229:178|230:178|230:178|230:179|230:179|231:180|231:180|230:181|230:181|231:180|231:180|232:181|232:181|233:181|233:181|233:182|233:182|233:183|233:183|234:183|234:183|235:184|235:184|236:184|236:184|236:185|236:185|236:186|236:186|237:186|237:186|238:187|238:187|239:186|239:186|238:187|238:187|239:188|239:188|239:189|239:189|240:189|240:189|240:190|240:190|241:189|241:189|241:190|241:190|242:191|242:191|241:192|241:192|242:192|242:192|243:193|243:193|244:192|244:192|244:193|244:193|244:194|244:194|244:195|244:195|245:195|245:195|246:196|246:196|247:195|247:195|246:196|246:196|247:197|247:197|247:198|247:198|248:198|248:198|248:199|248:199|249:198|249:198|249:199|249:199|250:200|250:200|249:201|249:201|250:201|250:201|251:202|251:202|252:201|252:201|252:202|252:202|252:203|252:203|252:204|252:204|253:204|253:204|254:205|254:205|255:204|255:204|254:205|254:205|255:206|255:206|255:207|255:207|256:207|256:207|256:208|256:208|257:207|257:207|257:208|257:208|257:209|257:209|257:210|257:210|258:210|258:210|259:211|259:211|260:211|260:211|259:212|259:212|260:212|260:212|260:213|260:213|261:213|261:213|261:214|261:214|262:214|262:214|262:215|262:215|263:215|263:215|262:216|262:216|263:216|263:216|264:217|264:217|265:217|265:217|264:218|264:218|265:219|265:219|266:219|266:219|266:220|266:220|267:220|267:220|267:221|267:221|268:222|268:222|267:223|267:223|268:222|268:222|269:223|269:223|270:223|270:223|269:224|269:224|270:225|270:225|269:226|269:226|271:226|271:226|272:226|272:226|272:227|272:227|272:228|272:228|272:229|272:229|273:229|273:229|274:230|274:230|275:229|275:229|274:230|274:230|275:231|275:231|275:232|275:232|276:233|276:233|277:233|277:233|277:234|277:234|277:235|277:235|278:235|278:235|278:236|278:236|280:236|280:236|279:237|279:237|280:238|280:238|279:238|279:238|280:238|280:238|281:239|281:239|282:239|282:239|281:240|281:240|282:241|282:241|282:242|282:242|283:242|283:242|284:242|284:242|284:243|284:243|284:244|284:244|284:245|284:245|285:245|285:245|285:246|285:246|287:246|287:246|286:247|286:247|287:247|287:247|286:248|286:248|287:248|287:248|288:249|288:249|289:249|289:249|288:250|288:250|289:251|289:251|288:252|288:252|289:252|289:252|290:252|290:252|291:252|291:252|291:253|291:253|291:254|291:254|291:255|291:255|292:255|292:255|292:256|292:256|293:256|293:256|293:257|293:257|293:258|293:258|294:258|294:258|295:259|295:259|295:260|295:260|296:261|296:261|295:262|295:262|296:261|296:261|297:262|297:262|298:262|298:262|297:263|297:263|298:264|298:264|297:265|297:265|298:265|298:265|299:265|299:266|299:266|300:265|300:265|299:267|299:267|300:267|300:267|299:268|299:268|300:268|300:268|301:269|301:269|302:269|302:269|301:270|301:270|302:271|302:271|301:272|301:272|303:272|303:272|304:272|304:272|304:273|304:273|304:274|304:274|304:275|304:275|305:275|305:275|305:276|305:276|306:276|306:276|306:277|306:277|306:278|306:278|307:278|307:278|307:279|307:279|309:279|309:279|308:280|308:280|308:281|308:281|308:282|308:282|309:282|309:282|310:283|310:283|311:284|311:284|310:285|310:285|311:285|311:285|312:286|312:286|313:286|313:286|312:287|312:287|313:288|313:288|312:289|312:289|313:289|313:289|314:290|314:290|315:290|315:290|314:290|314:290|314:291|314:291|314:292|314:292|315:292|315:292|315:293|316:293|316:293|317:293|317:293|316:294|316:294|317:295|317:295|316:296|316:296|317:296|317:296|318:296|318:296|319:296|319:296|318:297|318:297|318:298|319:298|319:298|318:299|318:299|319:299|319:299|319:300|320:300|320:300|321:300|321:300|320:301|320:301|321:302|321:302|320:302|320:302|321:302|321:302|322:303|322:303|323:303|323:303|322:304|322:304|323:306|323:306|323:305|323:305|322:306|322:306|323:306|323:306|323:305|323:305|322:304|322:304|323:304|323:304|324:303|324:303|325:303|325:303|324:302|324:302|324:301|324:301|323:300|323:300|324:300|324:300|324:299|324:299|325:299|325:299|324:298|324:298|324:297|324:297|325:296|325:296|325:295|325:295|326:295|326:295|325:294|325:294|325:293|325:293|324:293|324:293|325:292|325:292|325:291|325:291|326:291|326:291|325:290|325:290|325:289|325:289|324:289|324:289|326:288|326:288|326:287|326:287|327:287|327:287|326:286|326:286|326:285|326:285|325:285|325:285|326:284|326:284|326:283|326:283|327:283|327:283|326:282|326:282|326:281|326:281|325:281|325:281|326:280|326:280|326:279|326:279|327:279|327:279|326:278|326:278|326:277|326:277|325:277|325:277|326:276|326:276|326:275|326:275|327:275|327:275|326:274|326:274|326:273|326:273|325:273|325:273|326:272|326:272|326:271|326:271|327:271|327:271|326:270|326:270|326:269|326:269|325:269|325:269|326:268|326:268|326:267|326:267|327:267|327:267|326:266|326:266|326:265|326:265|325:265|325:265|326:264|326:264|326:263|326:263|327:263|327:263|326:262|326:262|325:261|325:261|324:261|324:261|325:260|325:260|325:259|325:259|326:259|326:259|325:258|325:258|325:257|325:257|324:257|324:257|325:256|325:256|325:255|325:255|326:255|326:255|325:254|325:254|324:253|324:253|323:253|323:253|324:252|324:252|324:251|324:251|325:251|325:251|324:250|324:250|324:249|324:249|323:249|323:249|324:249|324:249|323:248|323:248|324:247|324:247|323:246|323:246|323:245|323:245|322:245|322:245|323:244|323:244|322:243|322:243|323:243|323:243|322:242|322:242|321:241|321:241|322:241|322:241|322:240|322:240|322:239|322:239|321:239|321:239|321:238|321:238|320:238|320:238|321:237|321:237|320:236|320:236|321:235|321:235|320:235|320:235|320:234|320:234|319:234|319:234|320:233|320:233|319:232,1,728.699999999999,0|0,3:0|2:0,2:0:0:0:
412,152,81293,5,0,2:0:0:0:
421,129,81360,2,0,P|461:110|513:126,14,73.4999999999998,0|0|0|0|0|0|0|0|0|0|0|0|0|0|0,3:0|2:0|2:0|2:0|2:0|2:0|2:0|2:0|2:0|2:0|2:0|2:0|2:0|2:0|2:0,2:0:0:0:
329,90,81896,6,0,P|323:23|296:-9,1,90.9999999999999,8|0,2:1|2:0,2:0:0:0:
209,93,82074,2,0,P|169:46|133:36,1,70,0|0,2:0|3:0,2:0:0:0:
137,179,82253,2,0,P|97:168|73:177,1,49,0|0,2:0|2:0,2:0:0:0:
227,174,82432,6,0,P|213:216|222:260,1,90.9999999999999,8|0,2:3|2:0,2:0:0:0:
377,188,82610,2,0,P|352:211|340:243,1,70,0|0,2:0|3:0,2:0:0:0:
467,296,82789,2,0,P|443:299|423:312,1,49,0|0,2:0|2:0,2:0:0:0:
476,381,82967,2,0,P|482:369|471:378,1,36.75,8|0,2:1|2:0,2:0:0:0:
489,222,83101,6,0,P|368:263|322:382,1,262.5,0|0,3:0|2:0,2:0:0:0:
447,148,83503,5,8,2:0:0:0:
162,43,83637,1,0,2:0:0:0:
350,2,83771,6,0,L|342:26,1,21,0|0,3:0|2:0,2:0:0:0:
108,151,84039,5,8,2:0:0:0:
389,257,84173,1,0,2:0:0:0:
343,21,84307,6,0,L|350:2,4,21,0|0|0|0|0,3:0|2:0|2:0|2:0|2:0,2:0:0:0:
340,365,84574,5,8,2:0:0:0:
55,261,84708,1,0,2:0:0:0:
350,2,84842,6,0,L|342:26,1,21,0|0,3:0|2:0,2:0:0:0:
256,300,85110,5,10,2:0:0:0:
286,255,85177,1,2,2:0:0:0:
336,242,85244,1,2,2:0:0:0:
389,257,85311,1,2,2:0:0:0:
414,236,85378,5,2,3:2:0:0:
474,215,85445,1,2,2:0:0:0:
495,160,85512,1,2,2:0:0:0:
470,103,85579,1,2,2:0:0:0:
420,49,85646,6,0,P|348:86|334:118,1,68.2499999999999,8|0,2:0|2:0,2:0:0:0:
92,50,85780,2,0,P|164:87|178:119,1,68.2499999999999,8|0,2:0|2:0,2:0:0:0:
360,148,85914,6,0,P|340:193|333:231,1,68.2499999999999,8|0,2:0|2:0,2:0:0:0:
151,149,86048,2,0,P|171:194|178:232,1,68.2499999999999,8|0,2:0|2:0,2:0:0:0:
385,267,86182,6,0,P|418:301|441:311,1,68.2499999999999,8|0,2:0|2:0,2:0:0:0:
127,267,86315,2,0,P|94:301|71:311,1,68.2499999999999,8|0,2:0|2:0,2:0:0:0:
457,383,86449,6,0,P|515:371|531:361,1,68.2499999999999,8|0,2:0|2:0,2:0:0:0:
55,383,86583,2,0,P|-3:371|-19:361,1,68.2499999999999,8|0,2:0|2:0,2:0:0:0:
259,18,86717,5,8,2:0:0:0:
244,57,86784,1,8,2:0:0:0:
258,99,86851,1,8,2:0:0:0:
248,137,86918,1,8,2:0:0:0:
258,181,86985,1,8,2:0:0:0:
247,220,87052,1,8,2:0:0:0:
266,269,87119,5,8,2:0:0:0:
266,269,87186,1,8,2:0:0:0:
266,269,87253,1,0,3:0:0:0:
115,34,87387,5,8,2:0:0:0:
115,34,87454,1,8,2:0:0:0:
115,34,87521,2,0,L|94:109,1,52.5,8|0,2:0|2:0,2:0:0:0:
147,260,87655,2,0,L|168:185,1,52.5,8|0,2:0|2:0,2:0:0:0:
14,113,87789,6,0,B|81:84|183:127|82:173|208:209|265:177,1,273,4|0,3:0|2:0,2:0:0:0:
482,27,88190,5,8,2:3:0:0:
435,85,88324,2,0,B|404:63|405:28|405:28|379:182,1,204.75,8|0,2:0|2:0,2:0:0:0:
431,253,88592,5,2,1:2:0:0:
459,271,88659,1,2,2:0:0:0:
492,265,88726,1,2,2:0:0:0:
512,237,88793,1,2,2:0:0:0:
507,216,88860,2,0,B|446:218|412:276|449:289|392:347|301:327,1,210,0|0,3:0|2:0,2:0:0:0:
232,267,89262,6,0,P|235:256|234:270,1,52.5,8|0,2:3|2:0,2:0:0:0:
200,177,89396,6,0,P|263:173|333:256,1,157.5,8|0,2:0|2:0,2:0:0:0:
249,354,89664,2,0,P|210:355|160:314,1,102.375000000001,0|0,1:0|2:0,2:0:0:0:
0,294,89932,6,0,B|-13:312|-16:335|-16:335|53:281|116:257|116:257|90:280|84:315,1,252,0|0,3:0|2:0,2:0:0:0:
0,183,90333,1,8,2:3:0:0:
168,98,90467,2,0,P|91:71|37:57,1,105,8|0,2:0|2:0,2:0:0:0:
232,267,90735,6,0,P|286:255|303:253,1,52.5,0|0,1:0|2:0,2:0:0:0:
344,188,90936,5,0,2:0:0:0:
357,174,91003,2,0,B|340:116|330:81|330:81|313:65|277:82,2,126,0|0|0,3:0|2:0|2:0,2:0:0:0:
447,261,91405,2,0,B|453:226|463:207|463:207|469:203|478:205,1,62.9999999999999,8|0,2:3|2:0,2:0:0:0:
512,296,91539,2,0,B|454:278|413:318|443:323|395:376|331:340,1,189,8|0,2:0|2:0,2:0:0:0:
254,318,91807,6,0,P|245:288|235:265,1,52.5,0|0,1:0|2:0,2:0:0:0:
310,184,91940,2,0,P|320:208|327:233,1,52.5,0|0,2:0|2:0,2:0:0:0:
186,366,92074,6,0,B|109:338|22:325,1,157.5,0|0,3:0|2:0,2:0:0:0:
253,318,92342,1,0,2:0:0:0:
168,98,92476,2,0,B|175:127|175:127|177:128|177:128|186:167,1,62.9999999999999,8|0,2:3|2:0,2:0:0:0:
125,222,92610,6,0,P|206:198|328:183,1,189,8|0,2:0|2:0,2:0:0:0:
473,80,92878,6,0,P|475:39|440:25,1,78.75,0|0,1:0|2:0,2:0:0:0:
512,157,93146,6,0,B|436:109|344:113|344:113|404:148|374:205,1,252,0|0,3:0|2:0,2:0:0:0:
445,24,93548,1,8,2:3:0:0:
263,257,93682,6,0,B|236:295|168:265|161:167|264:139|333:199,1,236.25,8|0,2:0|2:0,2:0:0:0:
478,333,93949,6,0,B|467:347|463:360|463:360|450:343|455:328,1,63,0|0,1:0|2:0,2:0:0:0:
502,261,94217,6,0,B|480:239|414:229|353:259|345:312|402:354|354:379|278:403|186:351|201:268|263:231|292:265,1,393.749999999999,0|0,3:0|2:0,2:0:0:0:
262,256,94619,2,0,L|300:276,1,28.8750000000001,8|0,2:3|2:0,2:0:0:0:
445,24,94753,6,0,B|410:8|410:8|352:12|318:57|311:121|340:179|416:177,1,273,8|0,2:0|1:0,2:0:0:0:
386,174,95155,1,0,2:0:0:0:
10,46,95289,5,0,3:0:0:0:
65,118,95423,2,0,P|153:100|205:92,1,105,0|0,1:0|2:0,2:0:0:0:
10,46,95690,5,8,2:3:0:0:
73,134,95824,2,0,B|137:85|116:-4|52:-2|7:38|28:83,1,204.75,8|0,2:0|2:0,2:0:0:0:
157,186,96092,6,0,P|190:241|177:265,1,78.7499999999998,8|0,2:3|2:0,2:0:0:0:
117,283,96226,2,0,P|84:228|97:204,1,78.7499999999998,8|0,2:3|2:0,2:0:0:0:
210,258,96360,6,0,B|286:254|327:307|279:318|334:381|428:367,1,236.25,0|0,3:0|2:0,2:0:0:0:
401,368,96762,6,0,L|384:293,1,47.25,0|0,3:0|2:0,2:0:0:0:
485,46,96896,2,0,L|516:203,1,141.75,8|0,1:0|2:0,2:0:0:0:
358,134,97164,5,0,3:0:0:0:
310,118,97231,1,0,3:0:0:0:
292,81,97298,1,0,3:0:0:0:
300,43,97365,1,0,3:0:0:0:
314,30,97432,2,0,P|305:109|279:244,1,189,8|0,2:0|2:0,2:0:0:0:
112,349,97699,2,0,P|96:255|52:99,1,236.25,0|0,3:0|2:0,2:0:0:0:
102,5,97967,6,0,P|146:11|166:37,1,57.7499999999999,8|0,1:0|2:0,2:0:0:0:
196,86,98101,2,0,P|224:86|249:72,1,57.7499999999999,0|0,3:0|2:0,2:0:0:0:
314,30,98235,6,0,P|238:1|213:13,1,62.9999999999999,2|0,2:0|2:0,2:0:0:0:
111,88,98369,2,0,P|35:117|10:105,1,62.9999999999999,2|0,2:0|2:0,2:0:0:0:
55,255,98503,6,0,B|-17:239|-6:147|58:115|117:121|216:160|188:299,1,341.25,0|0,3:0|2:0,2:0:0:0:
191,247,98905,2,0,L|129:230,1,52.5,0|0,3:0|2:0,2:0:0:0:
250,72,99039,6,0,L|417:114,1,157.5,8|0,1:0|2:0,2:0:0:0:
512,215,99307,5,2,3:2:0:0:
475,216,99373,1,2,2:0:0:0:
461,233,99440,1,2,2:0:0:0:
437,232,99507,1,2,2:0:0:0:
420,239,99574,2,0,B|437:134|343:155|355:41,1,204.75,8|0,2:3|2:0,2:0:0:0:
475,0,99842,6,0,P|519:54|507:88,1,110.25,0|0,3:0|2:0,2:0:0:0:
489,92,100110,2,0,L|439:79,1,36.75,8|0,1:0|2:0,2:0:0:0:
311,116,100244,2,0,L|360:128,1,36.75,0|0,3:0|2:0,2:0:0:0:
512,215,100378,6,0,L|427:231,1,78.7499999999998,8|0,2:3|2:0,2:0:0:0:
257,347,100512,2,0,L|352:327,1,78.7499999999998,8|0,2:3|2:0,2:0:0:0:
482,359,100646,6,0,B|433:393|367:366|361:305|361:305|363:228|260:173|185:211|167:303,1,393.749999999999,0|0,3:0|2:0,2:0:0:0:
199,257,101048,2,0,P|237:231|257:231,1,52.5,0|0,3:0|2:0,2:0:0:0:
346,124,101182,6,0,B|296:83|296:32|296:32|278:82|226:100,1,204.75,8|0,1:0|2:0,2:0:0:0:
71,224,101449,6,0,B|99:232|109:257|109:257|107:225|124:207,3,105,0|0|0|0,3:0|3:0|3:0|3:0,2:0:0:0:
77,146,101717,5,8,2:0:0:0:
32,303,101851,1,0,2:0:0:0:
190,247,101985,2,0,P|263:258|314:269,1,118.125,0|0,3:0|2:0,2:0:0:0:
512,215,102253,6,0,P|475:209|442:203,1,62.9999999999999,8|0,1:0|2:0,2:0:0:0:
272,338,102387,6,0,B|372:378|445:279|461:143|377:131|317:145|309:189|321:201,1,341.25,0|0,3:0|2:0,2:0:0:0:
332,180,102789,6,0,B|420:171|445:91|391:96|434:12|501:-1|555:43|545:77|534:157|425:115,1,393.749999999999,0|0,3:0|2:0,2:0:0:0:
374,30,103190,2,0,P|332:6|311:0,1,52.5,0|0,3:0|2:0,2:0:0:0:
168,34,103324,6,0,P|260:3|373:54,1,204.75,8|0,1:0|2:0,2:0:0:0:
437,119,103592,2,0,P|491:120|502:115,3,52.5,2|2|2|2,3:2|2:0|2:0|2:0,2:0:0:0:
383,177,103860,6,0,B|355:161|358:128|358:128|338:230|332:246|332:246|308:282|269:253,1,236.25,8|0,2:3|2:0,2:0:0:0:
54,189,104128,2,0,B|119:136|188:197|188:197|157:209|145:233,1,204.75,0|0,3:0|2:0,2:0:0:0:
213,365,104396,6,0,P|178:361|139:308,1,68.2499999999999,8|0,1:0|2:0,2:0:0:0:
212,283,104530,1,0,3:0:0:0:
456,276,104664,6,0,P|478:288|488:357,1,78.7499999999998,8|0,2:3|2:0,2:0:0:0:
429,380,104798,2,0,P|407:368|397:299,1,78.7499999999998,8|0,2:3|2:0,2:0:0:0:
488,120,104932,5,8,2:0:0:0:
417,77,105065,6,0,L|409:27,2,42,0|0|0,2:0|2:0|2:0,2:0:0:0:
488,120,105467,21,8,2:0:0:0:
363,164,105601,6,0,L|355:214,2,45.1499999999999,0|0|0,2:0|2:0|2:0,2:0:0:0:
488,120,106003,21,8,2:0:0:0:
334,64,106137,6,0,L|326:14,2,48.3,0|0|0,2:0|2:0|2:0,2:0:0:0:
488,120,106539,21,8,2:0:0:0:
282,178,106673,6,0,L|274:228,2,51.4499999999998,0|0|0,2:0|2:0|2:0,2:0:0:0:
488,120,107074,21,8,2:0:0:0:
249,53,107208,6,0,L|239:-3,2,54.6000000000001,0|0|0,2:0|2:0|2:0,2:0:0:0:
488,120,107610,21,8,2:0:0:0:
200,185,107744,6,0,L|187:261,2,57.7499999999999,0|0|0,2:0|2:0|2:0,2:0:0:0:
488,120,108146,21,8,2:0:0:0:
171,53,108280,6,0,L|160:-13,2,60.9000018585206,0|0|0,2:0|2:0|2:0,2:0:0:0:
488,120,108682,21,8,2:0:0:0:
122,193,108815,6,0,L|109:269,2,64.0500000000001,0|0|0,2:0|2:0|2:0,2:0:0:0:
488,120,109217,22,0,P|476:73|482:37,1,62.9999999999999,8|0,2:0|2:0,2:0:0:0:
355,208,109485,6,0,P|363:144|357:115,1,68.2499999999999,8|0,2:0|2:0,2:0:0:0:
512,257,109753,22,0,P|467:228|417:232,1,73.4999999999999,8|0,2:0|2:0,2:0:0:0:
393,342,110021,6,0,P|432:374|477:374,1,78.7500000000002,8|0,2:0|2:0,2:0:0:0:
230,110,110289,22,0,P|173:110|143:140,1,84,8|0,2:0|2:0,2:0:0:0:
182,289,110557,6,0,P|239:289|269:259,1,89.2500000000003,8|0,2:0|2:0,2:0:0:0:
380,126,110824,22,0,P|387:63|396:28,1,94.5000000000001,8|0,2:0|2:0,2:0:0:0:
133,185,111092,6,0,P|126:122|117:87,1,99.7499999999998,8|0,2:0|2:0,2:0:0:0:
511,255,111360,21,8,2:0:0:0:
472,230,111427,1,8,2:0:0:0:
421,233,111494,1,8,2:0:0:0:
378,259,111561,1,8,2:0:0:0:
363,312,111628,5,8,2:0:0:0:
384,324,111695,1,8,2:0:0:0:
364,331,111762,1,8,2:0:0:0:
385,344,111829,1,8,2:0:0:0:
352,347,111896,21,8,2:0:0:0:
304,331,111963,1,8,2:0:0:0:
256,316,112030,1,8,2:0:0:0:
207,303,112097,1,8,2:0:0:0:
158,290,112164,1,8,2:0:0:0:
108,282,112231,1,8,2:0:0:0:
42,306,112298,5,8,2:0:0:0:
42,306,112365,1,8,2:0:0:0:
42,306,112432,1,8,2:0:0:0:
230,110,112565,5,8,2:0:0:0:
230,110,112833,1,8,2:0:0:0:
280,199,113101,5,8,2:0:0:0:
280,199,113168,1,8,2:0:0:0:
280,199,113235,2,0,L|204:189,1,52.5,8|0,2:0|2:0,2:0:0:0:
33,27,113369,2,0,L|109:37,1,52.5,8|0,2:0|2:0,2:0:0:0:
230,110,113503,6,0,B|204:83|204:83|115:104|115:104|93:179|93:179|26:200|26:200|-37:165,1,315,4|0,3:0|2:0,2:0:0:0:
181,177,113771,6,0,B|204:198|204:198|188:254,1,68.2499999999999,0|0,2:0|2:0,2:0:0:0:
96,346,113905,2,0,B|73:325|73:325|89:269,1,68.2499999999999,8|0,2:3|2:0,2:0:0:0:
159,301,114039,1,8,2:0:0:0:
385,344,114173,6,0,B|377:322|377:322|270:353|270:353|259:324,2,157.5,0|0|0,2:0|1:0|2:0,2:0:0:0:
489,211,114574,6,0,L|502:128,1,68.2499999999999,0|0,3:0|2:0,2:0:0:0:
412,198,114708,2,0,L|425:115,1,68.2499999999999,0|0,2:0|2:0,2:0:0:0:
336,188,114842,1,0,2:0:0:0:
238,10,114976,6,0,L|251:93,1,52.5,8|0,2:3|2:0,2:0:0:0:
161,23,115110,2,0,L|174:106,1,52.5,8|0,2:0|2:0,2:0:0:0:
85,33,115244,1,0,2:0:0:0:
328,78,115378,6,0,B|370:71|370:71|374:62|374:62|428:53,1,94.4999999999998,0|0,1:0|2:0,2:0:0:0:
459,95,115646,6,0,B|382:107|382:107|316:51|316:51|221:65,1,236.25,0|0,3:0|2:0,2:0:0:0:
108,164,115914,6,0,L|194:151,1,68.2499999999999,0|0,2:0|2:0,2:0:0:0:
244,163,116048,2,0,L|176:172,1,68.2499999999999,8|0,2:3|2:0,2:0:0:0:
76,284,116182,6,0,L|211:262,1,105,8|0,2:0|2:0,2:0:0:0:
462,365,116449,6,0,B|488:326|488:326|399:341|399:341|390:336|390:336|307:352|307:352|355:293,1,283.5,0|0,1:0|2:0,2:0:0:0:
468,172,116717,6,0,B|491:195|491:195|478:244,1,68.2499999999999,0|0,3:0|2:0,2:0:0:0:
409,245,116851,2,0,B|386:222|386:222|399:173,1,68.2499999999999,0|0,2:0|2:0,2:0:0:0:
336,116,116985,1,0,2:0:0:0:
183,148,117119,6,0,B|160:171|160:171|173:220,1,68.2499999999999,8|0,2:3|2:0,2:0:0:0:
243,225,117253,2,0,B|266:202|266:202|253:153,1,68.2499999999999,8|0,2:0|2:0,2:0:0:0:
336,116,117387,1,0,2:0:0:0:
159,22,117521,6,0,L|43:34,1,102.375,0|0,1:0|2:0,2:0:0:0:
32,19,117789,6,0,B|39:-3|39:-3|102:-21|102:-21|172:84|172:84|255:96,1,267.75,0|0,3:0|2:0,2:0:0:0:
482,46,118057,6,0,B|486:27|486:27|391:10|391:10|385:41,1,133.875,0|0,2:0|2:0,2:0:0:0:
328,78,118190,2,0,L|338:123,1,39.3750000000001,8|0,2:3|2:0,2:0:0:0:
461,268,118324,6,0,B|392:281|392:281|350:227|350:227|353:202|353:202|314:155|314:155|236:171,1,283.5,8|0,2:0|2:0,2:0:0:0:
78,287,118592,5,2,1:2:0:0:
120,265,118659,1,2,2:0:0:0:
164,281,118726,1,2,2:0:0:0:
204,252,118793,1,2,2:0:0:0:
252,262,118860,1,2,3:2:0:0:
152,196,118994,6,0,L|176:356,1,157.5,0|0,2:0|2:0,2:0:0:0:
57,32,119262,5,8,2:3:0:0:
0,95,119396,2,0,B|28:122|28:122|67:116|67:116|71:111|71:111|111:105|111:105|134:69|134:69|179:61|179:61|213:82,1,236.25,8|0,2:0|2:0,2:0:0:0:
496,132,119664,5,2,1:2:0:0:
481,204,119731,1,2,2:0:0:0:
465,277,119798,1,2,2:0:0:0:
448,350,119865,1,2,2:0:0:0:
462,365,119932,6,0,B|513:313|513:313|401:333|401:333|384:326|384:326|289:337,1,283.5,0|0,3:0|2:0,2:0:0:0:
251,263,120199,6,0,L|302:255,1,39.3750000000001,0|0,2:0|2:0,2:0:0:0:
366,72,120333,2,0,L|326:77,1,39.3750000000001,8|0,2:3|2:0,2:0:0:0:
99,238,120467,6,0,B|35:202|35:202|148:190|148:190|163:179|163:179|258:169,1,299.25,8|0,2:0|2:0,2:0:0:0:
380,186,120735,6,0,L|341:191,1,39.3750000000001,0|0,1:0|2:0,2:0:0:0:
214,37,120869,2,0,L|253:32,1,39.3750000000001,0|0,2:0|2:0,2:0:0:0:
366,72,121003,5,0,3:0:0:0:
187,211,121137,2,0,B|172:185|172:185|193:127,1,68.2499999999999,0|0,1:0|2:0,2:0:0:0:
256,169,121271,5,0,2:0:0:0:
462,365,121405,2,0,B|477:339|477:339|456:281,1,68.2499999999999,8|0,2:3|2:0,2:0:0:0:
392,326,121539,6,0,B|296:317|296:317|292:320|292:320|159:310,1,204.75,8|0,2:0|2:0,2:0:0:0:
65,198,121807,6,0,L|119:203,1,39.3750000000001,8|0,2:3|2:0,2:0:0:0:
187,211,121940,2,0,L|226:214,1,39.3750000000001,8|0,2:3|2:0,2:0:0:0:
443,23,122074,6,0,B|456:56|456:56|439:101,1,68.2499999999999,0|0,3:0|2:0,2:0:0:0:
340,191,122208,2,0,B|327:158|327:158|344:113,1,68.2499999999999,0|0,2:0|2:0,2:0:0:0:
412,161,122342,1,0,2:0:0:0:
412,161,122476,6,0,L|479:170,1,52.5,8|0,2:3|2:0,2:0:0:0:
370,49,122610,6,0,B|346:31|346:31|284:40|284:40|267:74|267:74|222:85|222:85|185:67,1,204.75,8|0,2:0|2:0,2:0:0:0:
57,32,122878,2,0,B|92:-8|92:-8|152:8,1,102.375000000001,0|0,1:0|2:0,2:0:0:0:
115,89,123146,6,0,L|99:160,1,62.9999999999999,0|0,3:0|2:0,2:0:0:0:
213,276,123280,2,0,L|229:205,1,62.9999999999999,0|0,2:0|2:0,2:0:0:0:
46,271,123414,1,0,2:0:0:0:
46,271,123548,6,0,L|56:330,1,52.5,8|0,2:3|2:0,2:0:0:0:
185,357,123682,6,0,B|275:349|275:349|308:300|308:300|420:334,1,236.25,8|0,2:0|2:0,2:0:0:0:
485,361,123949,2,0,B|493:319|493:319|467:283,1,86.6250000000004,0|0,1:0|2:0,2:0:0:0:
504,149,124217,6,0,B|489:203|489:203|391:177|391:177|375:178|375:178|285:155|285:155|301:85,1,314.999999999999,0|0,3:0|2:0,2:0:0:0:
107,289,124619,6,0,L|98:233,1,52.5,8|0,2:3|2:0,2:0:0:0:
53,171,124753,2,0,B|62:137|62:137|122:153|122:153|132:152|132:152|188:166|188:166|178:210,1,204.75,8|0,2:0|2:0,2:0:0:0:
213,276,125021,6,0,B|250:270|250:270|254:272|254:272|311:261,1,78.75,0|0,1:0|2:0,2:0:0:0:
391,325,125289,5,0,3:0:0:0:
456,75,125423,1,0,2:0:0:0:
373,111,125557,6,0,B|366:141|366:141|401:197,1,68.2499999999999,0|0,2:0|2:0,2:0:0:0:
467,283,125690,2,0,B|474:253|474:253|439:197,1,68.2499999999999,8|0,2:3|2:0,2:0:0:0:
504,149,125824,6,0,B|423:169|423:169|394:221|394:221|287:210,1,236.25,8|0,2:0|2:0,2:0:0:0:
145,285,126092,6,0,L|216:275,1,68.2499999999999,0|0,1:0|2:0,2:0:0:0:
302,344,126226,2,0,L|231:354,1,68.2499999999999,0|0,2:0|2:0,2:0:0:0:
89,384,126360,6,0,B|125:330|125:330|99:265|99:265|78:256|78:256|72:257|72:257|50:247|50:247|27:184|27:184|75:115,1,314.999999999999,0|0,3:0|2:0,2:0:0:0:
301,211,126762,6,0,L|233:202,1,52.5,8|0,2:3|2:0,2:0:0:0:
48,118,126896,2,0,B|86:73|86:73|145:82|145:82|172:134|172:134|218:146,1,204.75,8|0,2:0|2:0,2:0:0:0:
406,95,127164,5,2,1:2:0:0:
364,73,127231,1,2,2:0:0:0:
320,89,127298,1,2,2:0:0:0:
280,60,127365,1,2,2:0:0:0:
232,70,127432,1,2,3:2:0:0:
153,216,127565,6,0,B|201:169|201:169|266:192,1,136.5,0|0,2:0|2:0,2:0:0:0:
439,360,127833,5,8,2:3:0:0:
499,298,127967,2,0,B|457:258|457:258|340:324|340:324|270:280,1,236.25,8|0,2:0|2:0,2:0:0:0:
90,196,128235,6,0,B|54:186|54:186|22:213,1,78.7499999999998,0|0,1:0|2:0,2:0:0:0:
160,345,128369,2,0,B|195:354|195:354|227:327,1,78.7499999999998,0|0,2:0|2:0,2:0:0:0:
165,170,128503,6,0,B|177:235|177:235|129:273|129:273|119:269|119:269|78:318|78:318|92:382,1,267.75,0|0,3:0|2:0,2:0:0:0:
277,197,128771,6,0,B|276:169|276:169|260:205,1,52.5,0|0,2:0|2:0,2:0:0:0:
65,110,128905,2,0,B|66:82|66:82|82:118,1,52.5,8|0,2:3|2:0,2:0:0:0:
280,60,129039,6,0,B|343:51|343:51|379:88|379:88|377:95|377:95|408:138|408:138|488:124,1,236.25,8|0,2:0|2:0,2:0:0:0:
508,44,129307,6,0,L|446:56,1,52.5,0|0,1:0|2:0,2:0:0:0:
276,196,129440,2,0,L|328:187,1,52.5,0|0,2:0|2:0,2:0:0:0:
498,303,129574,6,0,B|497:310|497:310|491:315|491:315|496:317|496:317|490:382,1,84,4|2,2:3|2:0,2:0:0:0:
491,381,130646,5,2,2:0:0:0:
411,383,130914,1,0,2:0:0:0:
357,309,131182,1,0,2:0:0:0:
265,274,131449,1,0,2:0:0:0:
190,314,131717,2,0,L|197:357,2,42,2|0|0,2:0|2:0|2:0,2:0:0:0:
30,147,132521,5,2,2:0:0:0:
82,85,132789,1,0,2:0:0:0:
171,80,133057,1,0,2:0:0:0:
240,144,133324,1,0,2:0:0:0:
230,230,133592,1,0,2:0:0:0:
106,327,133860,6,0,L|22:313,1,84,2|2,2:0|2:0,2:0:0:0:
23,313,134932,5,2,2:0:0:0:
64,241,135199,1,0,2:0:0:0:
164,229,135467,1,0,2:0:0:0:
245,311,135735,1,0,2:0:0:0:
362,324,136003,1,2,2:0:0:0:
419,273,136271,5,0,2:0:0:0:
419,273,136405,1,0,2:0:0:0:
308,200,136539,6,0,P|242:210|151:232,1,147,2|0,2:3|2:0,2:0:0:0:
90,167,137074,5,8,2:3:0:0:
438,346,137208,1,8,2:3:0:0:
366,376,137878,5,8,2:3:0:0:
428,75,138012,1,8,2:3:0:0:
491,146,139083,5,2,2:3:0:0:
491,146,139150,1,2,2:3:0:0:
491,146,139217,1,8,2:3:0:0:
163,228,139351,1,8,2:3:0:0:
251,269,139954,5,2,2:3:0:0:
251,269,140021,1,8,2:3:0:0:
164,0,140155,1,8,2:3:0:0:
164,0,141360,6,0,B|138:13|121:8|121:8|84:38|102:90|102:90|173:146|140:220,1,273,4|0,3:0|2:0,2:0:0:0:
19,384,141762,5,8,2:3:0:0:
60,319,141896,2,0,B|36:297|2:305|2:305|93:290|93:290|114:296|114:296|194:283,1,236.25,8|0,2:0|2:0,2:0:0:0:
350,342,142164,5,2,1:2:0:0:
370,353,142231,1,2,2:0:0:0:
393,349,142298,1,2,2:0:0:0:
414,358,142365,1,2,2:0:0:0:
436,358,142432,2,0,P|335:266|303:172,1,210,0|0,3:0|2:0,2:0:0:0:
512,324,142833,1,8,2:3:0:0:
436,256,142967,2,0,P|425:172|449:86,1,157.5,8|0,2:0|2:0,2:0:0:0:
371,0,143235,6,0,P|344:34|359:76,1,78.75,0|0,1:0|2:0,2:0:0:0:
441,102,143503,6,0,B|406:56|330:63|312:124|312:124|297:178|210:209|166:136,1,314.999999999999,0|0,3:0|2:0,2:0:0:0:
46,53,143905,1,8,2:3:0:0:
158,240,144039,2,0,P|140:151|115:82,1,136.5,8|0,2:0|2:0,2:0:0:0:
0,364,144307,6,0,P|33:308|88:316,1,118.125,0|0,1:0|2:0,2:0:0:0:
158,240,144574,6,0,B|168:338|247:386|343:364|361:275|295:231|249:265,1,314.999999999999,0|0,3:0|2:0,2:0:0:0:
490,357,144976,1,8,2:3:0:0:
389,367,145110,2,0,B|396:289|459:251|534:269|549:339|497:378|459:350,1,236.25,8|0,2:0|2:0,2:0:0:0:
383,230,145378,6,0,P|387:198|397:172,3,39.3750000000001,2|2|2|2,1:2|2:0|2:0|2:0,2:0:0:0:
266,75,145646,6,0,B|288:49|306:49|306:49|238:29|200:81|200:81|160:134|96:110|96:110|129:116|142:89,1,314.999999999999,0|0,3:0|2:0,2:0:0:0:
3,162,146048,6,0,P|51:184|62:216,1,68.2499999999999,8|0,2:3|2:0,2:0:0:0:
133,33,146182,2,0,P|51:38|19:147,1,204.75,8|0,2:0|2:0,2:0:0:0:
145,295,146449,6,0,P|150:240|161:189,1,86.6250000000004,0|0,1:0|2:0,2:0:0:0:
29,341,146717,6,0,B|18:317|-23:312|-23:312|102:296|54:390|180:372,1,273,0|0,3:0|2:0,2:0:0:0:
266,75,147119,5,8,2:3:0:0:
203,128,147253,2,0,B|226:159|262:158|262:158|246:234|242:296,1,204.75,8|0,2:0|2:0,2:0:0:0:
490,357,147521,6,0,P|491:311|454:293,1,78.75,0|0,1:0|2:0,2:0:0:0:
242,292,147789,6,0,B|226:267|192:267|192:267|288:238|336:328|336:328|343:232|437:221|437:221|399:233|384:281,1,459.375,0|0,3:0|2:0,2:0:0:0:
468,295,148190,2,0,L|524:283,1,39.3750000000001,8|0,2:3|2:0,2:0:0:0:
348,118,148324,6,0,B|311:75|311:75|495:118,1,210,8|0,2:0|1:0,2:0:0:0:
461,110,148726,1,0,2:0:0:0:
242,292,148860,5,0,3:0:0:0:
189,231,148994,2,0,B|199:182|199:182|205:177|205:177|217:124,1,105,0|0,1:0|2:0,2:0:0:0:
25,368,149262,5,8,2:3:0:0:
0,293,149396,2,0,B|120:276|61:383|227:360,1,204.75,8|0,2:0|2:0,2:0:0:0:
390,238,149664,6,0,L|379:186,1,52.5,8|0,2:3|2:0,2:0:0:0:
303,198,149798,2,0,L|314:250,1,52.5,8|0,2:3|2:0,2:0:0:0:
512,322,149932,6,0,B|519:237|370:229|338:268|332:401|385:418|472:415|467:369|361:332|356:375,1,314.999999999999,4|0,3:0|2:0,2:0:0:0:
112,167,150333,5,8,2:3:0:0:
177,200,150467,2,0,B|172:222|147:232|147:232|318:194,1,204.75,8|0,2:0|2:0,2:0:0:0:
474,75,150735,5,2,1:2:0:0:
438,79,150802,1,2,2:0:0:0:
419,56,150869,1,2,2:0:0:0:
394,63,150936,1,2,2:0:0:0:
372,58,151003,2,0,B|350:85|360:126|360:126|409:164|408:245|339:278,1,210,0|0,3:0|2:0,2:0:0:0:
302,197,151405,1,8,2:3:0:0:
508,345,151539,2,0,P|437:357|374:376,1,105,8|0,2:0|2:0,2:0:0:0:
56,218,151807,6,0,P|75:176|137:164,1,86.6250000000004,0|0,1:0|2:0,2:0:0:0:
302,197,152074,6,0,P|211:256|208:97,1,314.999999999999,0|0,3:0|2:0,2:0:0:0:
221,178,152476,1,8,2:3:0:0:
85,340,152610,2,0,P|72:271|45:191,1,126,8|0,2:0|2:0,2:0:0:0:
354,6,152878,5,2,1:2:0:0:
338,39,152945,1,2,2:0:0:0:
343,70,153012,1,2,2:0:0:0:
331,92,153079,1,2,2:0:0:0:
336,113,153146,2,0,P|472:89|425:-7,1,273,0|0,3:0|2:0,2:0:0:0:
302,197,153548,6,0,B|307:223|307:223|308:223|308:223|315:258,1,52.5,8|0,2:3|2:0,2:0:0:0:
396,260,153682,2,0,B|318:268|348:336|247:338,1,157.5,8|0,2:0|2:0,2:0:0:0:
133,214,153949,6,0,P|104:188|52:195,1,78.7499999999998,2|2,1:2|2:0,2:0:0:0:
43,256,154083,2,0,P|72:282|124:275,1,78.7499999999998,2|2,2:0|2:0,2:0:0:0:
166,383,154217,6,0,P|153:249|115:38,1,314.999999999999,0|0,3:0|2:0,2:0:0:0:
352,238,154619,6,0,P|344:272|338:304,1,68.2499999999999,8|0,2:3|2:0,2:0:0:0:
266,225,154753,2,0,B|376:234|349:150|448:154,1,204.75,8|0,2:0|2:0,2:0:0:0:
507,205,155021,6,0,P|510:231|502:210,1,78.75,0|0,1:0|2:0,2:0:0:0:
449,154,155289,2,0,B|262:140|387:28|188:3,1,314.999999999999,0|0,3:0|2:0,2:0:0:0:
18,324,155690,5,8,2:3:0:0:
43,256,155824,2,0,B|75:261|88:300|88:300|60:112,1,236.25,8|0,2:0|2:0,2:0:0:0:
192,3,156092,6,0,P|202:42|179:87,1,78.75,0|0,1:0|2:0,2:0:0:0:
62,132,156360,6,0,B|84:88|187:26|281:126|264:205|175:225|151:195,1,315,0|0,3:0|2:0,2:0:0:0:
161,203,156628,2,0,L|153:159,1,28.8750000000001,0|0,2:0|2:0,2:0:0:0:
297,78,156762,2,0,L|288:33,1,28.8750000000001,8|0,2:3|2:0,2:0:0:0:
474,185,156896,6,0,B|486:156|527:157|527:157|446:145|386:224|386:224|365:296|233:277,1,315,8|0,2:0|2:0,2:0:0:0:
323,276,157164,2,0,L|330:232,1,28.8750000000001,0|0,1:0|2:0,2:0:0:0:
261,162,157298,5,8,2:0:0:0:
261,162,157365,1,8,2:0:0:0:
261,162,157432,1,8,2:0:0:0:
492,346,157565,2,0,L|480:280,1,52.5,8|0,2:0|2:0,2:0:0:0:
474,185,157833,5,8,2:0:0:0:
474,185,158101,2,0,P|460:221|459:232,1,26.25,8|0,2:0|2:0,2:0:0:0:
344,224,158235,2,0,P|361:263|369:273,1,52.5,8|0,2:0|2:0,2:0:0:0:
285,360,158369,2,0,P|333:384|360:383,1,78.7499999999998,8|0,2:0|2:0,2:0:0:0:
482,294,158503,6,0,B|282:272|337:389|171:380,1,314.999999999999,4|0,3:0|2:0,2:0:0:0:
201,125,158905,5,8,2:3:0:0:
269,77,159039,2,0,B|327:149|266:233|266:233|225:197|176:209,1,236.25,8|0,2:0|2:0,2:0:0:0:
66,218,159307,5,2,1:2:0:0:
59,251,159373,1,2,2:0:0:0:
54,284,159440,1,2,2:0:0:0:
49,317,159507,1,2,2:0:0:0:
38,328,159574,2,0,B|-14:304|-14:304|116:290|116:290|132:297|132:297|200:291,1,273,0|0,3:0|2:0,2:0:0:0:
500,156,159976,6,0,B|526:158|526:158|483:163,1,52.5,8|0,2:3|2:0,2:0:0:0:
439,225,160110,2,0,B|397:184|397:184|436:67,1,157.5,8|0,2:0|2:0,2:0:0:0:
500,9,160378,6,0,B|525:34|525:34|510:84,1,78.75,0|0,1:0|2:0,2:0:0:0:
428,90,160646,6,0,B|395:59|343:72|333:117|333:117|326:174|244:204|193:168|189:98,1,314.999999999999,0|0,3:0|2:0,2:0:0:0:
0,52,161048,6,0,L|60:58,1,39.3750000000001,8|0,2:3|2:0,2:0:0:0:
122,41,161182,2,0,B|99:17|101:-15|101:-15|67:147,1,204.75,8|0,2:0|2:0,2:0:0:0:
11,316,161449,6,0,P|4:277|-4:257,1,52.5,0|0,1:0|2:0,2:0:0:0:
60,214,161650,5,0,2:0:0:0:
69,206,161717,2,0,B|146:227|107:271|195:276,2,136.5,0|0|0,3:0|2:0|2:0,2:0:0:0:
225,368,162119,2,0,P|287:353|320:320,1,68.2499999999999,8|0,2:3|2:0,2:0:0:0:
349,270,162253,2,0,B|330:226|330:226|311:392,1,204.75,8|0,2:0|2:0,2:0:0:0:
181,274,162521,6,0,P|168:218|164:203,1,52.5,0|0,1:0|2:0,2:0:0:0:
251,125,162655,2,0,P|264:181|268:196,1,52.5,0|0,2:0|2:0,2:0:0:0:
164,139,162789,6,0,B|54:126|116:50|-17:37,1,204.75,0|0,3:0|2:0,2:0:0:0:
162,55,163057,1,0,2:0:0:0:
0,224,163190,2,0,L|69:213,1,62.9999999999999,8|0,2:3|2:0,2:0:0:0:
181,274,163324,6,0,P|270:254|390:248,1,189,8|0,2:0|2:0,2:0:0:0:
466,65,163592,6,0,P|468:24|433:10,1,78.75,0|0,1:0|2:0,2:0:0:0:
505,142,163860,6,0,B|429:94|337:98|337:98|397:133|367:190,1,252,0|0,3:0|2:0,2:0:0:0:
438,9,164262,1,8,2:3:0:0:
200,86,164396,6,0,P|245:149|269:48,1,236.25,8|0,2:0|2:0,2:0:0:0:
508,279,164664,6,0,P|467:275|461:251,1,63,0|0,1:0|2:0,2:0:0:0:
512,191,164932,6,0,B|392:223|375:378|375:378|370:309|259:327|316:225,1,393.749999999999,0|0,3:0|2:0,2:0:0:0:
300,262,165333,2,0,L|343:250,1,28.8750000000001,8|0,2:3|2:0,2:0:0:0:
200,86,165467,6,0,B|141:44|141:44|355:75,1,273,8|0,2:0|1:0,2:0:0:0:
339,72,165869,1,0,2:0:0:0:
82,372,166003,5,0,3:0:0:0:
20,324,166137,2,0,P|10:255|-5:205,1,105,0|0,1:0|2:0,2:0:0:0:
271,43,166405,5,8,2:3:0:0:
162,286,166539,2,0,P|176:178|205:68,1,204.75,8|0,2:0|2:0,2:0:0:0:
74,36,166807,6,0,B|50:46|50:46|123:69,1,78.7499999999998,8|0,2:3|2:0,2:0:0:0:
289,209,166940,2,0,B|303:187|303:187|214:210,1,78.7499999999998,8|0,2:3|2:0,2:0:0:0:
16,321,167074,6,0,B|-1:300|-13:300|-13:300|41:294|63:349|63:349|97:405|168:378,1,236.25,0|0,3:0|2:0,2:0:0:0:
149,383,167476,6,0,L|160:330,1,47.25,0|0,3:0|2:0,2:0:0:0:
56,133,167610,2,0,B|33:102|33:102|53:222,1,141.75,8|0,1:0|2:0,2:0:0:0:
191,139,167878,5,0,3:0:0:0:
231,142,167945,1,0,3:0:0:0:
265,158,168012,1,0,3:0:0:0:
284,186,168079,1,0,3:0:0:0:
289,209,168146,2,0,P|305:118|335:5,1,189,8|0,2:0|2:0,2:0:0:0:
421,190,168414,2,0,P|298:158|173:136,1,236.25,0|0,3:0|2:0,2:0:0:0:
89,91,168682,6,0,L|70:23,1,57.7499999999999,8|0,1:0|2:0,2:0:0:0:
151,0,168815,2,0,L|171:85,1,57.7499999999999,0|0,3:0|2:0,2:0:0:0:
66,205,168949,6,0,P|6:187|-20:187,1,68.2499999999999,2|0,2:0|2:0,2:0:0:0:
236,298,169083,2,0,P|267:285|301:279,1,68.2499999999999,2|0,2:0|2:0,2:0:0:0:
42,384,169217,6,0,P|16:299|174:368,1,393.749999999999,0|0,3:0|2:0,2:0:0:0:
104,338,169619,2,0,L|98:304,1,21,0|0,3:0|2:0,2:0:0:0:
240,204,169753,2,0,P|246:142|260:42,1,157.5,8|0,1:0|2:0,2:0:0:0:
40,8,170021,5,2,3:2:0:0:
49,35,170088,1,2,2:0:0:0:
67,7,170155,1,2,2:0:0:0:
73,35,170222,1,2,2:0:0:0:
137,81,170289,2,0,B|263:85|208:-33|381:8,1,236.25,8|0,2:3|2:0,2:0:0:0:
512,153,170557,6,0,P|466:172|422:122,1,110.25,0|0,3:0|2:0,2:0:0:0:
413,126,170824,2,0,L|429:73,1,36.75,8|0,1:0|2:0,2:0:0:0:
512,22,170958,2,0,L|501:57,1,36.75,0|0,3:0|2:0,2:0:0:0:
310,163,171092,6,0,L|226:147,1,78.7499999999998,8|0,2:3|2:0,2:0:0:0:
382,303,171226,2,0,L|459:317,1,78.7499999999998,8|0,2:3|2:0,2:0:0:0:
512,154,171360,6,0,P|316:171|246:351,1,393.749999999999,0|0,3:0|2:0,2:0:0:0:
254,339,171762,2,0,P|257:299|262:270,1,52.5,0|0,3:0|2:0,2:0:0:0:
137,81,171896,6,0,B|102:33|102:33|120:129|128:195,1,204.75,8|0,1:0|2:0,2:0:0:0:
31,370,172164,5,0,3:0:0:0:
0,344,172231,1,0,3:0:0:0:
0,304,172298,1,0,3:0:0:0:
19,279,172365,1,0,3:0:0:0:
42,277,172432,2,0,P|111:291|147:302,1,78.7500000000002,8|0,2:0|2:0,2:0:0:0:
423,132,172699,6,0,P|367:153|309:162,1,118.125,0|0,3:0|2:0,2:0:0:0:
258,103,172967,2,0,P|246:74|267:41,1,62.9999999999999,8|0,1:0|2:0,2:0:0:0:
323,0,173101,6,0,P|309:93|284:371,1,341.25,0|0,3:0|2:0,2:0:0:0:
42,277,173503,6,0,B|19:247|-21:235|-21:235|92:248|207:293|207:293|144:253|145:218,1,393.749999999999,0|0,3:0|2:0,2:0:0:0:
120,309,173905,2,0,P|128:347|131:375,1,52.5,0|0,3:0|2:0,2:0:0:0:
15,135,174039,6,0,B|12:57|85:27|136:98|88:168,1,204.75,8|0,1:0|2:0,2:0:0:0:
42,277,174307,2,0,P|31:232|18:203,3,52.5,2|2|2|2,3:2|2:0|2:0|2:0,2:0:0:0:
235,208,174574,6,0,B|369:227|291:313|430:333,1,236.25,8|0,2:3|2:0,2:0:0:0:
474,164,174842,2,0,B|462:106|462:106|413:258,1,204.75,0|0,3:0|2:0,2:0:0:0:
232,322,175110,6,0,B|249:338|249:338|231:269,1,68.2499999999999,8|0,1:0|2:0,2:0:0:0:
360,133,175244,2,0,B|377:117|377:117|358:184,1,68.2499999999999,0|0,3:0|2:0,2:0:0:0:
97,152,175378,6,0,P|144:111|172:113,1,78.7499999999998,8|0,2:3|2:0,2:0:0:0:
202,174,175512,2,0,P|155:215|127:213,1,78.7499999999998,8|0,2:3|2:0,2:0:0:0:
35,21,175646,5,8,2:0:0:0:
0,95,175780,6,0,L|2:135,2,42,0|0|0,2:0|2:0|2:0,2:0:0:0:
35,21,176182,21,8,2:0:0:0:
71,108,176315,6,0,L|74:155,2,45.1499999999999,0|0|0,2:0|2:0|2:0,2:0:0:0:
35,21,176717,21,8,2:0:0:0:
143,120,176851,6,0,L|146:167,2,48.3,0|0|0,2:0|2:0|2:0,2:0:0:0:
35,21,177253,21,8,2:0:0:0:
216,130,177387,6,0,L|219:187,2,51.4499999999998,0|0|0,2:0|2:0|2:0,2:0:0:0:
35,21,177789,21,8,2:0:0:0:
291,139,177923,6,0,L|294:196,2,54.6000000000001,0|0|0,2:0|2:0|2:0,2:0:0:0:
35,21,178324,21,8,2:0:0:0:
366,150,178458,6,0,L|369:207,2,57.7499999999999,0|0|0,2:0|2:0|2:0,2:0:0:0:
35,21,178860,21,8,2:0:0:0:
439,157,178994,6,0,L|443:222,2,60.9000000000001,0|0|0,2:0|2:0|2:0,2:0:0:0:
35,21,179396,21,8,2:0:0:0:
511,162,179530,6,0,L|515:227,2,64.0500000000001,0|0|0,2:0|2:0|2:0,2:0:0:0:
436,50,179932,22,0,P|373:36|350:26,1,62.9999999999999,8|0,2:0|2:0,2:0:0:0:
366,150,180199,6,0,P|305:164|273:175,1,68.2499999999999,8|0,2:0|2:0,2:0:0:0:
247,73,180467,22,0,P|178:57|152:48,1,73.4999999999999,8|0,2:0|2:0,2:0:0:0:
178,189,180735,6,0,P|143:222|121:266,1,78.7500000000002,8|0,2:0|2:0,2:0:0:0:
30,26,181003,22,0,P|19:95|25:130,1,84,8|0,2:0|2:0,2:0:0:0:
220,272,181271,6,0,P|248:338|266:361,1,89.2500000000003,8|0,2:0|2:0,2:0:0:0:
33,209,181539,22,0,P|16:265|20:323,1,94.5000000000001,8|0,2:0|2:0,2:0:0:0:
299,165,181807,6,0,P|373:161|418:150,1,99.7499999999998,8|0,2:0|2:0,2:0:0:0:
77,6,182074,21,8,2:0:0:0:
128,24,182141,1,8,2:0:0:0:
162,66,182208,1,8,2:0:0:0:
177,118,182275,1,8,2:0:0:0:
160,175,182342,1,8,2:0:0:0:
113,212,182409,1,8,2:0:0:0:
53,218,182476,5,8,2:0:0:0:
45,204,182543,1,8,2:0:0:0:
36,188,182610,1,8,2:0:0:0:
85,146,182677,21,8,2:0:0:0:
152,129,182744,5,8,2:0:0:0:
226,134,182811,21,8,2:0:0:0:
299,165,182878,5,8,2:0:0:0:
361,220,182945,21,8,2:0:0:0:
391,303,183012,21,8,2:0:0:0:
391,303,183079,1,8,2:0:0:0:
391,303,183146,1,8,2:0:0:0:
489,80,183280,5,8,2:0:0:0:
489,80,183548,1,8,2:0:0:0:
397,20,183815,5,8,2:0:0:0:
397,20,183882,1,8,2:0:0:0:
397,20,183949,2,0,L|407:87,1,52.5,8|0,2:0|2:0,2:0:0:0:
229,320,184083,2,0,L|219:253,1,52.5,8|0,2:0|2:0,2:0:0:0:
142,245,184217,5,4,2:1:0:0:
