osu file format v14

[General]
AudioFilename: Shawn Wasabi - Pizza Rolls.mp3
AudioLeadIn: 0
PreviewTime: 35969
Countdown: 0
SampleSet: None
StackLeniency: 0.3
Mode: 0
LetterboxInBreaks: 0
WidescreenStoryboard: 0

[Editor]
Bookmarks: 1060,7745,9241,18517,27241,35968,42513,44696,51241,53422,61059,62150,68694,70877,79608,88331,97058,105785,114513,123242,131968,140696,149422,158150,164695,166877,173422,175604,183241,184331,190877,193059,201787,210513,219242,227968,236695
DistanceSpacing: 1.5
BeatDivisor: 8
GridSize: 4
TimelineZoom: 2.499999

[Metadata]
Title:Pizza Rolls
TitleUnicode:Pizza Rolls
Artist:Shawn Wasabi
ArtistUnicode:Shawn Wasabi
Creator:Exa
Version:Extra
Source:
Tags:
BeatmapID:832367
BeatmapSetID:380412

[Difficulty]
HPDrainRate:6.3
CircleSize:4
OverallDifficulty:7.8
ApproachRate:9.4
SliderMultiplier:2.55
SliderTickRate:1

[Events]
//Background and Video events
//Break Periods
2,88535,96523
2,132172,140159
2,228172,231795
//Storyboard Layer 0 (Background)
//Storyboard Layer 1 (Fail)
//Storyboard Layer 2 (Pass)
//Storyboard Layer 3 (Foreground)
//Storyboard Sound Samples

[TimingPoints]
1064,545.454545454546,4,3,0,80,1,0
1064,-151.515151515152,4,3,2,60,0,0
8564,-151.515151515152,4,1,0,60,0,0
8700,-151.515151515152,4,3,1,60,0,0
9245,545.454545454546,5,3,0,80,1,0
9245,-100,5,3,3,80,0,0
9381,-100,5,3,1,5,0,0
9517,-100,5,3,1,80,0,0
9722,-100,5,3,1,5,0,0
9790,-100,5,3,1,80,0,0
10813,-100,5,3,1,5,0,0
10881,-100,5,3,1,80,0,0
15176,-100,5,3,1,5,0,0
15245,-100,5,3,1,80,0,0
19540,-100,5,3,1,5,0,0
19608,-100,5,3,1,80,0,0
22540,-100,5,3,1,5,0,0
22608,-100,5,3,1,80,0,0
22676,-100,5,3,1,5,0,0
22745,-100,5,3,1,80,0,0
22813,-100,5,3,1,5,0,0
22881,-100,5,3,1,80,0,0
23904,-100,5,3,1,5,0,0
23972,-100,5,3,1,80,0,0
27108,-100,5,3,1,5,0,0
27245,545.454545454546,4,3,3,80,1,0
34881,-100,4,3,3,5,0,0
35154,-100,4,3,1,80,0,0
35972,-100,4,3,3,80,0,1
36108,-100,4,3,3,5,0,1
36245,-100,4,3,3,80,0,1
36654,-100,4,3,3,5,0,1
36790,-100,4,3,3,80,0,1
36926,-100,4,3,3,5,0,1
37063,-100,4,3,3,80,0,1
37540,-100,4,3,3,5,0,1
37608,-100,4,3,3,80,0,1
38835,-100,4,3,3,5,0,1
38972,-100,4,3,3,80,0,1
39108,-100,4,3,3,5,0,1
39245,-100,4,3,3,80,0,1
41085,-100,4,3,3,5,0,1
41154,-100,4,3,3,80,0,1
42790,-100,4,3,3,20,0,1
43063,-100,4,3,3,80,0,1
43335,-100,4,3,3,40,0,1
43608,-100,4,3,3,80,0,1
43881,-100,4,3,3,40,0,1
44017,-100,4,3,3,80,0,1
44222,-100,4,3,3,5,0,1
44426,-100,4,3,3,80,0,1
44495,-100,4,3,3,5,0,1
44699,-100,4,3,3,80,0,1
44835,-100,4,3,3,5,0,1
44972,-100,4,3,3,80,0,1
45381,-100,4,3,3,5,0,1
45517,-100,4,3,3,80,0,1
45654,-100,4,3,3,5,0,1
45790,-100,4,3,3,80,0,1
46267,-100,4,3,3,5,0,1
46335,-100,4,3,3,80,0,1
47631,-100,4,3,3,5,0,1
47699,-100,4,3,3,80,0,1
49813,-100,4,3,3,5,0,1
49881,-100,4,3,3,80,0,1
51245,-100,4,3,3,80,0,0
51313,-100,4,3,3,70,0,0
51381,-100,4,3,3,60,0,0
51449,-100,4,3,3,50,0,0
51517,-100,4,3,3,40,0,0
51585,-100,4,3,3,30,0,0
51654,-100,4,3,3,20,0,0
51722,-100,4,3,3,10,0,0
51790,-100,4,3,3,80,0,0
51858,-100,4,3,3,70,0,0
51926,-100,4,3,3,60,0,0
51995,-100,4,3,3,50,0,0
52063,-100,4,3,3,40,0,0
52131,-100,4,3,3,30,0,0
52199,-100,4,3,3,20,0,0
52267,-100,4,3,3,10,0,0
52335,-100,4,3,3,80,0,0
52404,-100,4,3,3,70,0,0
52472,-100,4,3,3,60,0,0
52540,-100,4,3,3,50,0,0
52608,-100,4,3,3,40,0,0
52676,-100,4,3,3,30,0,0
52745,-100,4,3,3,20,0,0
52813,-100,4,3,3,10,0,0
52881,-100,4,3,3,80,0,0
52949,-100,4,3,3,40,0,0
53017,-100,4,3,3,80,0,0
53085,-100,4,3,3,40,0,0
53154,-100,4,3,3,80,0,0
53222,-100,4,3,3,40,0,0
53290,-100,4,3,3,80,0,0
53358,-100,4,3,3,40,0,0
53426,-100,4,3,3,80,0,1
54108,-100,4,3,3,5,0,1
54245,-100,4,3,3,80,0,1
54381,-100,4,3,3,5,0,1
54517,-100,4,3,3,80,0,1
54585,-100,4,3,3,5,0,1
54654,-100,4,3,3,80,0,1
54926,-100,4,3,3,5,0,1
55063,-100,4,3,3,80,0,1
55131,-100,4,3,3,5,0,1
55199,-100,4,3,3,80,0,1
55267,-100,4,3,3,5,0,1
55335,-100,4,3,3,80,0,1
55540,-100,4,3,3,5,0,1
55608,-100,4,3,3,80,0,1
56358,-100,4,3,3,5,0,1
56426,-100,4,3,3,80,0,1
56631,-100,4,3,3,5,0,1
56699,-100,4,3,3,80,0,1
57176,-100,4,3,3,5,0,1
57245,-100,4,3,3,80,0,1
57585,-100,4,3,3,5,0,1
57654,-100,4,3,3,80,0,1
58472,-100,4,3,3,5,0,1
58608,-100,4,3,3,80,0,1
58745,-100,4,3,3,5,0,1
58949,-100,4,3,3,5,0,1
59017,-100,4,3,3,80,0,1
59631,-100,4,3,3,5,0,1
59699,-100,4,3,3,80,0,1
59835,-100,4,3,3,5,0,1
59972,-100,4,3,3,80,0,1
60449,-100,4,3,3,5,0,1
60517,-100,4,3,3,80,0,1
60926,-100,4,3,3,5,0,1
61063,-100,4,3,3,60,0,1
62154,-100,4,3,3,80,0,1
62835,-100,4,3,3,5,0,1
62972,-100,4,3,3,80,0,1
63108,-100,4,3,3,5,0,1
63245,-100,4,3,3,80,0,1
63313,-100,4,3,3,5,0,1
63381,-100,4,3,3,80,0,1
63654,-100,4,3,3,5,0,1
63790,-100,4,3,3,80,0,1
63858,-100,4,3,3,5,0,1
63926,-100,4,3,3,80,0,1
63995,-100,4,3,3,5,0,1
64063,-100,4,3,3,80,0,1
64267,-100,4,3,3,80,0,1
64335,-100,4,3,3,80,0,1
65085,-100,4,3,3,5,0,1
65154,-100,4,3,3,80,0,1
65358,-100,4,3,3,5,0,1
65426,-100,4,3,3,80,0,1
65904,-100,4,3,3,5,0,1
65972,-100,4,3,3,80,0,1
66108,-100,4,3,3,5,0,1
66245,-100,4,3,3,80,0,1
66313,-100,4,3,3,5,0,1
66381,-100,4,3,3,80,0,1
67199,-100,4,3,3,5,0,1
67335,-100,4,3,3,80,0,1
67472,-100,4,3,3,5,0,1
67608,-100,4,3,3,80,0,1
67676,-100,4,3,3,5,0,1
67745,-100,4,3,3,80,0,1
68358,-100,4,3,3,5,0,1
68426,-100,4,3,3,80,0,1
68699,-300,4,3,4,80,0,1
69245,-200,4,3,4,80,0,1
69790,-100,4,3,4,80,0,1
70335,-150,4,3,4,80,0,1
70540,-150,4,3,4,5,0,1
70608,-150,4,3,4,80,0,1
70813,-150,4,3,4,5,0,1
70881,-100,4,3,3,80,0,0
71904,-100,4,3,3,5,0,0
71972,-100,4,3,3,80,0,0
72040,-100,4,3,3,5,0,0
72108,-100,4,3,3,80,0,0
72449,-100,4,3,3,5,0,0
72517,-100,4,3,3,80,0,0
73404,-100,4,3,3,5,0,0
73608,-100,4,3,5,80,0,0
73676,-100,4,3,3,5,0,0
73881,-100,4,3,5,80,0,0
73949,-100,4,3,3,5,0,0
74154,-100,4,3,5,80,0,0
74290,-100,4,3,3,80,0,0
75995,-100,4,3,3,5,0,0
76063,-100,4,3,3,80,0,0
77222,-100,4,3,3,5,0,0
77290,-100,4,3,3,80,0,0
77631,-100,4,3,3,5,0,0
77699,-100,4,3,4,80,0,0
80085,-100,4,3,3,5,0,0
80154,-100,4,3,3,80,0,0
80358,-100,4,3,3,5,0,0
80426,-100,4,3,3,80,0,0
80495,-100,4,3,3,5,0,0
80563,-100,4,3,3,80,0,0
80699,-100,4,3,3,5,0,0
80835,-100,4,3,3,80,0,0
80904,-100,4,3,3,5,0,0
80972,-100,4,3,3,80,0,0
81926,-100,4,3,3,5,0,0
82063,-100,4,3,3,80,0,0
82131,-100,4,3,3,5,0,0
82335,-100,4,3,5,80,0,0
82404,-100,4,3,3,5,0,0
82608,-100,4,3,5,80,0,0
82676,-100,4,3,3,5,0,0
82881,-100,4,3,5,80,0,0
83085,-100,4,3,3,5,0,0
83290,-100,4,3,3,80,0,0
85404,-100,4,3,3,5,0,0
85608,-100,4,3,3,80,0,0
85676,-100,4,3,3,5,0,0
85881,-100,4,3,3,80,0,0
85949,-100,4,3,3,5,0,0
86426,-100,4,3,3,80,0,0
86495,-100,4,3,3,5,0,0
86699,-100,4,3,3,80,0,0
86767,-100,4,3,3,5,0,0
86972,-100,4,3,3,80,0,0
87040,-100,4,3,3,5,0,0
87245,-100,4,3,3,80,0,0
97063,-100,4,3,1,80,0,0
97676,-100,4,3,1,5,0,0
97881,-100,4,3,1,80,0,0
97949,-100,4,3,1,5,0,0
98154,-100,4,3,1,80,0,0
103540,-100,4,3,1,5,0,0
103608,-100,4,3,1,80,0,0
104904,-100,4,3,1,5,0,0
104972,-100,4,3,1,80,0,0
106404,-100,4,3,1,5,0,0
106608,-100,4,3,1,80,0,0
106676,-100,4,3,1,5,0,0
106881,-100,4,3,1,80,0,0
112267,-100,4,3,1,5,0,0
112335,-100,4,3,1,80,0,0
113631,-100,4,3,1,5,0,0
113699,-100,4,3,1,80,0,0
116154,-100,4,3,4,80,0,0
116426,-100,4,3,1,80,0,0
116904,-100,4,3,1,5,0,0
116972,-100,4,3,1,80,0,0
120517,-100,4,3,4,80,0,0
120654,-100,4,3,1,80,0,0
124881,-100,4,3,4,80,0,0
125085,-100,4,3,1,80,0,0
129245,-100,4,3,4,80,0,0
140699,-100,4,3,1,60,0,0
149290,-100,4,3,1,5,0,0
149426,-100,4,3,1,80,0,0
158154,-100,4,3,3,80,0,1
158290,-100,4,3,3,5,0,1
158426,-100,4,3,3,80,0,1
158836,-100,4,3,3,5,0,1
158972,-100,4,3,3,80,0,1
159108,-100,4,3,3,5,0,1
159245,-100,4,3,3,80,0,1
159722,-100,4,3,3,5,0,1
159790,-100,4,3,3,80,0,1
161017,-100,4,3,3,5,0,1
161154,-100,4,3,3,80,0,1
161290,-100,4,3,3,5,0,1
161427,-100,4,3,3,80,0,1
163267,-100,4,3,3,5,0,1
163336,-100,4,3,3,80,0,1
164972,-100,4,3,3,40,0,1
165245,-100,4,3,3,80,0,1
165517,-100,4,3,3,40,0,1
165790,-100,4,3,3,80,0,1
166063,-100,4,3,3,40,0,1
166199,-100,4,3,3,80,0,1
166404,-100,4,3,3,5,0,1
166608,-100,4,3,3,80,0,1
166677,-100,4,3,3,5,0,1
166881,-100,4,3,3,80,0,1
167017,-100,4,3,3,5,0,1
167154,-100,4,3,3,80,0,1
167563,-100,4,3,3,5,0,1
167699,-100,4,3,3,80,0,1
167836,-100,4,3,3,5,0,1
167972,-100,4,3,3,80,0,1
168449,-100,4,3,3,5,0,1
168517,-100,4,3,3,80,0,1
169813,-100,4,3,3,5,0,1
169881,-100,4,3,3,80,0,1
171995,-100,4,3,3,5,0,1
172063,-100,4,3,3,80,0,1
173426,-100,4,3,3,80,0,0
173495,-100,4,3,3,70,0,0
173563,-100,4,3,3,60,0,0
173631,-100,4,3,3,50,0,0
173699,-100,4,3,3,40,0,0
173767,-100,4,3,3,30,0,0
173835,-100,4,3,3,20,0,0
173904,-100,4,3,3,10,0,0
173972,-100,4,3,3,80,0,0
174040,-100,4,3,3,70,0,0
174108,-100,4,3,3,60,0,0
174176,-100,4,3,3,50,0,0
174245,-100,4,3,3,40,0,0
174313,-100,4,3,3,30,0,0
174381,-100,4,3,3,20,0,0
174449,-100,4,3,3,10,0,0
174517,-100,4,3,3,80,0,0
174585,-100,4,3,3,70,0,0
174654,-100,4,3,3,60,0,0
174722,-100,4,3,3,50,0,0
174790,-100,4,3,3,40,0,0
174858,-100,4,3,3,30,0,0
174926,-100,4,3,3,20,0,0
174995,-100,4,3,3,10,0,0
175063,-100,4,3,3,80,0,0
175131,-100,4,3,3,70,0,0
175199,-100,4,3,3,60,0,0
175267,-100,4,3,3,50,0,0
175335,-100,4,3,3,40,0,0
175404,-100,4,3,3,30,0,0
175472,-100,4,3,3,20,0,0
175540,-100,4,3,3,10,0,0
175608,-100,4,3,3,80,0,1
176290,-100,4,3,3,5,0,1
176427,-100,4,3,3,80,0,1
176563,-100,4,3,3,5,0,1
176699,-100,4,3,3,80,0,1
176767,-100,4,3,3,5,0,1
176836,-100,4,3,3,80,0,1
177108,-100,4,3,3,5,0,1
177245,-100,4,3,3,80,0,1
177313,-100,4,3,3,5,0,1
177381,-100,4,3,3,80,0,1
177449,-100,4,3,3,5,0,1
177517,-100,4,3,3,80,0,1
177722,-100,4,3,3,5,0,1
177790,-100,4,3,3,80,0,1
178540,-100,4,3,3,5,0,1
178608,-100,4,3,3,80,0,1
178813,-100,4,3,3,5,0,1
178881,-100,4,3,3,80,0,1
179358,-100,4,3,3,5,0,1
179427,-100,4,3,3,80,0,1
179767,-100,4,3,3,5,0,1
179836,-100,4,3,3,80,0,1
180654,-100,4,3,3,5,0,1
180790,-100,4,3,3,80,0,1
180927,-100,4,3,3,5,0,1
181131,-100,4,3,3,5,0,1
181199,-100,4,3,3,80,0,1
181813,-100,4,3,3,5,0,1
181881,-100,4,3,3,80,0,1
182017,-100,4,3,3,5,0,1
182154,-100,4,3,3,80,0,1
182631,-100,4,3,3,5,0,1
182699,-100,4,3,3,80,0,1
183108,-100,4,3,3,5,0,1
183245,-100,4,3,3,60,0,1
184336,-100,4,3,3,80,0,1
185017,-100,4,3,3,5,0,1
185154,-100,4,3,3,80,0,1
185290,-100,4,3,3,5,0,1
185427,-100,4,3,3,80,0,1
185495,-100,4,3,3,5,0,1
185563,-100,4,3,3,80,0,1
185836,-100,4,3,3,5,0,1
185972,-100,4,3,3,80,0,1
186040,-100,4,3,3,5,0,1
186108,-100,4,3,3,80,0,1
186177,-100,4,3,3,5,0,1
186245,-100,4,3,3,80,0,1
186449,-100,4,3,3,5,0,1
186517,-100,4,3,3,80,0,1
187267,-100,4,3,3,5,0,1
187336,-100,4,3,3,80,0,1
187540,-100,4,3,3,5,0,1
187608,-100,4,3,3,80,0,1
188086,-100,4,3,3,5,0,1
188154,-100,4,3,3,80,0,1
188290,-100,4,3,3,5,0,1
188427,-100,4,3,3,80,0,1
188495,-100,4,3,3,5,0,1
188563,-100,4,3,3,80,0,1
189381,-100,4,3,3,5,0,1
189517,-100,4,3,3,80,0,1
189654,-100,4,3,3,5,0,1
189790,-100,4,3,3,80,0,1
189858,-100,4,3,3,5,0,1
189927,-100,4,3,3,80,0,1
190540,-100,4,3,3,5,0,1
190608,-100,4,3,3,80,0,1
190881,-300,4,3,4,80,0,1
191426,-200,4,3,4,80,0,1
191427,-200,4,3,4,80,0,1
191972,-100,4,3,4,80,0,1
192517,-150,4,3,4,80,0,1
192722,-150,4,3,4,5,0,1
192790,-150,4,3,4,20,0,1
192995,-150,4,3,4,5,0,1
193063,-100,4,3,4,80,0,0
199608,-200,4,3,4,80,0,0
200699,-100,4,3,4,80,0,0
208335,-200,4,3,4,80,0,0
209426,-100,4,3,4,80,0,0
217063,-200,4,3,4,80,0,0
218154,-100,4,3,4,80,0,0
225790,-200,4,3,4,80,0,0
226881,-100,4,3,4,80,0,0
227972,-100,4,3,1,80,0,0
232335,-100,4,3,1,80,0,0
236699,-100,4,3,3,80,0,0
237245,-100,4,3,0,70,0,0
237790,-100,4,3,0,60,0,0
238335,-100,4,3,0,50,0,0
238881,-100,4,3,0,40,0,0
239426,-100,4,3,0,30,0,0
239972,-100,4,3,0,20,0,0
240517,-100,4,3,0,10,0,0
241063,-100,4,2,0,5,0,0

[Colours]
Combo1 : 244,171,140
Combo2 : 149,242,196
Combo3 : 243,169,221
Combo4 : 172,240,240
Combo5 : 233,241,133
Combo6 : 234,102,115
Combo7 : 165,239,143
Combo8 : 124,118,237

[HitObjects]
111,88,1064,5,0,0:0:0:0:
191,72,1200,1,0,0:0:0:0:
271,88,1336,2,0,L|313:84,1,42.5
387,182,1609,2,0,L|390:139,1,42.5,8|0,0:0|0:0,0:0:0:0:
479,52,1882,2,0,L|475:94,1,42.5
460,250,2154,5,0,0:0:0:0:
379,266,2290,1,0,0:0:0:0:
300,250,2426,2,0,L|257:253,1,42.5
188,336,2700,2,0,P|202:348|224:357,1,42.5,8|0,0:0|0:0,0:0:0:0:
162,242,2973,2,0,P|145:229|126:221,1,42.5
93,326,3245,5,0,0:0:0:0:
27,270,3382,1,0,0:0:0:0:
23,185,3518,2,0,L|19:143,1,42.5
87,56,3791,2,0,P|107:54|128:56,1,42.5,8|0,0:0|0:0,0:0:0:0:
238,125,4064,2,0,P|218:128|197:124,1,42.5
202,15,4336,5,0,0:0:0:0:
196,123,4473,1,0,0:0:0:0:
279,51,4609,1,0,0:0:0:0:
128,56,4745,1,0,0:0:0:0:
201,213,4882,2,0,L|243:213,1,42.5,8|0,0:0|0:0,0:0:0:0:
392,166,5154,2,0,L|350:167,1,42.5
332,274,5427,5,0,0:0:0:0:
392,166,5563,1,0,0:0:0:0:
452,274,5700,2,0,L|452:333,1,42.5
351,362,5973,2,0,L|292:358,1,42.5,8|0,0:0|0:0,0:0:0:0:
203,276,6245,2,0,L|245:278,1,42.5
221,384,6518,5,0,0:0:0:0:
138,364,6654,1,0,0:0:0:0:
93,289,6791,2,0,P|89:268|93:247,1,42.5
157,163,7064,2,0,P|172:177|184:195,1,42.5,8|0,0:0|0:0,0:0:0:0:
60,153,7337,2,0,P|43:139|33:121,1,42.5
123,60,7609,5,0,0:0:0:0:
204,93,7746,1,0,0:0:0:0:
283,59,7882,2,0,L|325:61,1,42.5
452,98,8155,2,0,P|431:101|410:98,1,42.5,8|0,0:0|0:0,0:0:0:0:
395,0,8428,2,0,P|416:-3|437:1,1,42.5
437,0,8632,1,0,0:0:0:0:
437,0,8700,5,0,0:0:0:0:
410,98,8836,1,8,0:0:0:0:
437,196,8973,1,8,0:0:0:0:
410,294,9109,1,8,0:0:0:0:
256,219,9245,6,0,L|320:214,1,63.75,6|0,0:0|0:0,0:0:0:0:
185,270,9517,2,0,P|169:225|179:179,1,95.625
193,150,9790,2,0,P|198:118|191:87,1,63.75,8|0,0:0|0:0,0:0:0:0:
110,35,10063,1,0,0:0:0:0:
30,87,10199,1,2,0:0:0:0:
189,0,10335,2,0,L|252:5,1,63.75,8|0,0:0|0:0,0:0:0:0:
432,73,10608,2,0,P|387:89|341:79,1,95.625
312,64,10881,6,0,L|307:127,1,63.75,8|2,0:0|0:0,0:0:0:0:
322,228,11154,1,0,0:0:0:0:
226,192,11290,1,8,0:0:0:0:
397,194,11426,2,0,P|403:224|399:256,1,63.75,8|0,0:0|0:0,0:0:0:0:
254,341,11699,2,0,P|247:310|252:279,1,63.75,2|0,0:0|0:0,0:0:0:0:
435,345,11972,6,0,P|404:352|373:347,1,63.75,8|0,0:0|0:0,0:0:0:0:
252,278,12245,1,0,0:0:0:0:
144,345,12381,1,2,0:0:0:0:
77,237,12517,1,8,0:0:0:0:
185,170,12653,1,0,0:0:0:0:
65,318,12790,6,0,L|2:313,1,63.75,2|0,0:0|0:0,0:0:0:0:
39,153,13063,2,0,L|102:158,1,63.75,8|0,0:0|0:0,0:0:0:0:
280,185,13335,1,0,0:0:0:0:
246,94,13472,1,2,0:0:0:0:
68,67,13608,1,8,0:0:0:0:
102,158,13745,1,0,0:0:0:0:
212,19,13881,6,0,P|242:13|274:17,1,63.75,2|0,0:0|0:0,0:0:0:0:
342,183,14154,2,0,P|312:189|280:185,1,63.75,8|0,0:0|0:0,0:0:0:0:
308,94,14426,1,0,0:0:0:0:
404,92,14563,1,10,0:0:0:0:
481,216,14699,2,0,L|473:285,1,63.75,8|0,0:0|0:0,0:0:0:0:
326,384,14972,2,0,P|314:337|329:292,1,95.625,2|0,0:0|0:0,0:0:0:0:
347,263,15245,6,0,P|315:270|284:265,1,63.75,8|2,0:0|0:0,0:0:0:0:
188,232,15517,1,0,0:0:0:0:
279,184,15654,1,2,0:0:0:0:
213,316,15790,2,0,L|149:322,1,63.75,8|0,0:0|0:0,0:0:0:0:
133,149,16063,2,0,L|196:144,1,63.75,2|0,0:0|0:0,0:0:0:0:
58,183,16335,6,0,P|51:152|55:120,1,63.75,8|0,0:0|0:0,0:0:0:0:
134,19,16608,1,0,0:0:0:0:
133,149,16745,1,2,0:0:0:0:
233,45,16881,1,8,0:0:0:0:
133,149,17017,1,0,0:0:0:0:
309,74,17154,6,0,P|314:43|308:12,1,63.75,2|0,0:0|0:0,0:0:0:0:
238,151,17426,2,0,P|233:182|239:213,1,63.75,8|0,0:0|0:0,0:0:0:0:
361,281,17699,1,0,0:0:0:0:
314,180,17835,1,2,0:0:0:0:
205,289,17972,2,0,P|236:296|267:291,1,63.75,8|0,0:0|0:0,0:0:0:0:
405,198,18245,2,0,P|436:191|467:196,1,63.75,2|0,0:0|0:0,0:0:0:0:
366,344,18517,6,0,L|361:281,1,63.75,12|0,0:0|0:0,0:0:0:0:
400,135,18790,2,0,L|405:198,1,63.75,0|2,0:0|0:0,0:0:0:0:
260,208,19063,2,0,P|291:202|323:207,1,63.75,8|0,0:0|0:0,0:0:0:0:
181,240,19335,2,0,P|178:187|198:149,1,95.625,2|0,0:0|0:0,0:0:0:0:
220,123,19608,1,8,0:0:0:0:
125,38,19745,2,0,L|62:43,1,63.75,2|0,0:0|0:0,0:0:0:0:
17,142,20017,1,2,0:0:0:0:
205,38,20154,6,0,L|268:43,1,63.75,8|0,0:0|0:0,0:0:0:0:
313,142,20426,1,2,0:0:0:0:
407,33,20563,2,0,P|415:64|410:96,1,63.75,0|8,0:0|0:0,0:0:0:0:
311,204,20835,2,0,P|306:173|313:142,1,63.75,0|0,0:0|0:0,0:0:0:0:
419,204,21108,5,2,0:0:0:0:
278,280,21245,2,0,P|252:261|234:235,1,63.75,8|0,0:0|0:0,0:0:0:0:
220,123,21517,1,2,0:0:0:0:
125,231,21654,2,0,P|117:200|122:168,1,63.75,0|8,0:0|0:0,0:0:0:0:
222,60,21926,2,0,P|227:91|220:122,1,63.75,0|0,0:0|0:0,0:0:0:0:
114,60,22199,5,2,0:0:0:0:
38,230,22335,2,0,P|55:279|89:307,1,95.625,8|0,0:0|0:0,0:0:0:0:
117,320,22608,2,0,L|117:376,1,31.875,2|0,0:0|0:0,0:0:0:0:
206,243,22745,2,0,L|206:274,1,31.875
277,361,22881,6,0,P|308:368|340:364,1,63.75,8|0,0:0|0:0,0:0:0:0:
348,228,23154,2,0,P|316:223|285:229,1,63.75,0|2,0:0|0:0,0:0:0:0:
427,300,23426,2,0,L|432:237,1,63.75,8|0,0:0|0:0,0:0:0:0:
329,107,23699,2,0,P|316:152|329:198,1,95.625,2|0,0:0|0:0,0:0:0:0:
348,228,23972,1,8,0:0:0:0:
477,165,24108,2,0,L|472:102,1,63.75,2|0,0:0|0:0,0:0:0:0:
418,23,24381,1,2,0:0:0:0:
248,113,24517,6,0,L|185:108,1,63.75,8|0,0:0|0:0,0:0:0:0:
94,46,24790,1,2,0:0:0:0:
16,160,24926,2,0,P|8:190|13:221,1,63.75,0|8,0:0|0:0,0:0:0:0:
119,302,25198,2,0,P|123:270|115:240,1,63.75
39,363,25472,5,2,0:0:0:0:
202,244,25608,2,0,L|265:249,1,63.75,8|0,0:0|0:0,0:0:0:0:
312,371,25881,2,0,L|249:366,1,63.75,2|0,0:0|0:0,0:0:0:0:
256,192,26154,12,0,27108,0:0:0:0:
181,73,27245,5,10,0:0:0:0:
191,91,27654,1,2,0:0:0:0:
202,109,28063,1,2,0:0:0:0:
212,128,28335,5,8,0:0:0:0:
366,141,28472,1,2,0:0:0:0:
376,159,28881,1,2,0:0:0:0:
387,177,29290,5,2,0:0:0:0:
400,331,29426,1,8,0:0:0:0:
390,313,29835,1,2,0:0:0:0:
379,295,30244,1,2,0:0:0:0:
369,276,30516,5,8,0:0:0:0:
215,263,30654,1,2,0:0:0:0:
205,245,31063,1,2,0:0:0:0:
194,227,31472,5,2,0:0:0:0:
291,105,31608,2,0,L|291:46,1,31.875,10|0,0:0|0:0,0:0:0:0:
369,244,32017,6,0,L|369:293,1,31.875,2|0,0:0|0:0,0:0:0:0:
116,88,32426,6,0,L|116:39,1,31.875,10|0,0:0|0:0,0:0:0:0:
440,114,32835,6,0,L|471:114,1,31.875,2|0,0:0|0:0,0:0:0:0:
45,218,33245,6,0,L|13:218,1,31.875,10|0,0:0|0:0,0:0:0:0:
128,172,33381,1,8,0:0:0:0:
199,235,33517,1,8,0:0:0:0:
270,172,33654,1,8,0:0:0:0:
341,235,33790,5,6,0:0:0:0:
256,192,34063,12,0,34881,0:0:0:0:
280,132,35154,5,0,1:0:0:0:
280,132,35290,1,0,1:0:0:0:
344,242,35426,5,8,0:0:0:0:
217,242,35563,1,8,0:0:0:0:
280,352,35700,1,8,0:0:0:0:
360,159,35835,1,8,0:0:0:0:
200,325,35972,6,0,L|137:320,1,63.75,8|0,0:0|0:0,0:0:0:0:
72,248,36245,1,0,0:0:0:0:
64,383,36381,1,0,0:0:0:0:
168,238,36517,2,0,L|163:175,1,63.75,4|0,0:0|0:0,0:0:0:0:
322,160,36790,2,0,L|327:223,1,63.75
264,296,37063,1,8,0:0:0:0:
399,288,37199,1,0,0:0:0:0:
244,183,37335,6,0,P|247:129|281:89,1,95.625
301,79,37608,2,0,P|332:85|364:80,1,63.75,4|0,0:0|0:0,0:0:0:0:
446,32,37881,5,0,0:0:0:0:
463,125,38017,1,0,0:0:0:0:
305,253,38154,1,8,0:0:0:0:
322,160,38290,1,0,0:0:0:0:
444,216,38426,1,0,0:0:0:0:
363,80,38563,1,0,0:0:0:0:
179,188,38699,2,0,P|210:193|242:188,1,63.75,4|0,0:0|0:0,0:0:0:0:
208,25,38972,2,0,P|176:19|145:25,1,63.75
90,159,39245,6,0,L|85:96,1,63.75,8|0,0:0|0:0,0:0:0:0:
208,112,39517,1,0,0:0:0:0:
113,243,39654,1,0,0:0:0:0:
246,251,39790,2,0,L|241:188,1,63.75,4|0,0:0|0:0,0:0:0:0:
364,204,40063,1,8,0:0:0:0:
269,335,40199,1,0,0:0:0:0:
466,238,40335,5,8,0:0:0:0:
460,155,40472,1,0,0:0:0:0:
398,100,40608,1,0,0:0:0:0:
315,105,40745,1,0,0:0:0:0:
364,298,40881,2,0,B|364:272|364:272|372:244|364:204,1,95.625,4|0,0:0|0:0,0:0:0:0:
329,199,41154,2,0,P|298:204|266:199,1,63.75
284,29,41426,6,0,P|315:24|347:29,1,63.75,8|0,0:0|0:0,0:0:0:0:
230,108,41699,1,0,0:0:0:0:
157,45,41835,1,0,0:0:0:0:
88,200,41972,1,4,0:0:0:0:
150,128,42108,1,0,0:0:0:0:
77,65,42245,1,0,0:0:0:0:
15,137,42381,1,0,0:0:0:0:
177,268,42517,6,0,L|304:256,1,127.5,8|0,0:0|0:0,0:0:0:0:
433,65,43063,6,0,L|305:76,1,127.5,4|0,0:0|0:0,0:0:0:0:
394,286,43608,6,0,P|393:224|354:175,1,127.5,8|0,0:0|0:0,0:0:0:0:
257,183,44017,1,0,0:0:0:0:
211,98,44154,6,0,L|211:66,1,31.875,8|0,0:0|0:0,0:0:0:0:
100,266,44426,2,0,L|100:297,1,31.875,8|0,0:0|0:0,0:0:0:0:
324,260,44699,6,0,P|292:255|261:261,1,63.75,8|0,0:0|0:0,0:0:0:0:
192,328,44972,1,0,0:0:0:0:
324,354,45108,1,0,0:0:0:0:
180,244,45245,2,0,P|173:212|179:181,1,63.75,4|0,0:0|0:0,0:0:0:0:
323,118,45517,2,0,P|329:149|324:181,1,63.75
261,261,45790,1,8,0:0:0:0:
393,235,45926,1,0,0:0:0:0:
266,60,46063,6,0,P|244:101|247:148,1,95.625
210,129,46335,2,0,L|147:124,1,63.75,4|0,0:0|0:0,0:0:0:0:
52,127,46608,5,0,0:0:0:0:
1,208,46745,1,0,0:0:0:0:
192,208,46881,1,8,0:0:0:0:
147,124,47017,1,0,0:0:0:0:
146,292,47154,1,0,0:0:0:0:
72,196,47290,1,0,0:0:0:0:
234,290,47426,2,0,P|279:274|325:283,1,95.625,4|0,0:0|0:0,0:0:0:0:
354,298,47699,2,0,P|386:303|417:296,1,63.75
498,174,47972,6,0,L|503:237,1,63.75,8|0,0:0|0:0,0:0:0:0:
380,221,48244,1,0,0:0:0:0:
475,90,48381,1,0,0:0:0:0:
342,82,48517,2,0,L|347:145,1,63.75,4|0,0:0|0:0,0:0:0:0:
226,131,48790,1,8,0:0:0:0:
321,0,48927,1,0,0:0:0:0:
280,196,49063,5,8,0:0:0:0:
196,210,49200,1,0,0:0:0:0:
114,226,49335,1,0,0:0:0:0:
33,241,49472,1,0,0:0:0:0:
110,58,49608,2,0,P|137:97|139:144,1,95.625,4|0,0:0|0:0,0:0:0:0:
163,131,49881,2,0,P|194:125|226:131,1,63.75
232,291,50154,6,0,P|201:296|169:291,1,63.75,8|0,0:0|0:0,0:0:0:0:
288,212,50427,1,0,0:0:0:0:
340,294,50563,1,0,0:0:0:0:
482,205,50699,1,8,0:0:0:0:
384,208,50835,1,0,0:0:0:0:
332,126,50972,1,0,0:0:0:0:
430,123,51108,1,0,0:0:0:0:
280,44,51245,6,0,L|260:7,7,31.875,8|0|0|0|0|0|0|0,0:0|0:0|0:0|0:0|0:0|0:0|0:0|0:0,0:0:0:0:
228,159,51790,6,0,L|213:132,7,31.875,8|0|0|0|0|0|0|0,0:0|0:0|0:0|0:0|0:0|0:0|0:0|0:0,0:0:0:0:
279,274,52335,6,0,L|295:247,7,31.875,8|0|0|0|0|0|8|0,0:0|0:0|0:0|0:0|0:0|0:0|0:0|0:0,0:0:0:0:
357,334,52881,6,0,L|362:380,1,31.875,4|0,0:0|0:0,0:0:0:0:
391,238,53017,2,0,L|414:268,1,31.875,8|0,0:0|0:0,0:0:0:0:
348,138,53154,2,0,L|382:152,1,31.875
309,55,53290,2,0,L|351:49,1,31.875,8|0,0:0|0:0,0:0:0:0:
417,6,53426,6,0,L|480:11,1,63.75,8|0,0:0|0:0,0:0:0:0:
456,104,53699,1,0,0:0:0:0:
341,51,53835,1,8,0:0:0:0:
265,153,53972,2,0,P|236:160|202:155,1,63.75,4|0,0:0|0:0,0:0:0:0:
144,0,54245,2,0,P|163:24|174:54,1,63.75,8|0,0:0|0:0,0:0:0:0:
51,132,54517,2,0,L|57:74,1,31.875
61,52,54654,1,8,0:0:0:0:
144,232,54790,2,0,L|139:295,1,63.75,8|0,0:0|0:0,0:0:0:0:
30,214,55063,6,0,L|62:214,1,31.875,4|0,0:0|0:0,0:0:0:0:
138,295,55199,2,0,L|169:294,1,31.875,8|0,0:0|0:0,0:0:0:0:
244,376,55335,2,0,P|292:373|330:346,1,95.625
356,327,55608,1,8,0:0:0:0:
356,327,55745,5,0,0:0:0:0:
448,367,55881,1,0,0:0:0:0:
488,275,56017,1,8,0:0:0:0:
386,169,56154,1,4,0:0:0:0:
426,77,56290,2,0,L|442:38,1,31.875,0|0,0:0|0:0,0:0:0:0:
402,257,56426,2,0,P|354:253|317:225,1,95.625,8|0,0:0|0:0,0:0:0:0:
294,198,56699,1,8,0:0:0:0:
293,202,56767,1,0,0:0:0:0:
292,207,56835,1,8,0:0:0:0:
291,212,56903,1,0,0:0:0:0:
290,217,56971,1,8,0:0:0:0:
192,242,57108,6,0,L|195:204,1,31.875
227,123,57245,2,0,L|222:60,1,63.75,4|8,0:0|0:0,0:0:0:0:
112,172,57517,2,0,L|80:168,1,31.875
32,160,57654,1,8,0:0:0:0:
129,35,57790,5,8,0:0:0:0:
222,59,57926,1,0,0:0:0:0:
315,35,58063,1,0,0:0:0:0:
408,59,58199,1,8,0:0:0:0:
337,186,58335,2,0,L|342:123,1,63.75,4|0,0:0|0:0,0:0:0:0:
501,138,58608,2,0,L|496:201,1,63.75,8|0,0:0|0:0,0:0:0:0:
403,304,58881,6,0,L|406:272,1,31.875
413,224,59017,1,8,0:0:0:0:
512,300,59154,1,8,0:0:0:0:
393,384,59290,1,0,0:0:0:0:
274,300,59426,2,0,P|229:284|183:294,1,95.625,4|0,0:0|0:0,0:0:0:0:
154,308,59699,2,0,P|122:313|91:306,1,63.75
124,155,59972,5,8,0:0:0:0:
127,170,60040,1,0,0:0:0:0:
128,186,60108,1,0,0:0:0:0:
127,202,60176,1,0,0:0:0:0:
123,217,60244,1,0,0:0:0:0:
33,183,60381,2,0,L|39:125,1,31.875,8|0,0:0|0:0,0:0:0:0:
84,76,60517,1,4,0:0:0:0:
172,80,60654,1,0,0:0:0:0:
256,204,60790,2,0,L|320:196,1,63.75,8|0,0:0|0:0,0:0:0:0:
365,113,61063,5,8,0:0:0:0:
297,49,61199,1,0,0:0:0:0:
433,181,61335,2,0,L|442:243,1,63.75,0|0,0:0|0:0,0:0:0:0:
320,196,61608,1,4,0:0:0:0:
365,113,61744,1,0,0:0:0:0:
273,280,61881,2,0,L|282:342,1,63.75,8|0,0:0|0:0,0:0:0:0:
226,196,62154,6,0,L|163:191,1,63.75,8|0,0:0|0:0,0:0:0:0:
102,265,62426,1,0,0:0:0:0:
48,148,62562,1,8,0:0:0:0:
144,64,62699,2,0,P|149:32|143:1,1,63.75,4|0,0:0|0:0,0:0:0:0:
212,112,62972,2,0,P|243:117|274:111,1,63.75,8|0,0:0|0:0,0:0:0:0:
392,56,63245,2,0,L|398:114,1,31.875,0|0,0:0|0:0,0:0:0:0:
402,136,63382,1,8,0:0:0:0:
306,24,63517,2,0,P|275:18|244:23,1,63.75,8|0,0:0|0:0,0:0:0:0:
277,141,63790,6,0,L|274:110,1,31.875,4|0,0:0|0:0,0:0:0:0:
176,184,63926,2,0,L|157:158,1,31.875,8|0,0:0|0:0,0:0:0:0:
109,270,64063,2,0,P|66:246|43:206,1,95.625
38,181,64336,1,8,0:0:0:0:
38,181,64472,5,0,0:0:0:0:
78,91,64608,1,0,0:0:0:0:
38,1,64744,1,8,0:0:0:0:
185,1,64881,1,4,0:0:0:0:
225,91,65017,2,0,L|242:133,1,31.875,0|0,0:0|0:0,0:0:0:0:
391,2,65154,2,0,P|345:-11|299:0,1,95.625,8|0,0:0|0:0,0:0:0:0:
289,34,65427,1,8,0:0:0:0:
289,34,65495,1,0,0:0:0:0:
289,34,65563,1,8,0:0:0:0:
289,34,65631,1,0,0:0:0:0:
289,34,65699,1,8,0:0:0:0:
361,109,65835,6,0,L|358:140,1,31.875
386,228,65972,2,0,L|391:291,1,63.75,4|0,0:0|0:0,0:0:0:0:
266,212,66245,2,0,L|234:216,1,31.875
186,224,66382,1,0,0:0:0:0:
68,286,66517,5,8,0:0:0:0:
44,193,66653,1,0,0:0:0:0:
68,100,66790,1,0,0:0:0:0:
44,6,66926,1,8,0:0:0:0:
195,28,67063,2,0,P|164:35|132:32,1,63.75,4|0,0:0|0:0,0:0:0:0:
290,28,67335,2,0,P|321:25|352:32,1,63.75,8|0,0:0|0:0,0:0:0:0:
231,178,67608,6,0,L|234:146,1,31.875
241,98,67744,1,8,0:0:0:0:
130,156,67881,1,8,0:0:0:0:
229,266,68017,1,0,0:0:0:0:
369,214,68154,2,0,P|382:168|370:122,1,95.625,4|0,0:0|0:0,0:0:0:0:
354,94,68427,2,0,P|347:62|352:30,1,63.75
485,34,68699,6,0,P|489:65|482:96,1,63.75,8|8,0:0|0:0,0:0:0:0:
456,176,69245,2,0,P|452:208|459:239,1,63.75,12|0,0:0|0:0,0:0:0:0:
491,325,69654,1,0,0:0:0:0:
491,325,69722,1,0,0:0:0:0:
491,325,69790,6,0,L|427:330,1,63.75
341,286,70063,2,0,L|308:267,1,31.875
226,314,70199,2,0,L|193:333,1,31.875
110,286,70335,6,0,P|97:256|96:224,1,63.75,12|0,0:0|0:0,0:0:0:0:
144,164,70608,2,0,P|157:134|158:102,1,63.75
232,32,70881,6,0,P|290:46|365:47,1,127.5,0|0,0:0|0:0,0:0:0:0:
457,19,71290,1,8,0:0:0:0:
433,119,71426,1,4,0:0:0:0:
440,140,71699,5,8,0:0:0:0:
480,236,71835,2,0,L|480:280,1,31.875
380,292,71972,2,0,L|358:330,1,31.875
265,290,72108,1,8,0:0:0:0:
312,124,72245,2,0,B|324:116|324:116|336:160|326:197,1,95.625,8|0,0:0|0:0,0:0:0:0:
294,213,72517,2,0,P|262:208|231:215,1,63.75,4|8,0:0|0:0,0:0:0:0:
152,268,72790,5,0,0:0:0:0:
80,172,72972,1,0,0:0:0:0:
64,168,73063,2,0,L|59:231,1,63.75,8|0,0:0|0:0,0:0:0:0:
84,359,73335,6,0,L|79:327,1,31.875
172,80,73608,6,0,L|203:84,1,31.875,6|0,0:0|0:0,0:0:0:0:
416,240,73881,6,0,L|411:271,1,31.875,10|0,0:0|0:0,0:0:0:0:
160,272,74154,6,0,P|179:246|205:229,1,63.75,2|8,0:0|0:0,0:0:0:0:
303,199,74426,1,8,0:0:0:0:
120,248,74563,2,0,P|143:226|172:214,1,63.75,0|4,0:0|0:0,0:0:0:0:
312,205,74835,1,8,0:0:0:0:
85,217,74972,2,0,P|111:199|142:192,1,63.75,0|8,0:0|0:0,0:0:0:0:
321,199,75245,6,0,P|361:130|355:70,1,127.5,8|0,0:0|0:0,0:0:0:0:
259,114,75654,1,8,0:0:0:0:
205,27,75790,2,0,P|159:13|114:26,1,95.625,4|0,0:0|0:0,0:0:0:0:
46,69,76063,2,0,P|98:104|159:92,1,127.5,8|0,0:0|0:0,0:0:0:0:
114,26,76472,5,8,0:0:0:0:
15,156,76608,2,0,P|10:188|15:219,1,63.75,8|0,0:0|0:0,0:0:0:0:
121,218,76881,2,0,P|140:245|166:262,1,63.75,4|8,0:0|0:0,0:0:0:0:
241,187,77154,2,0,L|273:184,1,31.875
321,177,77290,1,8,0:0:0:0:
260,298,77426,2,0,B|251:286|251:286|294:271|331:278,1,95.625,8|0,0:0|0:0,0:0:0:0:
380,295,77699,6,0,P|411:301|442:295,1,63.75,0|8,0:0|0:0,0:0:0:0:
383,176,77972,2,0,P|351:182|320:176,1,63.75,4|0,0:0|0:0,0:0:0:0:
464,96,78245,2,0,L|467:64,1,31.875,8|0,0:0|0:0,0:0:0:0:
474,16,78381,1,0,0:0:0:0:
372,52,78517,5,8,0:0:0:0:
272,22,78654,2,0,P|267:54|272:85,1,63.75
320,177,78926,1,8,0:0:0:0:
230,288,79063,5,4,0:0:0:0:
135,300,79199,1,0,0:0:0:0:
64,234,79335,1,8,0:0:0:0:
67,137,79472,1,0,0:0:0:0:
196,194,79608,6,0,B|202:233|151:242|121:225|121:178|148:151|172:137|168:70,1,223.125,4|0,0:0|0:0,0:0:0:0:
167,47,80154,2,0,P|213:60|258:46,1,95.625,4|0,0:0|0:0,0:0:0:0:
343,16,80426,6,0,L|340:48,1,31.875
415,135,80563,2,0,L|424:220,1,63.75
341,323,80835,6,0,L|338:291,1,31.875
263,204,80972,1,8,0:0:0:0:
341,138,81245,1,8,0:0:0:0:
185,270,81517,1,8,0:0:0:0:
95,179,81699,1,0,0:0:0:0:
90,158,81790,2,0,P|122:152|153:157,1,63.75
189,301,82063,6,0,L|184:269,1,31.875
416,336,82335,6,0,L|411:304,1,31.875,2|0,0:0|0:0,0:0:0:0:
512,86,82608,6,0,L|507:118,1,31.875,2|0,0:0|0:0,0:0:0:0:
269,137,82881,6,0,P|278:89|294:45,1,95.625,2|0,0:0|0:0,0:0:0:0:
302,215,83290,5,0,0:0:0:0:
271,219,83358,1,0,0:0:0:0:
239,214,83426,1,0,0:0:0:0:
352,148,83563,5,0,0:0:0:0:
384,240,83699,1,0,0:0:0:0:
308,296,83835,1,0,0:0:0:0:
271,384,83972,1,8,0:0:0:0:
140,296,84517,5,4,0:0:0:0:
184,148,85335,6,0,L|164:200,1,31.875,8|0,0:0|0:0,0:0:0:0:
319,266,85608,2,0,L|319:328,1,31.875,8|0,0:0|0:0,0:0:0:0:
454,148,85881,2,0,L|474:200,1,31.875,8|0,0:0|0:0,0:0:0:0:
49,181,86426,6,0,L|37:151,1,31.875
184,63,86699,2,0,L|184:1,1,31.875
319,181,86972,2,0,L|330:151,1,31.875
133,298,87245,5,8,0:0:0:0:
152,162,87381,1,0,0:0:0:0:
270,300,87517,1,8,0:0:0:0:
211,231,87654,1,0,0:0:0:0:
379,308,87790,5,4,0:0:0:0:
470,225,87926,1,0,0:0:0:0:
387,134,88063,1,0,0:0:0:0:
296,217,88199,1,0,0:0:0:0:
138,44,88335,5,8,0:0:0:0:
293,156,97063,6,0,P|290:187|292:219,1,63.75,8|0,0:0|0:0,0:0:0:0:
364,283,97335,1,0,0:0:0:0:
377,187,97472,1,2,0:0:0:0:
270,313,97608,6,0,L|214:308,1,31.875,8|0,0:0|0:0,0:0:0:0:
153,195,97881,2,0,L|121:197,1,31.875,2|0,0:0|0:0,0:0:0:0:
142,366,98154,6,0,P|143:334|141:302,1,63.75,8|2,0:0|0:0,0:0:0:0:
22,244,98426,2,0,P|20:276|22:308,1,63.75,0|2,0:0|0:0,0:0:0:0:
121,197,98699,2,0,P|95:156|4:139,1,127.5,8|2,0:0|0:0,0:0:0:0:
226,86,99245,6,0,P|194:82|162:85,2,63.75,8|0|0,0:0|0:0|0:0,0:0:0:0:
318,117,99654,1,2,0:0:0:0:
195,229,99790,2,0,P|191:197|194:165,1,63.75,8|0,0:0|0:0,0:0:0:0:
410,148,100063,6,0,P|441:151|473:148,2,63.75,2|0|8,0:0|0:0|0:0,0:0:0:0:
318,117,100472,1,0,0:0:0:0:
441,5,100608,2,0,P|444:36|441:68,1,63.75,0|2,0:0|0:0,0:0:0:0:
318,180,100881,6,0,P|314:148|318:116,2,63.75,8|0|0,0:0|0:0|0:0,0:0:0:0:
349,272,101290,1,0,0:0:0:0:
241,337,101426,2,0,L|165:330,1,63.75,8|0,0:0|0:0,0:0:0:0:
231,190,101699,6,0,P|233:222|231:254,1,63.75,0|2,0:0|0:0,0:0:0:0:
161,125,101972,2,0,P|181:100|205:80,1,63.75,8|0,0:0|0:0,0:0:0:0:
153,221,102245,2,0,P|95:195|66:140,1,127.5,2|8,0:0|0:0,0:0:0:0:
97,49,102654,1,2,0:0:0:0:
161,125,102790,1,0,0:0:0:0:
73,221,102926,6,0,P|68:252|73:284,1,63.75,0|8,0:0|0:0,0:0:0:0:
231,253,103199,2,0,P|235:221|231:190,1,63.75,0|2,0:0|0:0,0:0:0:0:
160,313,103472,2,0,L|163:344,1,31.875
258,346,103608,2,0,L|261:377,2,31.875,8|0|0,0:0|0:0|0:0,0:0:0:0:
326,277,103881,1,0,0:0:0:0:
394,346,104017,1,2,0:0:0:0:
470,250,104154,6,0,P|473:218|469:186,1,63.75,8|0,0:0|0:0,0:0:0:0:
348,91,104426,2,0,P|345:123|349:155,1,63.75,2|0,0:0|0:0,0:0:0:0:
407,31,104699,2,0,P|366:9|319:12,1,95.625,8|0,0:0|0:0,0:0:0:0:
288,23,104972,2,0,P|256:17|225:23,1,63.75,0|2,0:0|0:0,0:0:0:0:
250,165,105245,2,0,L|257:102,1,63.75,8|0,0:0|0:0,0:0:0:0:
143,7,105517,2,0,L|134:70,1,63.75,2|0,0:0|0:0,0:0:0:0:
281,244,105790,6,0,P|249:246|217:243,1,63.75,4|0,0:0|0:0,0:0:0:0:
143,182,106063,1,0,0:0:0:0:
130,276,106199,1,2,0:0:0:0:
250,165,106335,6,0,L|306:160,1,31.875,8|0,0:0|0:0,0:0:0:0:
398,284,106608,2,0,L|366:282,1,31.875,10|0,0:0|0:0,0:0:0:0:
389,117,106881,6,0,L|384:180,1,63.75,8|2,0:0|0:0,0:0:0:0:
498,249,107154,2,0,L|503:186,1,63.75,0|2,0:0|0:0,0:0:0:0:
489,82,107426,1,8,0:0:0:0:
398,284,107699,1,2,0:0:0:0:
248,96,107972,6,0,P|280:92|312:95,2,63.75,8|0|0,0:0|0:0|0:0,0:0:0:0:
156,127,108381,1,2,0:0:0:0:
279,239,108517,2,0,P|283:207|280:175,1,63.75,8|0,0:0|0:0,0:0:0:0:
63,158,108790,6,0,P|31:162|-1:159,2,63.75,2|0|8,0:0|0:0|0:0,0:0:0:0:
156,127,109199,1,0,0:0:0:0:
33,15,109335,2,0,P|29:47|32:79,1,63.75,0|2,0:0|0:0,0:0:0:0:
156,190,109608,6,0,P|160:158|156:126,2,63.75,8|0|2,0:0|0:0|0:0,0:0:0:0:
125,282,110017,1,0,0:0:0:0:
2,245,110154,1,8,0:0:0:0:
94,325,110290,6,0,P|126:321|158:324,1,63.75
266,361,110563,1,2,0:0:0:0:
290,208,110699,2,0,P|265:228|245:253,1,63.75,8|0,0:0|0:0,0:0:0:0:
374,346,110972,2,0,P|376:314|372:282,1,63.75,2|0,0:0|0:0,0:0:0:0:
266,361,111245,1,8,0:0:0:0:
319,191,111381,6,0,L|314:128,1,63.75,2|0,0:0|0:0,0:0:0:0:
462,93,111654,2,0,L|467:156,1,63.75,2|8,0:0|0:0,0:0:0:0:
346,50,111926,2,0,P|314:46|282:48,1,63.75,0|2,0:0|0:0,0:0:0:0:
214,105,112199,2,0,L|211:74,1,31.875
116,72,112335,2,0,L|113:41,2,31.875,8|0|0,0:0|0:0|0:0,0:0:0:0:
57,148,112608,1,0,0:0:0:0:
126,216,112744,1,2,0:0:0:0:
37,299,112881,6,0,P|33:267|37:235,1,63.75,8|0,0:0|0:0,0:0:0:0:
202,248,113154,2,0,P|205:216|203:184,1,63.75,2|0,0:0|0:0,0:0:0:0:
142,343,113426,2,0,B|169:342|169:342|197:350|237:342,1,95.625,8|0,0:0|0:0,0:0:0:0:
267,332,113699,2,0,P|298:328|330:332,1,63.75,0|2,0:0|0:0,0:0:0:0:
444,377,113972,2,0,L|452:240,1,127.5,8|0,0:0|0:0,0:0:0:0:
204,170,114517,6,0,P|229:108|285:86,2,127.5,4|0|0,0:0|0:0|0:0,0:0:0:0:
285,168,115199,1,0,0:0:0:0:
151,71,115335,2,0,P|125:128|121:192,1,127.5,4|0,0:0|0:0,0:0:0:0:
368,216,115881,6,0,L|373:153,1,63.75
287,264,116154,2,0,L|282:327,1,63.75,4|0,0:0|0:0,0:0:0:0:
368,216,116426,1,0,0:0:0:0:
285,168,116563,1,0,0:0:0:0:
198,279,116699,6,0,P|150:279|110:254,1,95.625,4|0,0:0|0:0,0:0:0:0:
87,230,116972,2,0,L|92:167,1,63.75
181,180,117245,1,0,0:0:0:0:
181,180,117381,1,0,0:0:0:0:
97,84,117517,2,0,L|102:21,1,63.75,4|0,0:0|0:0,0:0:0:0:
209,64,117790,5,0,0:0:0:0:
245,84,117881,1,0,0:0:0:0:
285,96,117972,1,0,0:0:0:0:
329,96,118063,1,0,0:0:0:0:
369,84,118154,1,0,0:0:0:0:
409,64,118245,1,0,0:0:0:0:
433,28,118335,5,0,0:0:0:0:
341,0,118472,1,0,0:0:0:0:
329,96,118608,1,8,0:0:0:0:
389,172,118745,1,8,0:0:0:0:
329,248,118881,5,4,0:0:0:0:
293,268,118972,1,0,0:0:0:0:
249,268,119063,1,0,0:0:0:0:
213,248,119154,1,0,0:0:0:0:
169,248,119245,1,0,0:0:0:0:
133,268,119336,1,0,0:0:0:0:
117,308,119426,1,0,0:0:0:0:
73,272,119517,1,0,0:0:0:0:
57,220,119608,1,0,0:0:0:0:
57,164,119699,5,4,0:0:0:0:
97,172,119790,1,0,0:0:0:0:
137,164,119881,1,0,0:0:0:0:
169,136,119972,1,0,0:0:0:0:
93,72,120108,1,0,0:0:0:0:
201,164,120245,5,0,0:0:0:0:
299,81,120381,1,0,0:0:0:0:
397,164,120517,2,0,P|426:150|452:131,1,63.75,4|0,0:0|0:0,0:0:0:0:
299,180,120790,1,0,0:0:0:0:
299,279,120926,1,0,0:0:0:0:
405,349,121063,6,0,L|471:340,1,63.75,4|0,0:0|0:0,0:0:0:0:
468,340,121335,1,0,0:0:0:0:
362,271,121472,2,0,L|298:279,1,63.75
115,221,121881,5,4,0:0:0:0:
175,297,122017,1,0,0:0:0:0:
39,281,122154,1,0,0:0:0:0:
99,357,122290,1,0,0:0:0:0:
123,209,122426,1,0,0:0:0:0:
183,285,122563,1,0,0:0:0:0:
47,269,122699,5,0,0:0:0:0:
35,173,122835,1,0,0:0:0:0:
111,113,122972,1,0,0:0:0:0:
135,217,123108,1,0,0:0:0:0:
275,145,123245,6,0,P|277:113|274:81,1,63.75,4|0,0:0|0:0,0:0:0:0:
117,36,123517,2,0,P|114:67|117:99,1,63.75
117,99,123722,1,0,0:0:0:0:
117,99,123790,1,0,0:0:0:0:
249,70,123926,5,0,0:0:0:0:
280,67,123994,1,0,0:0:0:0:
312,69,124062,1,4,0:0:0:0:
387,128,124199,1,0,0:0:0:0:
331,205,124335,1,0,0:0:0:0:
387,281,124472,1,0,0:0:0:0:
443,205,124608,1,0,0:0:0:0:
315,205,124745,1,0,0:0:0:0:
223,293,124881,6,0,P|175:293|135:268,2,95.625,4|0|0,0:0|0:0|0:0,0:0:0:0:
188,137,125426,6,0,L|196:200,1,63.75,4|0,0:0|0:0,0:0:0:0:
196,200,125699,1,0,0:0:0:0:
98,179,125835,1,0,0:0:0:0:
286,158,125972,2,0,L|278:95,1,63.75
277,94,126245,1,4,0:0:0:0:
188,137,126381,5,0,0:0:0:0:
281,253,126517,2,0,P|312:247|341:236,2,63.75
286,158,126926,1,0,0:0:0:0:
423,205,127063,2,0,P|425:236|423:268,1,63.75
375,121,127335,1,8,0:0:0:0:
471,121,127472,1,8,0:0:0:0:
503,289,127608,6,0,B|487:340|435:350|435:350|439:385,1,127.5,4|0,0:0|0:0,0:0:0:0:
407,373,127949,1,0,0:0:0:0:
375,365,128017,1,0,0:0:0:0:
343,365,128085,1,0,0:0:0:0:
311,373,128154,2,0,P|249:368|209:320,1,127.5,0|4,0:0|0:0,0:0:0:0:
195,293,128495,1,0,0:0:0:0:
179,265,128563,1,0,0:0:0:0:
155,245,128631,1,0,0:0:0:0:
127,229,128699,5,0,0:0:0:0:
143,193,128767,1,0,0:0:0:0:
175,173,128835,1,0,0:0:0:0:
215,173,128904,1,0,0:0:0:0:
247,153,128972,1,0,0:0:0:0:
499,145,129245,5,4,0:0:0:0:
494,176,129313,1,0,0:0:0:0:
478,203,129381,1,0,0:0:0:0:
452,221,129449,1,0,0:0:0:0:
420,227,129517,1,0,0:0:0:0:
390,220,129585,1,0,0:0:0:0:
364,201,129654,1,0,0:0:0:0:
348,174,129722,1,0,0:0:0:0:
345,142,129790,6,0,L|348:111,3,31.875
427,85,130063,1,0,0:0:0:0:
426,117,130131,1,0,0:0:0:0:
422,148,130199,1,0,0:0:0:0:
378,259,130335,6,0,L|381:290,3,31.875
302,317,130608,1,0,0:0:0:0:
297,285,130676,1,0,0:0:0:0:
295,252,130744,1,0,0:0:0:0:
452,221,130881,6,0,L|455:252,7,31.875
461,299,131426,1,0,0:0:0:0:
455,346,131495,2,0,L|452:377,6,31.875
461,299,131972,5,4,0:0:0:0:
388,204,140699,6,0,P|355:205|325:194,1,63.75,8|0,0:0|0:0,0:0:0:0:
464,169,140972,1,0,0:0:0:0:
447,264,141108,1,2,0:0:0:0:
344,98,141245,2,0,P|376:97|406:109,1,63.75,8|0,0:0|0:0,0:0:0:0:
269,133,141518,1,2,0:0:0:0:
287,38,141654,1,0,0:0:0:0:
132,108,141790,6,0,L|137:171,1,63.75,8|2,0:0|0:0,0:0:0:0:
208,72,142063,1,0,0:0:0:0:
124,24,142199,1,2,0:0:0:0:
61,207,142335,2,0,L|66:270,1,63.75,8|0,0:0|0:0,0:0:0:0:
137,171,142608,1,2,0:0:0:0:
53,123,142744,1,0,0:0:0:0:
148,256,142881,6,0,P|180:257|210:246,1,63.75,8|0,0:0|0:0,0:0:0:0:
284,184,143154,1,0,0:0:0:0:
276,88,143290,1,2,0:0:0:0:
420,256,143426,2,0,P|387:257|357:246,1,63.75,8|0,0:0|0:0,0:0:0:0:
284,184,143699,1,2,0:0:0:0:
292,88,143835,1,0,0:0:0:0:
125,123,143972,6,0,L|188:128,1,63.75,8|0,0:0|0:0,0:0:0:0:
284,184,144245,1,0,0:0:0:0:
276,88,144381,1,2,0:0:0:0:
443,123,144517,2,0,L|380:128,1,63.75,8|0,0:0|0:0,0:0:0:0:
284,184,144790,1,2,0:0:0:0:
292,88,144926,1,0,0:0:0:0:
220,248,145063,6,0,P|187:249|157:238,1,63.75,8|0,0:0|0:0,0:0:0:0:
304,264,145335,1,0,0:0:0:0:
312,360,145471,1,2,0:0:0:0:
283,184,145608,2,0,P|315:182|345:193,1,63.75,8|0,0:0|0:0,0:0:0:0:
200,168,145880,1,2,0:0:0:0:
192,72,146016,1,0,0:0:0:0:
333,33,146154,6,0,L|328:96,1,63.75,8|2,0:0|0:0,0:0:0:0:
344,192,146426,1,0,0:0:0:0:
440,184,146562,1,2,0:0:0:0:
264,156,146699,2,0,L|259:219,1,63.75,8|0,0:0|0:0,0:0:0:0:
275,315,146971,1,2,0:0:0:0:
371,307,147107,1,0,0:0:0:0:
204,356,147245,6,0,P|193:326|194:294,1,63.75,8|0,0:0|0:0,0:0:0:0:
258,219,147517,1,0,0:0:0:0:
164,200,147654,1,2,0:0:0:0:
80,352,147790,2,0,P|90:322|90:290,1,63.75,8|0,0:0|0:0,0:0:0:0:
26,214,148062,1,2,0:0:0:0:
116,199,148199,1,0,0:0:0:0:
256,192,148335,12,0,149290,0:0:0:0:
396,107,149426,5,2,0:0:0:0:
378,117,149835,1,2,0:0:0:0:
360,128,150244,1,2,0:0:0:0:
341,138,150516,5,8,0:0:0:0:
328,292,150653,1,2,0:0:0:0:
310,302,151062,1,2,0:0:0:0:
292,313,151471,5,2,0:0:0:0:
138,326,151607,1,2,0:0:0:0:
156,316,152016,1,2,0:0:0:0:
174,305,152425,1,2,0:0:0:0:
193,295,152699,5,8,0:0:0:0:
206,141,152835,1,2,0:0:0:0:
224,131,153244,1,8,0:0:0:0:
242,120,153654,5,8,0:0:0:0:
376,195,153791,2,0,L|412:195,1,31.875,10|0,0:0|0:0,0:0:0:0:
360,379,154199,6,0,L|324:379,1,31.875,2|0,0:0|0:0,0:0:0:0:
356,63,154608,6,0,L|387:63,1,31.875,10|0,0:0|0:0,0:0:0:0:
52,303,155017,6,0,L|52:334,1,31.875,2|0,0:0|0:0,0:0:0:0:
242,79,155426,6,0,L|242:47,1,31.875,10|0,0:0|0:0,0:0:0:0:
196,162,155562,1,8,0:0:0:0:
259,233,155698,1,8,0:0:0:0:
196,304,155835,1,8,0:0:0:0:
259,375,155971,5,6,0:0:0:0:
196,304,156245,1,8,0:0:0:0:
259,233,156517,1,2,0:0:0:0:
259,233,156926,1,2,0:0:0:0:
196,162,157199,1,2,0:0:0:0:
242,79,157335,5,0,0:0:0:0:
242,79,157472,1,0,0:0:0:0:
338,162,157608,5,8,0:0:0:0:
388,44,157745,1,8,0:0:0:0:
463,146,157881,1,8,0:0:0:0:
303,11,158017,1,8,0:0:0:0:
410,227,158154,6,0,L|405:290,1,63.75,8|0,0:0|0:0,0:0:0:0:
333,355,158427,1,0,0:0:0:0:
468,363,158563,1,0,0:0:0:0:
323,259,158699,2,0,L|260:264,1,63.75,4|0,0:0|0:0,0:0:0:0:
280,106,158972,6,0,L|343:101,1,63.75
416,164,159245,1,8,0:0:0:0:
408,29,159381,1,0,0:0:0:0:
316,183,159517,6,0,L|193:194,1,95.625
192,171,159790,2,0,L|129:166,1,63.75,4|0,0:0|0:0,0:0:0:0:
40,120,160063,5,0,0:0:0:0:
57,27,160199,1,0,0:0:0:0:
256,99,160335,1,8,0:0:0:0:
239,6,160471,1,0,0:0:0:0:
192,171,160608,1,0,0:0:0:0:
57,27,160745,1,0,0:0:0:0:
8,208,160881,2,0,P|40:213|71:207,1,63.75,4|0,0:0|0:0,0:0:0:0:
184,72,161154,2,0,P|151:66|120:72,1,63.75
187,234,161426,6,0,L|192:171,1,63.75,8|0,0:0|0:0,0:0:0:0:
116,279,161699,1,0,0:0:0:0:
232,351,161835,1,0,0:0:0:0:
332,227,161972,2,0,L|337:164,1,63.75,4|0,0:0|0:0,0:0:0:0:
261,272,162245,1,8,0:0:0:0:
377,344,162381,1,0,0:0:0:0:
252,163,162517,5,8,0:0:0:0:
296,91,162654,1,0,0:0:0:0:
380,91,162790,1,0,0:0:0:0:
420,163,162926,1,0,0:0:0:0:
321,2,163063,2,0,P|273:-1|232:23,1,95.625,4|0,0:0|0:0,0:0:0:0:
213,52,163335,2,0,P|180:46|149:52,1,63.75
123,206,163608,6,0,P|91:213|60:207,1,63.75,8|0,0:0|0:0,0:0:0:0:
179,128,163881,1,0,0:0:0:0:
221,213,164017,1,0,0:0:0:0:
383,213,164154,1,4,0:0:0:0:
425,128,164290,1,0,0:0:0:0:
344,76,164426,1,0,0:0:0:0:
302,161,164562,1,0,0:0:0:0:
455,329,164699,6,0,L|467:202,1,127.5,8|0,0:0|0:0,0:0:0:0:
221,213,165245,6,0,L|209:340,1,127.5,4|0,0:0|0:0,0:0:0:0:
37,191,165790,6,0,P|85:150|147:149,1,127.5,8|0,0:0|0:0,0:0:0:0:
221,213,166199,1,8,0:0:0:0:
267,128,166335,6,0,L|267:96,1,31.875,4|0,0:0|0:0,0:0:0:0:
119,240,166608,2,0,L|119:271,1,31.875,8|0,0:0|0:0,0:0:0:0:
334,260,166881,6,0,P|341:228|335:197,1,63.75,8|0,0:0|0:0,0:0:0:0:
267,128,167154,1,0,0:0:0:0:
400,127,167290,1,0,0:0:0:0:
236,51,167426,6,0,P|267:45|298:51,1,63.75,4|0,0:0|0:0,0:0:0:0:
256,211,167699,2,0,P|224:217|193:211,1,63.75
123,143,167972,1,8,0:0:0:0:
122,276,168108,1,0,0:0:0:0:
338,168,168245,6,0,P|347:214|334:260,1,95.625
316,291,168517,2,0,L|321:354,1,63.75,4|0,0:0|0:0,0:0:0:0:
256,211,168790,5,0,0:0:0:0:
262,115,168926,1,0,0:0:0:0:
424,218,169063,1,8,0:0:0:0:
430,122,169199,1,0,0:0:0:0:
334,260,169335,1,0,0:0:0:0:
342,130,169472,1,0,0:0:0:0:
233,291,169608,2,0,P|187:277|141:288,1,95.625,4|0,0:0|0:0,0:0:0:0:
113,305,169881,2,0,P|81:311|49:306,1,63.75
73,165,170154,6,0,L|78:228,1,63.75,8|0,0:0|0:0,0:0:0:0:
2,120,170427,1,0,0:0:0:0:
118,48,170563,1,0,0:0:0:0:
218,172,170700,2,0,L|223:235,1,63.75,8|0,0:0|0:0,0:0:0:0:
147,127,170973,1,8,0:0:0:0:
263,55,171109,1,0,0:0:0:0:
394,209,171245,5,8,0:0:0:0:
434,132,171382,1,0,0:0:0:0:
412,52,171517,1,0,0:0:0:0:
340,10,171655,1,0,0:0:0:0:
231,139,171790,2,0,P|278:142|321:122,1,95.625,4|0,0:0|0:0,0:0:0:0:
310,144,172063,2,0,P|303:176|309:207,1,63.75
263,349,172335,6,0,P|269:317|263:286,1,63.75,8|0,0:0|0:0,0:0:0:0:
104,241,172608,1,0,0:0:0:0:
51,312,172745,1,0,0:0:0:0:
193,235,172881,1,4,0:0:0:0:
165,143,173018,1,0,0:0:0:0:
72,127,173154,1,0,0:0:0:0:
12,203,173291,1,0,0:0:0:0:
129,66,173426,6,0,L|157:50,7,31.875,8|0|0|0|0|0|0|0,0:0|0:0|0:0|0:0|0:0|0:0|0:0|0:0,0:0:0:0:
245,117,173972,6,0,L|272:102,7,31.875,4|0|0|0|0|0|0|0,0:0|0:0|0:0|0:0|0:0|0:0|0:0|0:0,0:0:0:0:
360,33,174517,6,0,L|387:49,7,31.875,8|0|0|0|0|0|8|0,0:0|0:0|0:0|0:0|0:0|0:0|0:0|0:0,0:0:0:0:
350,156,175063,6,0,L|354:125,1,31.875,4|0,0:0|0:0,0:0:0:0:
271,226,175199,2,0,L|251:200,1,31.875,8|0,0:0|0:0,0:0:0:0:
363,282,175335,2,0,L|366:250,1,31.875,8|0,0:0|0:0,0:0:0:0:
284,351,175471,2,0,L|261:321,1,31.875,8|0,0:0|0:0,0:0:0:0:
194,274,175608,6,0,L|131:279,1,63.75,8|0,0:0|0:0,0:0:0:0:
53,335,175881,1,0,0:0:0:0:
21,211,176017,1,8,0:0:0:0:
146,184,176154,2,0,P|150:152|143:121,1,63.75,4|0,0:0|0:0,0:0:0:0:
39,49,176426,2,0,P|34:80|41:111,1,63.75,8|0,0:0|0:0,0:0:0:0:
222,43,176699,2,0,L|190:39,1,31.875
142,33,176836,1,8,0:0:0:0:
254,150,176972,2,0,L|317:145,1,63.75,8|0,0:0|0:0,0:0:0:0:
311,29,177245,6,0,L|306:60,1,31.875,4|4,0:0|0:0,0:0:0:0:
409,104,177381,2,0,L|409:136,1,31.875
511,185,177517,2,0,P|508:232|481:270,1,95.625
462,297,177790,1,8,0:0:0:0:
462,297,177926,5,0,0:0:0:0:
371,251,178063,1,0,0:0:0:0:
325,342,178199,1,8,0:0:0:0:
196,270,178335,1,4,0:0:0:0:
242,179,178472,2,0,L|254:149,1,31.875
240,340,178608,2,0,P|194:353|150:340,1,95.625,8|0,0:0|0:0,0:0:0:0:
125,318,178881,1,8,0:0:0:0:
124,314,178949,1,0,0:0:0:0:
123,309,179017,1,8,0:0:0:0:
122,304,179085,1,0,0:0:0:0:
121,299,179153,1,8,0:0:0:0:
54,222,179290,6,0,L|51:184,1,31.875
19,103,179427,2,0,L|24:40,1,63.75,4|8,0:0|0:0,0:0:0:0:
136,148,179699,2,0,L|168:144,1,31.875
216,136,179836,1,8,0:0:0:0:
339,43,179972,5,8,0:0:0:0:
315,136,180108,1,0,0:0:0:0:
339,229,180245,1,0,0:0:0:0:
315,322,180381,1,8,0:0:0:0:
189,255,180517,2,0,P|220:249|252:255,1,63.75,4|0,0:0|0:0,0:0:0:0:
212,383,180790,2,0,P|180:388|149:383,1,63.75,8|0,0:0|0:0,0:0:0:0:
192,223,181063,6,0,L|189:255,1,31.875
182,303,181199,1,8,0:0:0:0:
83,227,181336,1,8,0:0:0:0:
176,115,181472,1,0,0:0:0:0:
298,194,181608,2,0,P|343:210|389:200,1,95.625,4|0,0:0|0:0,0:0:0:0:
418,186,181881,2,0,P|450:181|481:188,1,63.75
349,56,182154,5,8,0:0:0:0:
346,71,182222,1,0,0:0:0:0:
345,87,182290,1,8,0:0:0:0:
346,103,182358,1,0,0:0:0:0:
350,118,182426,1,8,0:0:0:0:
418,186,182563,2,0,L|414:217,1,31.875
367,293,182699,1,4,0:0:0:0:
415,367,182835,1,0,0:0:0:0:
280,306,182972,2,0,L|216:314,1,63.75,8|0,0:0|0:0,0:0:0:0:
168,234,183245,5,8,0:0:0:0:
216,154,183381,1,0,0:0:0:0:
119,314,183517,2,0,P|87:319|56:312,1,63.75,0|8,0:0|0:0,0:0:0:0:
168,234,183790,1,4,0:0:0:0:
216,314,183926,1,0,0:0:0:0:
119,154,184063,2,0,P|87:149|56:156,1,63.75,8|0,0:0|0:0,0:0:0:0:
216,154,184335,6,0,L|221:91,1,63.75,8|0,0:0|0:0,0:0:0:0:
180,4,184608,1,0,0:0:0:0:
304,44,184745,1,8,0:0:0:0:
295,171,184881,2,0,P|320:191|350:202,1,63.75,4|0,0:0|0:0,0:0:0:0:
418,74,185153,2,0,P|389:86|366:108,1,63.75,8|0,0:0|0:0,0:0:0:0:
450,249,185426,2,0,L|446:217,1,31.875
440,169,185563,1,8,0:0:0:0:
350,300,185699,2,0,L|355:363,1,63.75,8|0,0:0|0:0,0:0:0:0:
268,249,185972,6,0,L|265:218,1,31.875,4|0,0:0|0:0,0:0:0:0:
167,292,186108,2,0,L|148:266,1,31.875,8|0,0:0|0:0,0:0:0:0:
100,378,186245,2,0,P|57:354|34:314,1,95.625
29,289,186518,1,8,0:0:0:0:
29,289,186654,5,0,0:0:0:0:
66,198,186790,1,0,0:0:0:0:
29,106,186926,1,8,0:0:0:0:
179,174,187063,1,4,0:0:0:0:
139,84,187131,2,0,L|142:52,1,31.875
338,115,187335,2,0,P|292:127|247:116,1,95.625
220,96,187608,1,8,0:0:0:0:
221,91,187676,1,0,0:0:0:0:
222,87,187744,1,8,0:0:0:0:
224,82,187812,1,0,0:0:0:0:
226,77,187881,1,8,0:0:0:0:
308,16,188017,6,0,L|339:13,1,31.875
427,41,188154,2,0,L|489:46,1,63.75,4|8,0:0|0:0,0:0:0:0:
416,164,188426,2,0,L|420:196,1,31.875
428,244,188563,1,8,0:0:0:0:
340,344,188699,5,8,0:0:0:0:
247,320,188835,1,0,0:0:0:0:
154,344,188972,1,0,0:0:0:0:
61,320,189108,1,8,0:0:0:0:
132,193,189245,2,0,L|127:256,1,63.75,4|0,0:0|0:0,0:0:0:0:
36,136,189517,2,0,L|41:73,1,63.75,8|0,0:0|0:0,0:0:0:0:
224,108,189790,6,0,L|221:140,1,31.875
214,188,189926,1,8,0:0:0:0:
115,112,190063,1,8,0:0:0:0:
209,0,190199,1,0,0:0:0:0:
311,104,190335,2,0,P|357:91|403:102,1,95.625,4|0,0:0|0:0,0:0:0:0:
432,119,190608,2,0,P|464:126|496:121,1,63.75
357,183,190881,6,0,L|363:252,1,63.75,8|8,0:0|0:0,0:0:0:0:
430,295,191426,2,0,L|424:364,1,63.75,12|8,0:0|0:0,0:0:0:0:
325,331,191835,1,0,0:0:0:0:
325,331,191904,1,0,0:0:0:0:
325,331,191972,6,0,P|293:326|261:332,1,63.75
185,271,192245,2,0,L|169:243,1,31.875
213,156,192381,2,0,L|228:128,1,31.875
185,40,192517,6,0,P|155:27|124:25,1,63.75,12|0,0:0|0:0,0:0:0:0:
85,99,192790,2,0,P|55:112|23:113,1,63.75
267,54,193063,6,0,L|330:59,1,63.75,8|0,0:0|0:0,0:0:0:0:
411,120,193335,1,0,0:0:0:0:
411,120,193472,1,0,0:0:0:0:
333,185,193608,2,0,P|328:217|333:248,1,63.75
484,247,193881,2,0,P|491:215|486:184,1,63.75,8|0,0:0|0:0,0:0:0:0:
416,124,194154,1,12,0:0:0:0:
416,48,194290,1,0,0:0:0:0:
486,184,194426,6,0,P|489:231|469:274,1,95.625
448,297,194699,2,0,L|452:361,1,63.75,8|0,0:0|0:0,0:0:0:0:
334,248,194972,6,0,P|302:244|271:249,1,63.75
271,370,195245,2,0,P|302:374|333:369,1,63.75
199,307,195517,1,8,0:0:0:0:
199,187,195620,1,8,0:0:0:0:
93,299,195790,2,0,L|87:362,1,63.75,8|0,0:0|0:0,0:0:0:0:
29,225,196063,2,0,L|34:162,1,63.75
161,33,196335,6,0,P|128:27|97:33,1,63.75,12|0,0:0|0:0,0:0:0:0:
13,73,196608,1,0,0:0:0:0:
13,73,196744,1,0,0:0:0:0:
129,137,196881,2,0,P|161:142|192:136,1,63.75,8|0,0:0|0:0,0:0:0:0:
277,97,197154,1,0,0:0:0:0:
277,97,197290,1,0,0:0:0:0:
365,189,197426,6,0,L|359:252,1,63.75,8|0,0:0|0:0,0:0:0:0:
313,337,197699,1,0,0:0:0:0:
313,337,197835,1,0,0:0:0:0:
433,293,197972,2,0,L|439:230,1,63.75,8|0,0:0|0:0,0:0:0:0:
485,145,198245,1,0,0:0:0:0:
485,145,198381,1,0,0:0:0:0:
365,189,198517,6,0,L|334:186,1,31.875,12|0,0:0|0:0,0:0:0:0:
265,253,198654,2,0,L|202:259,1,63.75
117,213,198926,1,0,0:0:0:0:
61,293,199063,2,0,P|55:324|60:355,1,63.75
201,322,199335,5,8,0:0:0:0:
206,290,199425,1,0,0:0:0:0:
201,259,199516,1,0,0:0:0:0:
196,228,199608,2,0,P|190:196|195:164,1,63.75
276,114,200154,2,0,P|281:82|275:51,1,63.75,8|0,0:0|0:0,0:0:0:0:
123,77,200699,6,0,L|186:83,1,63.75,12|0,0:0|0:0,0:0:0:0:
276,114,200972,1,0,0:0:0:0:
275,51,201108,1,0,0:0:0:0:
349,191,201245,2,0,L|286:197,1,63.75,8|0,0:0|0:0,0:0:0:0:
196,228,201518,1,0,0:0:0:0:
197,165,201654,1,0,0:0:0:0:
119,233,201790,6,0,P|114:265|120:296,1,63.75,8|0,0:0|0:0,0:0:0:0:
159,381,202064,1,0,0:0:0:0:
159,381,202200,1,0,0:0:0:0:
238,317,202335,2,0,P|270:312|301:317,1,63.75
445,353,202608,2,0,P|414:357|383:352,1,63.75,8|0,0:0|0:0,0:0:0:0:
411,253,202881,1,12,0:0:0:0:
488,252,203017,1,0,0:0:0:0:
314,217,203154,6,0,P|310:169|331:127,1,95.625
353,103,203427,2,0,L|348:40,1,63.75,8|0,0:0|0:0,0:0:0:0:
256,160,203699,6,0,P|224:165|193:161,1,63.75
193,40,203972,2,0,P|224:35|255:39,1,63.75
121,101,204245,1,8,0:0:0:0:
121,221,204381,1,8,0:0:0:0:
41,121,204517,2,0,L|35:57,1,63.75,8|0,0:0|0:0,0:0:0:0:
40,216,204789,2,0,L|34:279,1,63.75
181,341,205063,6,0,P|149:334|118:340,1,63.75,12|0,0:0|0:0,0:0:0:0:
33,381,205336,1,0,0:0:0:0:
33,381,205472,1,0,0:0:0:0:
119,257,205609,2,0,P|151:252|182:258,1,63.75,8|0,0:0|0:0,0:0:0:0:
267,297,205882,1,0,0:0:0:0:
267,297,206018,1,0,0:0:0:0:
293,141,206154,6,0,L|298:204,1,63.75,8|0,0:0|0:0,0:0:0:0:
267,297,206427,1,0,0:0:0:0:
267,297,206563,1,0,0:0:0:0:
377,177,206699,2,0,L|382:240,1,63.75,8|0,0:0|0:0,0:0:0:0:
351,333,206972,1,0,0:0:0:0:
351,333,207108,1,0,0:0:0:0:
481,333,207245,6,0,L|484:302,1,31.875,12|0,0:0|0:0,0:0:0:0:
457,205,207381,2,0,L|452:142,1,63.75
391,66,207653,1,0,0:0:0:0:
302,107,207790,2,0,P|271:113|239:108,1,63.75
161,49,208063,5,8,0:0:0:0:
129,44,208153,1,0,0:0:0:0:
98,49,208244,1,0,0:0:0:0:
67,54,208336,2,0,P|35:60|3:55,1,63.75
129,129,208881,2,0,P|134:161|128:193,1,63.75,8|0,0:0|0:0,0:0:0:0:
45,285,209426,6,0,L|108:279,1,63.75,12|0,0:0|0:0,0:0:0:0:
198,248,209699,1,0,0:0:0:0:
197,311,209835,1,0,0:0:0:0:
282,166,209972,2,0,L|219:160,1,63.75,8|0,0:0|0:0,0:0:0:0:
129,129,210245,1,0,0:0:0:0:
130,192,210381,1,0,0:0:0:0:
97,52,210517,6,0,P|129:46|160:51,1,63.75,8|0,0:0|0:0,0:0:0:0:
245,89,210790,1,0,0:0:0:0:
245,89,210926,1,0,0:0:0:0:
298,10,211063,2,0,L|361:5,1,63.75
373,151,211335,2,0,L|310:157,1,63.75,8|0,0:0|0:0,0:0:0:0:
245,89,211608,1,12,0:0:0:0:
168,88,211744,1,0,0:0:0:0:
309,157,211881,6,0,L|418:147,1,95.625
384,186,212154,2,0,P|379:218|385:249,1,63.75,8|0,0:0|0:0,0:0:0:0:
487,219,212426,6,0,P|492:187|487:156,1,63.75
455,300,212699,2,0,P|449:331|453:362,1,63.75
385,249,212972,1,8,0:0:0:0:
298,332,213108,1,8,0:0:0:0:
202,248,213245,2,0,L|137:253,1,63.75,8|0,0:0|0:0,0:0:0:0:
245,162,213517,2,0,L|308:156,1,63.75
162,99,213790,6,0,P|155:131|161:162,1,63.75,12|0,0:0|0:0,0:0:0:0:
202,248,214063,1,0,0:0:0:0:
202,248,214199,1,0,0:0:0:0:
71,162,214335,2,0,P|64:129|70:98,1,63.75,8|0,0:0|0:0,0:0:0:0:
111,14,214608,1,0,0:0:0:0:
111,14,214744,1,0,0:0:0:0:
246,71,214881,6,0,L|309:65,1,63.75,8|0,0:0|0:0,0:0:0:0:
394,19,215154,1,0,0:0:0:0:
394,19,215290,1,0,0:0:0:0:
365,142,215426,2,0,L|371:204,1,63.75,8|0,0:0|0:0,0:0:0:0:
417,290,215699,1,0,0:0:0:0:
417,290,215835,1,0,0:0:0:0:
289,297,215972,6,0,L|258:294,1,31.875,12|0,0:0|0:0,0:0:0:0:
192,358,216108,2,0,P|160:364|128:358,1,63.75
160,269,216381,1,0,0:0:0:0:
74,227,216517,2,0,P|68:195|72:164,1,63.75
200,165,216790,5,8,0:0:0:0:
205,133,216880,1,0,0:0:0:0:
200,102,216971,1,0,0:0:0:0:
195,71,217063,2,0,P|189:39|193:8,1,63.75
320,8,217608,2,0,P|326:40|321:72,1,63.75,8|0,0:0|0:0,0:0:0:0:
259,221,218154,6,0,P|291:227|322:222,1,63.75,12|0,0:0|0:0,0:0:0:0:
291,145,218427,1,0,0:0:0:0:
227,145,218562,1,0,0:0:0:0:
147,285,218699,2,0,P|115:291|84:286,1,63.75,8|0,0:0|0:0,0:0:0:0:
115,209,218972,1,0,0:0:0:0:
178,209,219107,1,0,0:0:0:0:
259,371,219245,6,0,L|264:308,1,63.75,8|0,0:0|0:0,0:0:0:0:
325,227,219517,1,0,0:0:0:0:
325,227,219654,1,0,0:0:0:0:
253,165,219790,2,0,P|249:134|255:103,1,63.75
408,103,220063,2,0,P|413:134|408:166,1,63.75,8|0,0:0|0:0,0:0:0:0:
325,227,220336,1,12,0:0:0:0:
376,284,220472,1,0,0:0:0:0:
253,165,220608,6,0,P|205:161|163:182,1,95.625
133,196,220881,2,0,P|101:201|70:194,1,63.75,8|0,0:0|0:0,0:0:0:0:
183,74,221154,6,0,L|178:11,1,63.75
253,165,221427,2,0,L|258:228,1,63.75
303,64,221699,1,8,0:0:0:0:
183,74,221835,1,8,0:0:0:0:
133,196,221972,2,0,P|129:228|137:258,1,63.75,8|0,0:0|0:0,0:0:0:0:
258,228,222245,2,0,P|261:196|253:165,1,63.75
226,305,222517,6,0,P|258:312|289:306,1,63.75,12|0,0:0|0:0,0:0:0:0:
375,265,222790,1,0,0:0:0:0:
375,265,222926,1,0,0:0:0:0:
363,376,223063,2,0,P|395:383|426:377,1,63.75,8|0,0:0|0:0,0:0:0:0:
512,336,223336,1,0,0:0:0:0:
512,336,223472,1,0,0:0:0:0:
374,264,223608,6,0,L|369:201,1,63.75,8|0,0:0|0:0,0:0:0:0:
400,108,223881,1,0,0:0:0:0:
400,108,224017,1,0,0:0:0:0:
267,115,224153,2,0,L|272:178,1,63.75,8|0,0:0|0:0,0:0:0:0:
241,270,224426,1,0,0:0:0:0:
241,270,224562,1,0,0:0:0:0:
178,191,224699,6,0,L|147:188,1,31.875,12|0,0:0|0:0,0:0:0:0:
81,252,224835,2,0,P|49:258|17:252,1,63.75
49,163,225108,1,0,0:0:0:0:
118,96,225245,2,0,P|123:64|116:33,1,63.75
211,118,225517,5,8,0:0:0:0:
243,123,225607,1,0,0:0:0:0:
274,118,225698,1,0,0:0:0:0:
305,113,225790,2,0,P|337:108|368:113,1,63.75
419,193,226335,2,0,P|450:198|482:193,1,63.75,8|0,0:0|0:0,0:0:0:0:
261,222,226881,6,0,P|255:254|260:285,1,63.75,12|0,0:0|0:0,0:0:0:0:
337,254,227154,1,0,0:0:0:0:
337,190,227289,1,0,0:0:0:0:
197,110,227426,2,0,P|191:78|195:47,1,63.75,8|0,0:0|0:0,0:0:0:0:
273,78,227699,1,0,0:0:0:0:
273,141,227834,1,0,0:0:0:0:
114,230,227972,5,2,0:0:0:0:
102,59,232335,6,0,P|70:57|40:68,1,63.75,8|0,0:0|0:0,0:0:0:0:
83,153,232608,1,0,0:0:0:0:
40,238,232744,1,2,0:0:0:0:
118,329,232880,2,0,P|149:330|179:319,1,63.75,8|0,0:0|0:0,0:0:0:0:
137,235,233153,1,2,0:0:0:0:
180,150,233289,1,0,0:0:0:0:
313,223,233426,6,0,L|376:218,1,63.75,8|2,0:0|0:0,0:0:0:0:
277,147,233698,1,0,0:0:0:0:
234,232,233835,1,2,0:0:0:0:
412,294,233971,2,0,L|475:289,1,63.75,8|0,0:0|0:0,0:0:0:0:
376,218,234244,1,2,0:0:0:0:
334,303,234380,1,0,0:0:0:0:
469,193,234517,6,0,P|470:161|459:131,1,63.75,8|0,0:0|0:0,0:0:0:0:
363,129,234789,1,0,0:0:0:0:
383,34,234926,1,2,0:0:0:0:
257,193,235062,2,0,P|256:161|267:131,1,63.75,8|0,0:0|0:0,0:0:0:0:
363,129,235335,1,2,0:0:0:0:
343,34,235472,1,0,0:0:0:0:
171,144,235608,5,2,0:0:0:0:
151,49,235745,1,2,0:0:0:0:
99,208,235881,5,2,0:0:0:0:
191,238,236018,1,2,0:0:0:0:
35,136,236154,5,10,0:0:0:0:
5,228,236291,1,10,0:0:0:0:
255,310,236426,5,10,0:0:0:0:
285,218,236563,1,10,0:0:0:0:
104,352,236699,5,14,0:0:0:0:
256,192,236835,12,0,241063,2:2:0:0:
