osu file format v14

[General]
AudioFilename: Shawn Wasabi - Pizza Rolls.mp3
AudioLeadIn: 0
PreviewTime: 35969
Countdown: 0
SampleSet: None
StackLeniency: 0.5
Mode: 0
LetterboxInBreaks: 0
WidescreenStoryboard: 1

[Editor]
Bookmarks: 1060,9241,18517,27241,35968,42513,44696,51241,53422,61059,62150,68694,70877,79608,88331,97058,105785,114513,123242,131968,140696,149422,158150,164695,166877,173422,175604,183241,184331,190877,193059,201787,210513,219242,227968,236695
DistanceSpacing: 1.5
BeatDivisor: 8
GridSize: 4
TimelineZoom: 2.499999

[Metadata]
Title:Pizza Rolls
TitleUnicode:Pizza Rolls
Artist:Shawn Wasabi
ArtistUnicode:Shawn Wasabi
Creator:Exa
Version:Another
Source:
Tags:
BeatmapID:832366
BeatmapSetID:380412

[Difficulty]
HPDrainRate:5.5
CircleSize:4
OverallDifficulty:7
ApproachRate:9.2
SliderMultiplier:2.55
SliderTickRate:1

[Events]
//Background and Video events
//Break Periods
//Storyboard Layer 0 (Background)
//Storyboard Layer 1 (Fail)
//Storyboard Layer 2 (Pass)
//Storyboard Layer 3 (Foreground)
//Storyboard Sound Samples

[TimingPoints]
1064,545.454545454546,4,3,0,40,1,0
1064,-125,4,3,2,30,0,0
8564,-125,4,1,0,30,0,0
8700,-125,4,3,1,30,0,0
9245,545.454545454546,5,3,0,40,1,0
9245,-100,5,3,3,40,0,0
9381,-100,5,3,1,5,0,0
9517,-100,5,3,1,40,0,0
9722,-100,5,3,1,5,0,0
9790,-100,5,3,1,40,0,0
10813,-100,5,3,1,5,0,0
10881,-100,5,3,1,40,0,0
15176,-100,5,3,1,5,0,0
15245,-100,5,3,1,40,0,0
19540,-100,5,3,1,5,0,0
19608,-100,5,3,1,40,0,0
22540,-100,5,3,1,5,0,0
22608,-100,5,3,1,40,0,0
22676,-100,5,3,1,5,0,0
22745,-100,5,3,1,40,0,0
22813,-100,5,3,1,5,0,0
22881,-100,5,3,1,40,0,0
23904,-100,5,3,1,5,0,0
23972,-100,5,3,1,40,0,0
27108,-100,5,3,1,5,0,0
27245,545.454545454546,4,3,3,40,1,0
34881,-100,4,3,3,5,0,0
35154,-100,4,3,1,40,0,0
35972,-100,4,3,3,40,0,1
36108,-100,4,3,3,5,0,1
36245,-100,4,3,3,40,0,1
36654,-100,4,3,3,5,0,1
36790,-100,4,3,3,40,0,1
36926,-100,4,3,3,5,0,1
37063,-100,4,3,3,40,0,1
37540,-100,4,3,3,5,0,1
37608,-100,4,3,3,40,0,1
38835,-100,4,3,3,5,0,1
38972,-100,4,3,3,40,0,1
39108,-100,4,3,3,5,0,1
39245,-100,4,3,3,40,0,1
41085,-100,4,3,3,5,0,1
41154,-100,4,3,3,40,0,1
42790,-100,4,3,3,20,0,1
43063,-100,4,3,3,40,0,1
43335,-100,4,3,3,20,0,1
43608,-100,4,3,3,40,0,1
43881,-100,4,3,3,20,0,1
44017,-100,4,3,3,40,0,1
44222,-100,4,3,3,5,0,1
44426,-100,4,3,3,40,0,1
44495,-100,4,3,3,5,0,1
44699,-100,4,3,3,40,0,1
44835,-100,4,3,3,5,0,1
44972,-100,4,3,3,40,0,1
45381,-100,4,3,3,5,0,1
45517,-100,4,3,3,40,0,1
45654,-100,4,3,3,5,0,1
45790,-100,4,3,3,40,0,1
46267,-100,4,3,3,5,0,1
46335,-100,4,3,3,40,0,1
47631,-100,4,3,3,5,0,1
47699,-100,4,3,3,40,0,1
49813,-100,4,3,3,5,0,1
49881,-100,4,3,3,40,0,1
51245,-100,4,3,3,40,0,0
51313,-100,4,3,3,35,0,0
51381,-100,4,3,3,30,0,0
51449,-100,4,3,3,25,0,0
51517,-100,4,3,3,20,0,0
51585,-100,4,3,3,15,0,0
51654,-100,4,3,3,10,0,0
51722,-100,4,3,3,5,0,0
51790,-100,4,3,3,40,0,0
51858,-100,4,3,3,35,0,0
51926,-100,4,3,3,30,0,0
51995,-100,4,3,3,25,0,0
52063,-100,4,3,3,20,0,0
52131,-100,4,3,3,15,0,0
52199,-100,4,3,3,10,0,0
52267,-100,4,3,3,5,0,0
52335,-100,4,3,3,40,0,0
52404,-100,4,3,3,35,0,0
52472,-100,4,3,3,30,0,0
52540,-100,4,3,3,25,0,0
52608,-100,4,3,3,20,0,0
52676,-100,4,3,3,15,0,0
52745,-100,4,3,3,10,0,0
52813,-100,4,3,3,5,0,0
52881,-100,4,3,3,40,0,0
52949,-100,4,3,3,20,0,0
53017,-100,4,3,3,40,0,0
53085,-100,4,3,3,20,0,0
53154,-100,4,3,3,40,0,0
53222,-100,4,3,3,20,0,0
53290,-100,4,3,3,40,0,0
53358,-100,4,3,3,20,0,0
53426,-100,4,3,3,40,0,1
54108,-100,4,3,3,5,0,1
54245,-100,4,3,3,40,0,1
54381,-100,4,3,3,5,0,1
54517,-100,4,3,3,40,0,1
54585,-100,4,3,3,5,0,1
54654,-100,4,3,3,40,0,1
54926,-100,4,3,3,5,0,1
55063,-100,4,3,3,40,0,1
55131,-100,4,3,3,5,0,1
55199,-100,4,3,3,40,0,1
55267,-100,4,3,3,5,0,1
55335,-100,4,3,3,40,0,1
55540,-100,4,3,3,5,0,1
55608,-100,4,3,3,40,0,1
56358,-100,4,3,3,5,0,1
56426,-100,4,3,3,40,0,1
56631,-100,4,3,3,5,0,1
56699,-100,4,3,3,40,0,1
57176,-100,4,3,3,5,0,1
57245,-100,4,3,3,40,0,1
57585,-100,4,3,3,5,0,1
57654,-100,4,3,3,40,0,1
58472,-100,4,3,3,5,0,1
58608,-100,4,3,3,40,0,1
58745,-100,4,3,3,5,0,1
58949,-100,4,3,3,5,0,1
59017,-100,4,3,3,40,0,1
59631,-100,4,3,3,5,0,1
59699,-100,4,3,3,40,0,1
59835,-100,4,3,3,5,0,1
59972,-100,4,3,3,40,0,1
60449,-100,4,3,3,5,0,1
60517,-100,4,3,3,40,0,1
60926,-100,4,3,3,5,0,1
61063,-100,4,3,3,30,0,1
62154,-100,4,3,3,40,0,1
62835,-100,4,3,3,5,0,1
62972,-100,4,3,3,40,0,1
63108,-100,4,3,3,5,0,1
63245,-100,4,3,3,40,0,1
63313,-100,4,3,3,5,0,1
63381,-100,4,3,3,40,0,1
63654,-100,4,3,3,5,0,1
63790,-100,4,3,3,40,0,1
63858,-100,4,3,3,5,0,1
63926,-100,4,3,3,40,0,1
63995,-100,4,3,3,5,0,1
64063,-100,4,3,3,40,0,1
64267,-100,4,3,3,5,0,1
64335,-100,4,3,3,40,0,1
65085,-100,4,3,3,5,0,1
65154,-100,4,3,3,40,0,1
65358,-100,4,3,3,5,0,1
65426,-100,4,3,3,40,0,1
65904,-100,4,3,3,5,0,1
65972,-100,4,3,3,40,0,1
66108,-100,4,3,3,5,0,1
66245,-100,4,3,3,40,0,1
66313,-100,4,3,3,5,0,1
66381,-100,4,3,3,40,0,1
67199,-100,4,3,3,5,0,1
67335,-100,4,3,3,40,0,1
67472,-100,4,3,3,5,0,1
67608,-100,4,3,3,40,0,1
67676,-100,4,3,3,5,0,1
67745,-100,4,3,3,40,0,1
68358,-100,4,3,3,5,0,1
68426,-100,4,3,3,40,0,1
68699,-200,4,3,4,40,0,1
69245,-200,4,3,4,40,0,1
69790,-100,4,3,4,40,0,1
70335,-100,4,3,4,40,0,1
70540,-100,4,3,4,5,0,1
70608,-100,4,3,4,20,0,1
70813,-100,4,3,4,5,0,1
70881,-100,4,3,3,40,0,0
71904,-100,4,3,3,5,0,0
71972,-100,4,3,3,40,0,0
72040,-100,4,3,3,5,0,0
72449,-100,4,3,3,5,0,0
72517,-100,4,3,3,40,0,0
73404,-100,4,3,3,5,0,0
73608,-100,4,3,5,40,0,0
73676,-100,4,3,3,5,0,0
73881,-100,4,3,5,40,0,0
73949,-100,4,3,3,5,0,0
74154,-100,4,3,5,40,0,0
74290,-100,4,3,3,40,0,0
75995,-100,4,3,3,5,0,0
76063,-100,4,3,3,40,0,0
77222,-100,4,3,3,5,0,0
77290,-100,4,3,3,40,0,0
77631,-100,4,3,3,5,0,0
77699,-100,4,3,4,40,0,0
80085,-100,4,3,3,5,0,0
80154,-100,4,3,3,40,0,0
80358,-100,4,3,3,5,0,0
80426,-100,4,3,3,40,0,0
80495,-100,4,3,3,5,0,0
80563,-100,4,3,3,40,0,0
80699,-100,4,3,3,5,0,0
80835,-100,4,3,3,40,0,0
80904,-100,4,3,3,5,0,0
80972,-100,4,3,3,40,0,0
81926,-100,4,3,3,5,0,0
82063,-100,4,3,3,40,0,0
82131,-100,4,3,3,5,0,0
82335,-100,4,3,5,40,0,0
82404,-100,4,3,3,5,0,0
82608,-100,4,3,5,40,0,0
82676,-100,4,3,3,5,0,0
82881,-100,4,3,5,40,0,0
83085,-100,4,3,3,5,0,0
83290,-100,4,3,3,40,0,0
85404,-100,4,3,3,5,0,0
85608,-100,4,3,3,40,0,0
85676,-100,4,3,3,5,0,0
85881,-100,4,3,3,40,0,0
85949,-100,4,3,3,5,0,0
86426,-100,4,3,3,40,0,0
86495,-100,4,3,3,5,0,0
86699,-100,4,3,3,40,0,0
86767,-100,4,3,3,5,0,0
86972,-100,4,3,3,40,0,0
87040,-100,4,3,3,5,0,0
87245,-100,4,3,3,40,0,0
97063,-100,4,3,1,40,0,0
97676,-100,4,3,1,5,0,0
97881,-100,4,3,1,40,0,0
97949,-100,4,3,1,5,0,0
98154,-100,4,3,1,40,0,0
103540,-100,4,3,1,5,0,0
103608,-100,4,3,1,40,0,0
104904,-100,4,3,1,5,0,0
104972,-100,4,3,1,40,0,0
106404,-100,4,3,1,5,0,0
106608,-100,4,3,1,40,0,0
106676,-100,4,3,1,5,0,0
106881,-100,4,3,1,40,0,0
112267,-100,4,3,1,5,0,0
112335,-100,4,3,1,40,0,0
113631,-100,4,3,1,5,0,0
113699,-100,4,3,1,40,0,0
116154,-100,4,3,4,40,0,0
116426,-100,4,3,1,40,0,0
116904,-100,4,3,1,5,0,0
116972,-100,4,3,1,40,0,0
120517,-100,4,3,4,40,0,0
120654,-100,4,3,1,40,0,0
124881,-100,4,3,4,40,0,0
125085,-100,4,3,1,40,0,0
129245,-100,4,3,4,40,0,0
140699,-100,4,3,1,30,0,0
149290,-100,4,3,1,5,0,0
149426,-100,4,3,1,40,0,0
158154,-100,4,3,3,40,0,1
158290,-100,4,3,3,5,0,1
158426,-100,4,3,3,40,0,1
158836,-100,4,3,3,5,0,1
158972,-100,4,3,3,40,0,1
159108,-100,4,3,3,5,0,1
159245,-100,4,3,3,40,0,1
159722,-100,4,3,3,5,0,1
159790,-100,4,3,3,40,0,1
161017,-100,4,3,3,5,0,1
161154,-100,4,3,3,40,0,1
161290,-100,4,3,3,5,0,1
161427,-100,4,3,3,40,0,1
163267,-100,4,3,3,5,0,1
163336,-100,4,3,3,40,0,1
164972,-100,4,3,3,20,0,1
165245,-100,4,3,3,40,0,1
165517,-100,4,3,3,20,0,1
165790,-100,4,3,3,40,0,1
166063,-100,4,3,3,20,0,1
166199,-100,4,3,3,40,0,1
166404,-100,4,3,3,5,0,1
166608,-100,4,3,3,40,0,1
166677,-100,4,3,3,5,0,1
166881,-100,4,3,3,40,0,1
167017,-100,4,3,3,5,0,1
167154,-100,4,3,3,40,0,1
167563,-100,4,3,3,5,0,1
167699,-100,4,3,3,40,0,1
167836,-100,4,3,3,5,0,1
167972,-100,4,3,3,40,0,1
168449,-100,4,3,3,5,0,1
168517,-100,4,3,3,40,0,1
169813,-100,4,3,3,5,0,1
169881,-100,4,3,3,40,0,1
171995,-100,4,3,3,5,0,1
172063,-100,4,3,3,40,0,1
173426,-100,4,3,3,40,0,0
173495,-100,4,3,3,35,0,0
173563,-100,4,3,3,30,0,0
173631,-100,4,3,3,25,0,0
173699,-100,4,3,3,20,0,0
173767,-100,4,3,3,15,0,0
173835,-100,4,3,3,10,0,0
173904,-100,4,3,3,5,0,0
173972,-100,4,3,3,40,0,0
174040,-100,4,3,3,35,0,0
174108,-100,4,3,3,30,0,0
174176,-100,4,3,3,25,0,0
174245,-100,4,3,3,20,0,0
174313,-100,4,3,3,15,0,0
174381,-100,4,3,3,10,0,0
174449,-100,4,3,3,5,0,0
174517,-100,4,3,3,40,0,0
174585,-100,4,3,3,35,0,0
174654,-100,4,3,3,30,0,0
174722,-100,4,3,3,25,0,0
174790,-100,4,3,3,20,0,0
174858,-100,4,3,3,15,0,0
174926,-100,4,3,3,10,0,0
174995,-100,4,3,3,5,0,0
175063,-100,4,3,3,40,0,0
175131,-100,4,3,3,35,0,0
175199,-100,4,3,3,30,0,0
175267,-100,4,3,3,25,0,0
175335,-100,4,3,3,20,0,0
175404,-100,4,3,3,15,0,0
175472,-100,4,3,3,10,0,0
175540,-100,4,3,3,5,0,0
175608,-100,4,3,3,40,0,1
176290,-100,4,3,3,5,0,1
176427,-100,4,3,3,40,0,1
176563,-100,4,3,3,5,0,1
176699,-100,4,3,3,40,0,1
176767,-100,4,3,3,5,0,1
176836,-100,4,3,3,40,0,1
177108,-100,4,3,3,5,0,1
177245,-100,4,3,3,40,0,1
177313,-100,4,3,3,5,0,1
177381,-100,4,3,3,40,0,1
177449,-100,4,3,3,5,0,1
177517,-100,4,3,3,40,0,1
177722,-100,4,3,3,5,0,1
177790,-100,4,3,3,40,0,1
178540,-100,4,3,3,5,0,1
178608,-100,4,3,3,40,0,1
178813,-100,4,3,3,5,0,1
178881,-100,4,3,3,40,0,1
179358,-100,4,3,3,5,0,1
179427,-100,4,3,3,40,0,1
179767,-100,4,3,3,5,0,1
179836,-100,4,3,3,40,0,1
180654,-100,4,3,3,5,0,1
180790,-100,4,3,3,40,0,1
180927,-100,4,3,3,5,0,1
181131,-100,4,3,3,5,0,1
181199,-100,4,3,3,40,0,1
181813,-100,4,3,3,5,0,1
181881,-100,4,3,3,40,0,1
182017,-100,4,3,3,5,0,1
182154,-100,4,3,3,40,0,1
182631,-100,4,3,3,5,0,1
182699,-100,4,3,3,40,0,1
183108,-100,4,3,3,5,0,1
183245,-100,4,3,3,30,0,1
184336,-100,4,3,3,40,0,1
185017,-100,4,3,3,5,0,1
185154,-100,4,3,3,40,0,1
185290,-100,4,3,3,5,0,1
185427,-100,4,3,3,40,0,1
185495,-100,4,3,3,5,0,1
185563,-100,4,3,3,40,0,1
185836,-100,4,3,3,5,0,1
185972,-100,4,3,3,40,0,1
186040,-100,4,3,3,5,0,1
186108,-100,4,3,3,40,0,1
186177,-100,4,3,3,5,0,1
186245,-100,4,3,3,40,0,1
186449,-100,4,3,3,5,0,1
186517,-100,4,3,3,40,0,1
187267,-100,4,3,3,5,0,1
187336,-100,4,3,3,40,0,1
187540,-100,4,3,3,5,0,1
187608,-100,4,3,3,40,0,1
188086,-100,4,3,3,5,0,1
188154,-100,4,3,3,40,0,1
188290,-100,4,3,3,5,0,1
188427,-100,4,3,3,40,0,1
188495,-100,4,3,3,5,0,1
188563,-100,4,3,3,40,0,1
189381,-100,4,3,3,5,0,1
189517,-100,4,3,3,40,0,1
189654,-100,4,3,3,5,0,1
189790,-100,4,3,3,40,0,1
189858,-100,4,3,3,5,0,1
189927,-100,4,3,3,40,0,1
190540,-100,4,3,3,5,0,1
190608,-100,4,3,3,40,0,1
190881,-300,4,3,4,40,0,1
191426,-200,4,3,4,40,0,1
191427,-200,4,3,4,40,0,1
191972,-100,4,3,4,40,0,1
192517,-150,4,3,4,40,0,1
192722,-150,4,3,4,5,0,1
192790,-150,4,3,4,20,0,1
192995,-150,4,3,4,5,0,1
193063,-100,4,3,4,40,0,0
199608,-200,4,3,4,40,0,0
200699,-100,4,3,4,40,0,0
208335,-200,4,3,4,40,0,0
209426,-100,4,3,4,40,0,0
217063,-200,4,3,4,40,0,0
218154,-100,4,3,4,40,0,0
225790,-200,4,3,4,40,0,0
226881,-100,4,3,4,40,0,0
227972,-100,4,3,1,40,0,0
232335,-100,4,3,1,30,0,0
236699,-100,4,3,3,30,0,0
237245,-100,4,3,0,35,0,0
237790,-100,4,3,0,30,0,0
238335,-100,4,3,0,25,0,0
238881,-100,4,3,0,20,0,0
239426,-100,4,3,0,15,0,0
239972,-100,4,3,0,10,0,0
240517,-100,4,3,0,5,0,0

[Colours]
Combo1 : 244,171,140
Combo2 : 149,242,196
Combo3 : 243,169,221
Combo4 : 172,240,240
Combo5 : 233,241,133
Combo6 : 234,102,115
Combo7 : 165,239,143
Combo8 : 124,118,237

[HitObjects]
66,62,1064,6,0,L|116:57,1,51
193,109,1336,2,0,P|242:119|292:109,1,102
406,50,1745,1,0,0:0:0:0:
450,130,1882,2,0,P|454:154|450:180,1,51
345,201,2154,6,0,P|341:227|345:252,1,51
404,325,2428,2,0,P|354:314|304:324,1,102
191,384,2836,1,0,0:0:0:0:
147,304,2973,2,0,L|151:253,1,51
239,193,3245,6,0,L|234:142,1,51
184,58,3518,2,0,P|234:49|284:57,1,102
397,117,3927,1,0,0:0:0:0:
359,197,4064,2,0,P|355:222|359:247,1,51
476,142,4336,6,0,P|480:116|475:91,1,51
451,222,4609,2,0,P|476:226|501:222,1,51
359,197,4882,2,0,P|333:192|308:197,1,51
332,327,5154,2,0,P|336:302|332:276,1,51
222,212,5427,6,0,L|227:161,1,51
285,88,5700,2,0,P|235:99|185:89,1,102
73,30,6109,1,0,0:0:0:0:
39,112,6245,2,0,L|43:163,1,51
137,213,6518,6,0,L|132:264,1,51
82,348,6791,2,0,P|132:356|182:348,1,102
295,289,7199,1,0,0:0:0:0:
257,209,7336,2,0,P|252:183|257:158,1,51
361,137,7609,6,0,P|365:111|360:86,1,51
456,62,7882,2,0,P|464:112|455:162,1,102
378,263,8291,1,0,0:0:0:0:
307,205,8427,2,0,L|256:209,1,51
230,209,8632,1,0,0:0:0:0:
205,211,8700,5,0,0:0:0:0:
134,153,8836,1,0,0:0:0:0:
134,62,8973,1,0,0:0:0:0:
205,4,9109,1,0,0:0:0:0:
53,73,9245,6,0,P|49:105|52:137,1,63.75
216,138,9517,2,0,P|218:106|215:74,1,63.75
78,226,9790,6,0,L|-10:233,1,63.75
134,153,10063,1,0,0:0:0:0:
205,211,10199,1,0,0:0:0:0:
149,283,10335,2,0,P|144:314|148:346,1,63.75
258,282,10608,2,0,P|305:287|345:311,1,95.625
385,337,10881,6,0,L|392:249,1,63.75
353,184,11154,1,0,0:0:0:0:
384,93,11290,1,0,0:0:0:0:
443,168,11426,2,0,P|473:173|506:169,1,63.75
384,93,11699,2,0,P|353:88|322:92,1,63.75
205,211,11972,6,0,L|199:147,1,63.75
232,57,12245,1,0,0:0:0:0:
138,73,12381,1,0,0:0:0:0:
232,57,12517,1,0,0:0:0:0:
138,73,12654,1,0,0:0:0:0:
205,211,12790,2,0,P|236:215|267:211,1,63.75
384,93,13063,6,0,L|390:157,1,63.75
357,247,13336,1,0,0:0:0:0:
451,231,13472,1,0,0:0:0:0:
357,247,13608,1,0,0:0:0:0:
451,231,13745,1,0,0:0:0:0:
388,340,13881,2,0,P|357:344|326:340,1,63.75
204,296,14154,6,0,P|172:292|140:296,1,63.75
66,357,14426,1,0,0:0:0:0:
50,263,14562,1,0,0:0:0:0:
112,192,14699,2,0,L|118:128,1,63.75
64,12,14972,2,0,P|104:36|151:41,1,95.625
199,30,15245,6,0,P|230:25|261:29,1,63.75
352,60,15517,1,0,0:0:0:0:
444,28,15653,1,0,0:0:0:0:
424,120,15790,2,0,L|430:184,1,63.75
304,200,16063,2,0,L|298:136,1,63.75
336,280,16335,6,0,P|304:284|272:280,1,63.75
198,219,16608,1,0,0:0:0:0:
182,313,16744,1,0,0:0:0:0:
198,219,16881,1,0,0:0:0:0:
182,313,17017,1,0,0:0:0:0:
60,240,17154,2,0,P|55:208|59:176,1,63.75
152,44,17426,6,0,P|155:75|151:107,1,63.75
316,60,17699,2,0,P|286:47|261:28,1,63.75
219,193,17972,2,0,P|244:173|274:160,1,63.75
396,208,18245,2,0,P|425:195|450:176,1,63.75
308,263,18517,6,0,P|304:326|342:375,1,127.5
388,300,18926,1,0,0:0:0:0:
221,353,19063,2,0,L|157:347,1,63.75
112,181,19335,2,0,P|172:198|207:251,1,127.5
125,273,19744,1,0,0:0:0:0:
125,273,20017,5,0,0:0:0:0:
26,181,20154,2,0,L|32:117,1,63.75
44,24,20426,1,0,0:0:0:0:
148,96,20563,2,0,P|179:99|211:95,1,63.75
308,40,20835,2,0,P|339:35|371:39,1,63.75
340,120,21108,5,0,0:0:0:0:
439,212,21245,2,0,L|433:276,1,63.75
421,369,21517,1,0,0:0:0:0:
317,297,21654,2,0,P|285:293|253:297,1,63.75
157,353,21926,2,0,P|125:357|93:353,1,63.75
125,273,22200,5,0,0:0:0:0:
216,184,22335,2,0,L|207:88,1,95.625
168,120,22608,2,0,L|120:120,1,31.875
80,56,22745,2,0,L|44:56,1,31.875
176,16,22881,6,0,P|207:19|239:15,1,63.75
355,83,23154,2,0,P|323:80|292:84,1,63.75
439,35,23426,2,0,P|450:82|439:128,1,95.625
428,160,23699,2,0,L|434:224,1,63.75
380,304,23972,1,0,0:0:0:0:
308,244,24108,1,0,0:0:0:0:
308,244,24381,5,0,0:0:0:0:
220,344,24517,2,0,L|156:338,1,63.75
68,331,24789,1,0,0:0:0:0:
152,236,24926,2,0,P|155:205|151:173,1,63.75
49,121,25198,2,0,P|44:90|48:59,1,63.75
130,90,25472,5,0,0:0:0:0:
234,158,25608,2,0,L|298:152,1,63.75
303,29,25881,2,0,L|239:35,1,63.75
256,192,26154,12,0,27108,0:0:0:0:
60,272,27245,5,0,0:0:0:0:
156,256,27654,1,0,0:0:0:0:
252,240,28063,1,0,0:0:0:0:
188,160,28335,5,0,0:0:0:0:
124,352,28472,1,0,0:0:0:0:
220,336,28881,1,0,0:0:0:0:
316,320,29290,1,0,0:0:0:0:
380,128,29426,5,0,0:0:0:0:
460,176,29835,1,0,0:0:0:0:
460,272,30245,1,0,0:0:0:0:
364,224,30517,5,0,0:0:0:0:
464,76,30654,1,0,0:0:0:0:
384,28,31063,1,0,0:0:0:0:
301,75,31472,1,0,0:0:0:0:
364,224,31608,6,0,L|358:255,1,31.875
144,160,32017,6,0,L|149:128,1,31.875
207,309,32426,6,0,L|175:314,1,31.875
301,75,32835,6,0,L|332:69,1,31.875
232,220,33245,6,0,L|226:188,1,31.875
164,116,33381,1,0,0:0:0:0:
68,116,33517,1,0,0:0:0:0:
4,188,33654,1,0,0:0:0:0:
108,272,33790,5,0,0:0:0:0:
256,192,33926,12,0,34881,0:0:0:0:
324,124,35154,5,0,0:0:0:0:
324,124,35290,1,0,0:0:0:0:
256,192,35426,5,0,0:0:0:0:
188,124,35563,1,0,0:0:0:0:
120,192,35699,1,0,0:0:0:0:
52,124,35835,1,0,0:0:0:0:
188,260,35972,6,0,L|188:328,1,63.75
256,192,36245,1,0,0:0:0:0:
324,260,36381,1,0,0:0:0:0:
288,104,36517,2,0,P|256:99|224:104,1,63.75
372,124,36790,2,0,P|404:128|435:124,1,63.75
348,32,37063,1,0,0:0:0:0:
312,180,37199,1,0,0:0:0:0:
192,31,37335,6,0,P|157:64|147:110,1,95.625
148,144,37608,2,0,L|85:138,1,63.75
224,104,37881,5,0,0:0:0:0:
215,196,38017,1,0,0:0:0:0:
321,272,38154,1,0,0:0:0:0:
312,180,38291,1,0,0:0:0:0:
227,292,38426,2,0,L|148:292,1,63.75
52,192,38699,2,0,P|63:162|84:137,1,63.75
67,286,38972,2,0,P|55:316|35:341,1,63.75
136,207,39245,6,0,L|211:206,1,63.75
288,170,39517,1,0,0:0:0:0:
297,262,39654,1,0,0:0:0:0:
440,133,39790,2,0,L|365:134,1,63.75
288,170,40062,1,0,0:0:0:0:
279,78,40199,1,0,0:0:0:0:
369,223,40335,5,0,0:0:0:0:
369,230,40471,1,0,0:0:0:0:
370,236,40608,1,0,0:0:0:0:
370,242,40745,1,0,0:0:0:0:
453,288,40881,2,0,P|456:319|451:350,1,63.75
290,364,41154,2,0,P|276:319|290:274,1,95.625
262,290,41426,6,0,L|198:290,1,63.75
122,348,41699,6,0,P|91:352|60:349,1,63.75
91,258,41972,1,0,0:0:0:0:
60,167,42108,1,0,0:0:0:0:
154,186,42245,1,0,0:0:0:0:
196,99,42381,1,0,0:0:0:0:
307,193,42517,6,0,P|367:213|434:214,1,127.5
319,78,43063,6,0,P|255:79|195:99,1,127.5
69,207,43608,6,0,L|91:332,1,127.5
180,367,44017,1,0,0:0:0:0:
251,303,44154,6,0,L|282:299,1,31.875
387,201,44426,2,0,L|419:205,1,31.875
237,147,44699,6,0,L|231:210,1,63.75
133,155,44972,1,0,0:0:0:0:
143,60,45108,1,0,0:0:0:0:
299,146,45245,2,0,P|268:151|237:147,1,63.75
269,23,45517,2,0,P|300:18|331:23,1,63.75
299,146,45790,1,0,0:0:0:0:
421,55,45926,1,0,0:0:0:0:
461,203,46063,6,0,P|446:247|409:276,1,95.625
377,287,46335,2,0,L|383:350,1,63.75
381,200,46608,5,0,0:0:0:0:
298,249,46745,1,0,0:0:0:0:
292,362,46881,1,0,0:0:0:0:
209,313,47018,1,0,0:0:0:0:
266,194,47154,2,0,P|286:218|297:248,1,63.75
173,219,47426,6,0,B|169:187|173:171|177:155|177:155|177:123,1,95.625
132,59,47699,2,0,P|111:83|100:113,1,63.75
222,59,47972,6,0,L|296:65,1,63.75
375,37,48244,1,0,0:0:0:0:
365,131,48381,1,0,0:0:0:0:
297,248,48517,2,0,L|233:242,1,63.75
149,199,48789,1,0,0:0:0:0:
143,294,48926,1,0,0:0:0:0:
226,155,49063,5,0,0:0:0:0:
227,148,49199,1,0,0:0:0:0:
229,142,49336,1,0,0:0:0:0:
230,136,49473,1,0,0:0:0:0:
297,248,49608,2,0,P|300:279|295:310,1,63.75
376,192,49881,2,0,P|362:147|376:102,1,95.625
396,76,50154,6,0,L|332:76,1,63.75
256,17,50426,6,0,P|225:13|194:16,1,63.75
114,71,50699,1,0,0:0:0:0:
145,162,50835,1,0,0:0:0:0:
50,145,50972,1,0,0:0:0:0:
20,236,51108,1,0,0:0:0:0:
110,307,51245,6,0,L|116:276,7,31.875
218,240,51790,6,0,L|224:272,7,31.875
325,306,52335,6,0,L|331:275,7,31.875
296,192,52881,5,0,0:0:0:0:
356,120,53017,1,0,0:0:0:0:
296,44,53154,1,0,0:0:0:0:
240,120,53290,1,0,0:0:0:0:
132,52,53426,6,0,L|69:58,1,63.75
52,152,53699,1,0,0:0:0:0:
132,204,53835,1,0,0:0:0:0:
240,120,53972,2,0,L|303:126,1,63.75
290,281,54245,2,0,L|263:222,1,63.75
406,158,54517,2,0,L|369:209,1,63.75
376,72,54790,2,0,P|422:66|464:87,1,95.625
484,112,55063,6,0,L|490:143,1,31.875
460,220,55199,2,0,L|466:251,1,31.875
369,209,55335,2,0,L|233:218,1,127.5
164,272,55745,5,0,0:0:0:0:
80,228,55881,1,0,0:0:0:0:
84,324,56017,1,0,0:0:0:0:
160,184,56154,2,0,P|165:152|161:121,1,63.75
95,52,56426,2,0,P|137:74|185:77,1,95.625
224,56,56699,6,0,L|226:20,4,31.875
302,113,57108,2,0,L|299:144,1,31.875
296,233,57245,2,0,P|327:226|355:212,1,63.75
490,173,57517,2,0,P|458:166|430:152,1,63.75
384,80,57790,5,0,0:0:0:0:
384,73,57926,1,0,0:0:0:0:
385,67,58063,1,0,0:0:0:0:
385,61,58200,1,0,0:0:0:0:
448,132,58335,2,0,L|442:195,1,63.75
349,275,58608,2,0,L|355:212,1,63.75
340,356,58881,6,0,P|297:337|272:297,1,95.625
264,260,59154,1,0,0:0:0:0:
164,312,59290,1,0,0:0:0:0:
61,197,59426,2,0,P|58:228|63:259,1,63.75
177,213,59699,2,0,P|180:181|174:149,1,63.75
140,60,59972,6,0,L|104:58,4,31.875
174,150,60381,2,0,L|206:152,1,31.875
294,158,60517,2,0,P|282:188|264:215,1,63.75
252,78,60790,2,0,P|282:69|314:69,1,63.75
404,136,61063,6,0,L|410:199,1,63.75
344,268,61335,2,0,L|350:331,1,63.75
179,330,61608,2,0,L|185:267,1,63.75
119,198,61880,2,0,L|125:135,1,63.75
296,175,62154,6,0,P|264:180|232:176,1,63.75
265,87,62426,1,0,0:0:0:0:
205,11,62563,1,0,0:0:0:0:
125,134,62699,2,0,P|93:138|61:134,1,63.75
35,280,62972,2,0,P|47:250|66:225,1,63.75
197,249,63245,2,0,P|184:278|165:303,1,63.75
233,176,63517,2,0,P|267:207|278:253,1,95.625
271,283,63790,6,0,L|302:289,1,31.875
379,259,63926,2,0,L|410:265,1,31.875
344,180,64063,2,0,L|353:44,1,127.5
264,104,64472,5,0,0:0:0:0:
180,56,64608,1,0,0:0:0:0:
262,8,64744,1,0,0:0:0:0:
182,152,64881,2,0,L|188:215,1,63.75
254,284,65154,2,0,P|212:262|164:259,1,95.625
125,280,65427,6,0,L|123:316,4,31.875
47,223,65835,2,0,L|50:192,1,31.875
99,108,65972,2,0,L|93:45,1,63.75
182,152,66245,2,0,L|239:125,1,63.75
317,89,66517,5,0,0:0:0:0:
317,96,66653,1,0,0:0:0:0:
318,102,66790,1,0,0:0:0:0:
318,108,66927,1,0,0:0:0:0:
396,210,67063,2,0,P|399:179|395:147,1,63.75
472,44,67335,2,0,P|468:74|472:106,1,63.75
448,276,67608,6,0,P|404:292|358:282,1,95.625
324,261,67881,1,0,0:0:0:0:
273,361,68017,1,0,0:0:0:0:
170,313,68154,2,0,L|107:319,1,63.75
127,197,68426,2,0,L|190:191,1,63.75
316,176,68699,6,0,P|324:128|323:81,1,95.625
229,8,69245,2,0,P|220:55|221:102,1,95.625
221,102,69722,1,0,0:0:0:0:
221,102,69790,5,0,0:0:0:0:
323,81,69926,2,0,L|386:87,1,63.75
468,36,70199,1,0,0:0:0:0:
443,187,70335,2,0,L|299:174,1,127.5
96,325,70881,6,0,L|239:313,1,127.5
308,360,71290,1,0,0:0:0:0:
224,216,71426,2,0,P|222:168|231:121,1,95.625
244,92,71699,1,0,0:0:0:0:
316,32,71835,1,0,0:0:0:0:
379,104,71972,1,0,0:0:0:0:
240,14,72108,1,0,0:0:0:0:
132,140,72245,2,0,P|101:143|69:139,1,63.75
224,216,72517,2,0,P|255:213|287:217,1,63.75
376,248,72790,5,0,0:0:0:0:
268,344,72972,1,0,0:0:0:0:
248,356,73063,2,0,L|254:293,1,63.75
134,229,73335,6,0,L|131:260,1,31.875
228,153,73608,2,0,L|231:122,1,31.875
56,105,73881,2,0,L|54:137,1,31.875
201,27,74154,2,0,P|232:24|264:28,2,63.75
325,101,74563,2,0,P|357:104|389:100,2,63.75
455,48,74972,2,0,P|471:92|461:138,1,95.625
440,171,75245,6,0,P|432:233|469:283,1,127.5
512,212,75654,1,0,0:0:0:0:
364,312,75790,2,0,P|320:294|274:302,1,95.625
184,340,76063,2,0,L|172:212,1,127.5
163,116,76472,1,0,0:0:0:0:
60,180,76608,6,0,P|38:156|21:129,1,63.75
72,288,76881,2,0,P|40:292|8:287,1,63.75
171,213,77154,2,0,P|203:207|234:212,1,63.75
357,283,77426,6,0,B|345:295|345:295|325:279|328:220,1,95.625
405,163,77699,2,0,P|427:187|444:214,1,63.75
393,55,77972,2,0,P|425:51|457:56,1,63.75
294,130,78245,2,0,P|262:136|231:131,1,63.75
145,35,78517,6,0,L|139:98,1,63.75
29,167,78790,2,0,L|35:104,1,63.75
124,194,79063,1,0,0:0:0:0:
56,262,79199,1,0,0:0:0:0:
124,330,79335,1,0,0:0:0:0:
192,262,79471,1,0,0:0:0:0:
328,282,79608,6,0,B|328:334|328:334|264:294|264:222|328:170,1,223.125
323,156,80154,2,0,P|276:166|229:158,1,95.625
203,139,80426,2,0,L|199:87,1,31.875
277,63,80563,2,0,L|271:0,1,63.75
172,171,80835,6,0,L|169:139,1,31.875
201,32,80972,1,0,0:0:0:0:
323,156,81245,1,0,0:0:0:0:
201,280,81518,1,0,0:0:0:0:
339,267,81699,1,0,0:0:0:0:
351,247,81790,2,0,P|320:244|288:248,1,63.75
319,379,82063,6,0,L|322:348,1,31.875
451,247,82335,2,0,L|448:216,1,31.875
319,115,82608,2,0,L|322:84,1,31.875
190,215,82881,2,0,P|151:219|94:208,1,95.625
155,103,83290,5,0,0:0:0:0:
155,103,83358,1,0,0:0:0:0:
155,103,83426,1,0,0:0:0:0:
54,101,83563,2,0,P|59:68|74:41,2,63.75
95,208,83972,6,0,P|107:270|97:332,1,127.5
287,248,84517,2,0,P|274:185|284:122,1,127.5
429,122,85063,1,0,0:0:0:0:
439,163,85154,1,0,0:0:0:0:
440,205,85245,1,0,0:0:0:0:
431,246,85335,2,0,L|428:277,1,31.875
287,248,85608,2,0,L|268:273,1,31.875
161,177,85881,2,0,L|130:184,1,31.875
429,122,86426,6,0,L|459:114,1,31.875
303,51,86699,2,0,L|321:25,1,31.875
159,53,86972,2,0,L|162:22,1,31.875
232,148,87245,6,0,P|234:179|230:211,1,63.75
130,290,87517,2,0,P|127:258|131:226,1,63.75
225,309,87790,1,0,0:0:0:0:
310,267,87926,1,0,0:0:0:0:
331,173,88063,1,0,0:0:0:0:
302,82,88199,1,0,0:0:0:0:
132,228,88335,5,0,0:0:0:0:
