osu file format v14

[General]
AudioFilename: audio.mp3
AudioLeadIn: 0
PreviewTime: -1
Countdown: 1
SampleSet: None
StackLeniency: 0.7
Mode: 0
LetterboxInBreaks: 0
WidescreenStoryboard: 1

[Editor]
Bookmarks: 59543,79865
DistanceSpacing: 0.8
BeatDivisor: 2
GridSize: 4
TimelineZoom: 1.5

[Metadata]
Title:Otter Pop (ft.HOLLIS)
TitleUnicode:Otter Pop (ft.HOLLIS)
Artist:Shawn Wasabi
ArtistUnicode:Shawn Wasabi
Creator:killerwolf741
Version:Insane
Source:
Tags:
BeatmapID:1378781
BeatmapSetID:650686

[Difficulty]
HPDrainRate:7
CircleSize:3.5
OverallDifficulty:5.4
ApproachRate:9
SliderMultiplier:1.6
SliderTickRate:1

[Events]
//Background and Video events
//Break Periods
//Storyboard Layer 0 (Background)
//Storyboard Layer 1 (Fail)
//Storyboard Layer 2 (Pass)
//Storyboard Layer 3 (Foreground)
//Storyboard Sound Samples

[TimingPoints]
7930.49426789167,322.58064516129,4,2,0,100,1,0
59220,-58.8235294117647,4,2,0,100,0,0
69543,-100,4,2,0,100,0,0

[Colours]
Combo1 : 255,255,0
Combo2 : 128,255,0
Combo3 : 0,255,255
Combo4 : 255,0,128

[HitObjects]
144,72,7930,6,0,P|80:176|72:256,1,160
164,168,8575,2,0,P|236:276|304:276,1,160
252,184,9220,1,0,0:0:0:0:
256,180,9382,2,0,P|316:116|312:80,1,80
232,108,9865,6,0,L|40:104,1,160
128,228,10511,1,0,0:0:0:0:
216,116,10833,1,0,0:0:0:0:
300,228,11156,1,0,0:0:0:0:
132,224,11478,2,0,L|304:224,1,160
372,152,12124,5,0,0:0:0:0:
292,224,12446,2,0,L|212:288,1,80
144,240,13091,2,0,P|120:152|168:76,1,160
188,168,13736,2,0,L|324:260,1,160
272,132,14382,2,0,L|184:68,1,80
188,164,14704,1,0,0:0:0:0:
192,164,15027,2,0,L|332:280,1,160
200,256,15672,2,0,L|60:136,1,160
84,252,16317,5,0,0:0:0:0:
156,128,16640,1,0,0:0:0:0:
40,192,16962,1,0,0:0:0:0:
168,224,17285,2,0,L|104:72,1,160
88,240,17769,1,0,0:0:0:0:
252,68,17930,1,0,0:0:0:0:
368,272,18253,6,0,L|300:204,2,80
220,120,18898,2,0,P|164:208|172:236,1,80
212,276,19382,1,0,0:0:0:0:
344,208,19543,1,0,0:0:0:0:
212,276,19865,1,0,0:0:0:0:
208,280,20027,2,0,L|332:68,1,240
144,112,20833,6,0,L|212:180,2,80
312,128,21478,1,0,0:0:0:0:
208,168,21640,1,0,0:0:0:0:
216,48,21962,1,0,0:0:0:0:
340,196,22123,1,0,0:0:0:0:
128,200,22285,1,0,0:0:0:0:
344,96,22446,1,0,0:0:0:0:
244,192,22769,6,0,L|120:76,1,160
136,212,23575,2,0,L|208:280,1,80
196,116,23898,1,0,0:0:0:0:
256,184,24059,2,0,L|328:252,1,80
304,72,24382,1,0,0:0:0:0:
384,152,24543,2,0,L|456:212,1,80
372,264,24865,6,0,L|292:328,1,80
256,180,25349,1,0,0:0:0:0:
136,120,25672,6,0,L|128:224,1,80
256,184,25995,2,0,L|344:124,1,80
212,64,26317,1,0,0:0:0:0:
212,268,26640,1,0,0:0:0:0:
76,172,26801,1,0,0:0:0:0:
76,172,26962,6,0,L|188:168,1,80
280,156,27285,1,0,0:0:0:0:
364,256,27446,2,0,L|456:360,1,80
155,169,27930,1,0,0:0:0:0:
108,304,28091,6,0,L|224:224,1,80
260,288,28414,1,0,0:0:0:0:
208,184,28575,2,0,L|164:112,1,80
252,240,28898,2,0,L|332:188,1,80
264,144,29220,2,0,L|344:96,1,80
384,156,29543,2,0,L|444:228,1,80
164,116,29865,5,0,0:0:0:0:
388,156,30027,1,0,0:0:0:0:
256,240,30188,1,0,0:0:0:0:
328,104,30349,1,0,0:0:0:0:
260,240,30511,2,0,L|72:240,1,160
144,44,31156,6,0,L|224:160,1,80
159,196,31479,1,0,0:0:0:0:
332,102,31640,1,0,0:0:0:0:
260,144,31801,1,0,0:0:0:0:
208,188,31963,2,0,L|260:268,1,80
344,276,32285,5,0,0:0:0:0:
308,192,32446,1,0,0:0:0:0:
292,324,32607,1,0,0:0:0:0:
204,324,32769,1,0,0:0:0:0:
332,100,32930,1,0,0:0:0:0:
292,324,33092,1,0,0:0:0:0:
208,192,33414,6,0,L|376:192,1,160
136,192,33898,1,0,0:0:0:0:
204,264,34059,2,0,L|32:264,1,160
276,264,34543,1,0,0:0:0:0:
368,116,34704,2,0,L|512:116,1,80
288,116,35027,1,0,0:0:0:0:
288,116,35188,1,0,0:0:0:0:
208,188,35349,6,0,L|372:296,1,160
408,48,35995,1,0,0:0:0:0:
204,188,36478,1,0,0:0:0:0:
224,40,36640,1,0,0:0:0:0:
408,188,36801,1,0,0:0:0:0:
200,188,36962,1,0,0:0:0:0:
408,188,37124,1,0,0:0:0:0:
296,52,37285,6,0,L|232:168,1,80
272,228,37607,2,0,L|224:312,1,80
208,56,37930,1,0,0:0:0:0:
272,228,38253,1,0,0:0:0:0:
104,72,39865,6,0,P|224:88|316:152,1,220
352,224,40511,1,0,0:0:0:0:
120,140,40995,1,0,0:0:0:0:
176,80,41156,1,0,0:0:0:0:
240,120,41317,1,0,0:0:0:0:
304,160,41478,1,4,0:0:0:0:
180,236,43091,6,0,L|144:160,1,80
332,236,43414,2,0,L|368:160,1,80
120,280,43736,1,0,0:0:0:0:
392,280,43898,1,0,0:0:0:0:
344,168,44059,5,0,0:0:0:0:
144,168,44220,2,0,L|48:168,1,80
176,168,44543,1,0,0:0:0:0:
368,168,44704,2,0,L|464:168,1,80
256,244,45027,1,0,0:0:0:0:
256,88,45188,2,0,L|256:-8,1,80
256,108,45511,5,0,0:0:0:0:
256,168,45672,1,0,0:0:0:0:
256,240,45833,1,0,0:0:0:0:
256,92,45995,2,0,L|256:264,1,160
332,96,46640,6,0,L|332:200,1,80
408,248,47124,2,0,L|408:144,1,80
480,84,47608,2,0,L|480:188,1,80
484,244,48091,6,0,L|364:244,1,80
340,184,48414,1,0,0:0:0:0:
320,164,48495,1,0,0:0:0:0:
300,144,48575,1,0,0:0:0:0:
136,240,48736,5,0,0:0:0:0:
224,56,48898,2,0,L|136:132,1,80
252,36,49220,1,0,0:0:0:0:
168,216,49382,2,0,L|244:144,1,80
196,224,49704,5,0,0:0:0:0:
336,144,49865,2,0,L|272:208,1,80
352,120,50188,1,0,0:0:0:0:
180,208,50349,2,0,L|112:136,1,80
208,124,50672,5,0,0:0:0:0:
368,64,50833,1,0,0:0:0:0:
364,136,51317,2,0,L|400:232,1,80
366,285,51639,1,0,0:0:0:0:
300,328,51800,1,0,0:0:0:0:
276,328,51962,6,0,L|192:272,1,80
144,224,52285,1,0,0:0:0:0:
324,252,52446,1,0,0:0:0:0:
312,240,52607,2,0,L|256:156,1,80
220,96,52930,1,0,0:0:0:0:
208,100,53091,2,0,L|120:144,1,80
80,156,53414,2,0,L|128:252,1,80
204,96,53736,2,0,L|156:20,1,80
192,188,54059,5,0,0:0:0:0:
160,28,54220,1,0,0:0:0:0:
112,228,54382,1,0,0:0:0:0:
44,96,54543,1,0,0:0:0:0:
44,96,54704,2,0,L|136:128,1,80
152,212,55027,6,0,L|276:260,1,80
244,248,55349,1,0,0:0:0:0:
324,176,55511,1,0,0:0:0:0:
336,180,55672,2,0,L|436:208,1,80
496,280,55995,6,0,P|432:344|392:332,1,80
324,240,56317,2,0,L|196:184,1,80
112,256,56640,1,8,0:0:0:0:
76,112,56841,1,8,0:0:0:0:
248,204,57043,1,8,0:0:0:0:
196,80,57245,1,8,0:0:0:0:
108,260,57486,1,8,0:0:0:0:
48,64,57688,5,8,0:0:0:0:
292,20,57889,1,8,0:0:0:0:
240,284,58091,1,8,0:0:0:0:
48,64,58293,1,8,0:0:0:0:
344,152,58535,2,0,L|400:196,1,60
104,308,58817,6,0,L|48:264,1,60
232,96,59220,1,0,0:0:0:0:
312,320,59543,1,0,0:0:0:0:
112,200,59865,1,0,0:0:0:0:
360,184,60188,1,0,0:0:0:0:
152,380,60511,1,0,0:0:0:0:
296,144,60833,6,0,L|384:224,1,68.0000012969971
96,152,61156,1,0,0:0:0:0:
332,308,61478,1,0,0:0:0:0:
344,64,61801,1,0,0:0:0:0:
168,280,62124,1,0,0:0:0:0:
200,44,62446,5,0,0:0:0:0:
392,296,62769,1,0,0:0:0:0:
104,236,63091,1,0,0:0:0:0:
336,128,63414,2,0,L|400:64,1,68.0000012969971
248,224,63736,1,0,0:0:0:0:
384,76,64059,1,0,0:0:0:0:
360,100,64220,1,0,0:0:0:0:
104,264,64704,6,0,P|124:296|136:304,1,34.0000006484985
184,40,65027,2,0,P|152:60|144:72,1,34.0000006484985
408,120,65349,2,0,P|388:88|376:80,1,34.0000006484985
328,344,65672,2,0,P|360:324|368:312,1,34.0000006484985
104,264,65995,2,0,P|124:296|220:336,1,136.000002593994,0|0,0:3|0:3,0:3:0:0:
360,252,66317,5,0,0:0:0:0:
316,88,66640,1,0,0:0:0:0:
152,132,66962,1,0,0:0:0:0:
196,296,67285,1,0,0:0:0:0:
360,252,67607,5,0,0:0:0:0:
226,184,67930,1,0,0:0:0:0:
250,36,68253,1,0,0:0:0:0:
400,16,68575,2,0,L|428:184,1,136.000002593994
252,36,68898,1,0,0:0:0:0:
500,80,69220,1,0,0:0:0:0:
300,168,69381,1,0,0:0:0:0:
80,244,69543,6,0,L|139:119,1,80
132,296,69865,1,0,0:0:0:0:
364,248,70027,2,0,L|304:123,1,80
312,300,70349,1,0,0:0:0:0:
188,96,70511,1,0,0:0:0:0:
188,112,70672,2,0,L|180:256,1,80
324,244,70995,5,0,0:0:0:0:
184,264,71156,1,0,0:0:0:0:
300,156,71317,2,0,L|336:260,1,80
184,264,71640,1,0,0:0:0:0:
296,160,71801,6,0,L|180:104,1,80
296,160,72124,2,0,L|240:56,1,80
296,160,72446,2,0,L|320:52,1,80
296,160,72769,2,0,L|396:104,1,80
300,208,73091,1,0,0:0:0:0:
300,224,73253,2,0,L|300:312,1,80
216,160,73575,5,0,0:0:0:0:
360,64,73736,2,0,L|284:124,1,80
376,156,74059,1,0,0:0:0:0:
376,156,74220,1,0,0:0:0:0:
244,56,74382,2,0,L|160:124,1,80
