osu file format v14

[General]
AudioFilename: audio.mp3
AudioLeadIn: 0
PreviewTime: 51129
Countdown: 0
SampleSet: Soft
StackLeniency: 0.7
Mode: 3
LetterboxInBreaks: 0
SpecialStyle: 0
WidescreenStoryboard: 1

[Editor]
DistanceSpacing: 1.5
BeatDivisor: 8
GridSize: 4
TimelineZoom: 2.5

[Metadata]
Title:Otter Pop (feat. Hollis)
TitleUnicode:Otter Pop (feat. Hollis)
Artist:Shawn Wasabi
ArtistUnicode:Shawn Wasabi
Creator:MocaLoca
Version:Ocean
Source:
Tags:english pop electronic fa featured artist ft. osu!
BeatmapID:3314113
BeatmapSetID:1623184

[Difficulty]
HPDrainRate:8
CircleSize:4
OverallDifficulty:8
ApproachRate:5
SliderMultiplier:1.4
SliderTickRate:1

[Events]
//Background and Video events
0,0,"us.jpg",0,0
//Break Periods
//Storyboard Layer 0 (Background)
//Storyboard Layer 1 (Fail)
//Storyboard Layer 2 (Pass)
//Storyboard Layer 3 (Foreground)
//Storyboard Layer 4 (Overlay)
//Storyboard Sound Samples

[TimingPoints]
162,645.161315917969,4,2,1,50,1,0
51774,-100,4,2,1,50,0,1
72420,-100,4,2,1,50,0,0
134355,-100,4,2,1,50,0,1
155000,-100,4,2,1,50,0,0

[HitObjects]
64,192,162,5,0,0:0:0:0:
320,192,484,128,0,645:0:0:0:0:
320,192,807,128,0,968:0:0:0:0:
192,192,807,1,0,0:0:0:0:
320,192,1129,128,0,1291:0:0:0:0:
320,192,1452,128,0,1613:0:0:0:0:
192,192,1774,128,0,1989:0:0:0:0:
64,192,1989,128,0,2097:0:0:0:0:
320,192,2097,128,0,2258:0:0:0:0:
448,192,2097,1,0,0:0:0:0:
320,192,2420,128,0,2581:0:0:0:0:
320,192,2742,128,0,2903:0:0:0:0:
320,192,3065,128,0,3226:0:0:0:0:
320,192,3387,128,0,3549:0:0:0:0:
448,192,3387,1,0,0:0:0:0:
192,192,3710,128,0,3871:0:0:0:0:
192,192,4032,128,0,4194:0:0:0:0:
192,192,4355,128,0,4516:0:0:0:0:
448,192,4678,128,0,5000:0:0:0:0:
320,192,4678,1,0,0:0:0:0:
192,192,5000,128,0,5215:0:0:0:0:
64,192,5215,128,0,5323:0:0:0:0:
448,192,5323,1,0,0:0:0:0:
320,192,5645,128,0,5807:0:0:0:0:
320,192,5968,128,0,6129:0:0:0:0:
192,192,5968,1,0,0:0:0:0:
320,192,6291,128,0,6452:0:0:0:0:
320,192,6613,128,0,6774:0:0:0:0:
192,192,6936,128,0,7151:0:0:0:0:
64,192,7151,128,0,7258:0:0:0:0:
320,192,7258,128,0,7420:0:0:0:0:
448,192,7258,1,0,0:0:0:0:
320,192,7581,128,0,7742:0:0:0:0:
320,192,7903,128,0,8065:0:0:0:0:
320,192,8226,128,0,8387:0:0:0:0:
320,192,8549,128,0,8710:0:0:0:0:
448,192,8549,1,0,0:0:0:0:
192,192,8871,128,0,9032:0:0:0:0:
192,192,9194,128,0,9355:0:0:0:0:
192,192,9516,128,0,9678:0:0:0:0:
448,192,9839,128,0,10162:0:0:0:0:
64,192,9839,1,0,0:0:0:0:
320,192,10000,1,0,0:0:0:0:
192,192,10081,1,0,0:0:0:0:
320,192,10162,128,0,10377:0:0:0:0:
64,192,10162,1,0,0:0:0:0:
64,192,10377,128,0,10484:0:0:0:0:
320,192,10484,1,0,0:0:0:0:
448,192,10484,1,0,0:0:0:0:
192,192,10807,128,0,10968:0:0:0:0:
448,192,10968,128,0,11129:0:0:0:0:
320,192,11129,1,0,0:0:0:0:
64,192,11129,1,0,0:0:0:0:
448,192,11452,1,0,0:0:0:0:
320,192,11452,1,0,0:0:0:0:
320,192,11613,1,0,0:0:0:0:
448,192,11613,1,0,0:0:0:0:
64,192,11774,1,0,0:0:0:0:
192,192,11936,1,0,0:0:0:0:
320,192,11936,1,0,0:0:0:0:
320,192,12097,1,0,0:0:0:0:
192,192,12097,1,0,0:0:0:0:
448,192,12258,1,0,0:0:0:0:
192,192,12420,1,0,0:0:0:0:
64,192,12420,1,0,0:0:0:0:
448,192,12581,1,0,0:0:0:0:
320,192,12742,1,0,0:0:0:0:
192,192,12903,1,0,0:0:0:0:
448,192,13065,1,0,0:0:0:0:
64,192,13065,1,0,0:0:0:0:
448,192,13387,128,0,13549:0:0:0:0:
320,192,13549,128,0,13710:0:0:0:0:
192,192,13710,1,0,0:0:0:0:
64,192,13710,1,0,0:0:0:0:
192,192,14032,1,0,0:0:0:0:
320,192,14032,1,0,0:0:0:0:
320,192,14194,1,0,0:0:0:0:
192,192,14194,1,0,0:0:0:0:
448,192,14355,1,0,0:0:0:0:
192,192,14516,1,0,0:0:0:0:
64,192,14516,1,0,0:0:0:0:
64,192,14678,1,0,0:0:0:0:
192,192,14678,1,0,0:0:0:0:
320,192,14839,1,0,0:0:0:0:
448,192,15000,1,0,0:0:0:0:
64,192,15000,1,0,0:0:0:0:
192,192,15323,1,0,0:0:0:0:
320,192,15323,1,0,0:0:0:0:
192,192,15645,1,0,0:0:0:0:
320,192,15645,1,0,0:0:0:0:
192,192,16129,1,0,0:0:0:0:
448,192,16291,1,0,0:0:0:0:
320,192,16291,1,0,0:0:0:0:
192,192,16613,1,0,0:0:0:0:
64,192,16613,1,0,0:0:0:0:
192,192,16774,1,0,0:0:0:0:
64,192,16774,1,0,0:0:0:0:
320,192,16936,1,0,0:0:0:0:
448,192,17097,1,0,0:0:0:0:
64,192,17097,1,0,0:0:0:0:
64,192,17258,1,0,0:0:0:0:
448,192,17258,1,0,0:0:0:0:
192,192,17420,1,0,0:0:0:0:
448,192,17581,1,0,0:0:0:0:
320,192,17581,1,0,0:0:0:0:
64,192,17903,1,0,0:0:0:0:
320,192,18226,1,0,0:0:0:0:
448,192,18226,1,0,0:0:0:0:
320,192,18871,1,0,0:0:0:0:
192,192,18871,1,0,0:0:0:0:
192,192,19194,1,0,0:0:0:0:
64,192,19194,1,0,0:0:0:0:
192,192,19355,1,0,0:0:0:0:
64,192,19355,1,0,0:0:0:0:
320,192,19516,1,0,0:0:0:0:
448,192,19678,1,0,0:0:0:0:
64,192,19678,1,0,0:0:0:0:
64,192,19839,1,0,0:0:0:0:
448,192,19839,1,0,0:0:0:0:
192,192,20000,1,0,0:0:0:0:
320,192,20162,1,0,0:0:0:0:
448,192,20162,1,0,0:0:0:0:
192,192,20484,1,0,0:0:0:0:
64,192,20807,1,0,0:0:0:0:
448,192,20807,1,0,0:0:0:0:
320,192,21129,128,0,21291:0:0:0:0:
192,192,21291,1,0,0:0:0:0:
64,192,21452,1,0,0:0:0:0:
448,192,21452,128,0,21613:0:0:0:0:
320,192,21613,128,0,21774:0:0:0:0:
192,192,21774,1,0,0:0:0:0:
64,192,21774,1,0,0:0:0:0:
192,192,21936,1,0,0:0:0:0:
64,192,21936,1,0,0:0:0:0:
320,192,22097,1,0,0:0:0:0:
448,192,22258,1,0,0:0:0:0:
192,192,22258,1,0,0:0:0:0:
192,192,22420,1,0,0:0:0:0:
448,192,22420,1,0,0:0:0:0:
64,192,22581,1,0,0:0:0:0:
192,192,22742,1,0,0:0:0:0:
320,192,22742,1,0,0:0:0:0:
448,192,22903,1,0,0:0:0:0:
64,192,23065,1,0,0:0:0:0:
320,192,23226,1,0,0:0:0:0:
192,192,23387,1,0,0:0:0:0:
448,192,23387,1,0,0:0:0:0:
320,192,23710,128,0,23871:0:0:0:0:
64,192,23871,1,0,0:0:0:0:
192,192,24032,1,0,0:0:0:0:
448,192,24032,128,0,24194:0:0:0:0:
320,192,24194,128,0,24355:0:0:0:0:
192,192,24355,1,0,0:0:0:0:
64,192,24355,1,0,0:0:0:0:
64,192,24516,1,0,0:0:0:0:
192,192,24516,1,0,0:0:0:0:
320,192,24678,1,0,0:0:0:0:
448,192,24839,1,0,0:0:0:0:
64,192,24839,1,0,0:0:0:0:
64,192,25000,1,0,0:0:0:0:
448,192,25000,1,0,0:0:0:0:
320,192,25162,1,0,0:0:0:0:
192,192,25323,1,0,0:0:0:0:
64,192,25323,1,0,0:0:0:0:
448,192,25645,1,0,0:0:0:0:
320,192,25645,1,0,0:0:0:0:
448,192,25968,1,0,0:0:0:0:
320,192,25968,1,0,0:0:0:0:
320,192,26452,1,0,0:0:0:0:
64,192,26613,1,0,0:0:0:0:
192,192,26613,1,0,0:0:0:0:
192,192,26936,1,0,0:0:0:0:
320,192,26936,1,0,0:0:0:0:
320,192,27097,1,0,0:0:0:0:
192,192,27097,1,0,0:0:0:0:
64,192,27258,1,0,0:0:0:0:
320,192,27420,1,0,0:0:0:0:
448,192,27420,1,0,0:0:0:0:
320,192,27581,1,0,0:0:0:0:
448,192,27581,1,0,0:0:0:0:
192,192,27742,1,0,0:0:0:0:
64,192,27903,1,0,0:0:0:0:
448,192,27903,1,0,0:0:0:0:
320,192,28226,1,0,0:0:0:0:
192,192,28549,1,0,0:0:0:0:
64,192,28549,1,0,0:0:0:0:
192,192,29032,1,0,0:0:0:0:
320,192,29194,1,0,0:0:0:0:
448,192,29194,1,0,0:0:0:0:
64,192,29355,1,0,0:0:0:0:
192,192,29516,1,0,0:0:0:0:
320,192,29516,1,0,0:0:0:0:
320,192,29678,1,0,0:0:0:0:
192,192,29678,1,0,0:0:0:0:
448,192,29839,1,0,0:0:0:0:
192,192,30000,1,0,0:0:0:0:
64,192,30000,1,0,0:0:0:0:
64,192,30162,1,0,0:0:0:0:
192,192,30162,1,0,0:0:0:0:
320,192,30323,1,0,0:0:0:0:
448,192,30484,1,0,0:0:0:0:
64,192,30484,1,0,0:0:0:0:
320,192,30645,1,0,0:0:0:0:
192,192,30726,1,0,0:0:0:0:
64,192,30807,1,0,0:0:0:0:
448,192,30807,1,0,0:0:0:0:
320,192,31129,1,0,0:0:0:0:
448,192,31129,1,0,0:0:0:0:
192,192,31613,1,0,0:0:0:0:
448,192,32420,1,0,0:0:0:0:
320,192,32742,1,0,0:0:0:0:
64,192,32903,1,0,0:0:0:0:
320,192,33065,1,0,0:0:0:0:
192,192,33226,1,0,0:0:0:0:
64,192,33549,1,0,0:0:0:0:
192,192,33710,1,0,0:0:0:0:
320,192,33710,1,0,0:0:0:0:
64,192,33871,1,0,0:0:0:0:
448,192,34032,1,0,0:0:0:0:
320,192,34194,1,0,0:0:0:0:
192,192,35000,1,0,0:0:0:0:
320,192,35484,1,0,0:0:0:0:
64,192,35645,1,0,0:0:0:0:
448,192,35807,1,0,0:0:0:0:
192,192,35968,1,0,0:0:0:0:
320,192,36129,1,0,0:0:0:0:
64,192,36291,1,0,0:0:0:0:
192,192,36291,1,0,0:0:0:0:
320,192,36452,1,0,0:0:0:0:
192,192,36613,1,0,0:0:0:0:
448,192,36774,1,0,0:0:0:0:
64,192,36774,1,0,0:0:0:0:
192,192,37097,1,0,0:0:0:0:
320,192,37258,1,0,0:0:0:0:
64,192,37581,1,0,0:0:0:0:
192,192,37742,1,0,0:0:0:0:
320,192,37903,1,0,0:0:0:0:
192,192,38065,1,0,0:0:0:0:
448,192,38226,1,0,0:0:0:0:
64,192,38387,1,0,0:0:0:0:
320,192,38549,1,0,0:0:0:0:
192,192,38710,1,0,0:0:0:0:
448,192,38871,1,0,0:0:0:0:
320,192,38871,1,0,0:0:0:0:
192,192,39032,1,0,0:0:0:0:
320,192,39194,1,0,0:0:0:0:
448,192,39355,1,0,0:0:0:0:
64,192,39355,1,0,0:0:0:0:
192,192,40162,1,0,0:0:0:0:
64,192,40645,1,0,0:0:0:0:
192,192,40807,1,0,0:0:0:0:
448,192,40968,1,0,0:0:0:0:
320,192,41049,1,0,0:0:0:0:
64,192,41129,1,0,0:0:0:0:
192,192,41129,1,0,0:0:0:0:
192,192,41452,1,0,0:0:0:0:
64,192,41452,1,0,0:0:0:0:
448,192,41613,1,0,0:0:0:0:
320,192,41774,1,0,0:0:0:0:
192,192,41936,1,0,0:0:0:0:
448,192,42097,1,0,0:0:0:0:
64,192,42097,1,0,0:0:0:0:
192,192,42258,1,0,0:0:0:0:
320,192,42420,1,0,0:0:0:0:
448,192,42581,1,0,0:0:0:0:
192,192,42742,1,0,0:0:0:0:
320,192,42903,1,0,0:0:0:0:
64,192,43065,1,0,0:0:0:0:
192,192,43226,1,0,0:0:0:0:
320,192,43387,1,0,0:0:0:0:
448,192,43387,1,0,0:0:0:0:
192,192,43549,1,0,0:0:0:0:
64,192,43710,1,0,0:0:0:0:
448,192,43871,1,0,0:0:0:0:
192,192,44032,1,0,0:0:0:0:
320,192,44032,1,0,0:0:0:0:
448,192,44194,1,0,0:0:0:0:
64,192,44355,1,0,0:0:0:0:
192,192,44516,1,0,0:0:0:0:
320,192,44678,1,0,0:0:0:0:
448,192,44678,1,0,0:0:0:0:
64,192,44839,1,0,0:0:0:0:
192,192,45000,1,0,0:0:0:0:
320,192,45162,1,0,0:0:0:0:
448,192,45323,1,0,0:0:0:0:
64,192,45484,1,0,0:0:0:0:
192,192,45645,1,0,0:0:0:0:
320,192,45807,1,0,0:0:0:0:
448,192,45968,1,0,0:0:0:0:
64,192,45968,1,0,0:0:0:0:
320,192,46129,1,0,0:0:0:0:
192,192,46291,1,0,0:0:0:0:
448,192,46371,1,0,0:0:0:0:
64,192,46452,1,0,0:0:0:0:
192,192,46532,1,0,0:0:0:0:
320,192,46613,1,0,0:0:0:0:
448,192,46613,1,0,0:0:0:0:
192,192,46774,1,0,0:0:0:0:
320,192,46936,1,0,0:0:0:0:
448,192,47097,1,0,0:0:0:0:
64,192,47097,1,0,0:0:0:0:
320,192,47258,1,0,0:0:0:0:
192,192,47258,1,0,0:0:0:0:
448,192,47420,1,0,0:0:0:0:
320,192,47581,1,0,0:0:0:0:
192,192,47742,1,0,0:0:0:0:
64,192,47903,1,0,0:0:0:0:
320,192,48065,1,0,0:0:0:0:
192,192,48226,1,0,0:0:0:0:
448,192,48387,1,0,0:0:0:0:
320,192,48549,1,0,0:0:0:0:
192,192,48549,1,0,0:0:0:0:
64,192,48710,1,0,0:0:0:0:
320,192,48871,1,0,0:0:0:0:
192,192,49032,1,0,0:0:0:0:
448,192,49194,1,0,0:0:0:0:
320,192,49355,1,0,0:0:0:0:
192,192,49516,1,0,0:0:0:0:
448,192,51129,1,0,0:0:0:0:
64,192,51291,1,0,0:0:0:0:
320,192,51452,1,0,0:0:0:0:
192,192,51613,1,0,0:0:0:0:
448,192,51774,1,0,0:0:0:0:
64,192,51774,1,0,0:0:0:0:
320,192,52097,128,0,52258:0:0:0:0:
64,192,52258,1,0,0:0:0:0:
192,192,52420,1,0,0:0:0:0:
320,192,52420,128,0,52581:0:0:0:0:
192,192,52742,1,0,0:0:0:0:
320,192,52742,128,0,52903:0:0:0:0:
64,192,52903,1,0,0:0:0:0:
448,192,52903,1,0,0:0:0:0:
320,192,53065,128,0,53226:0:0:0:0:
448,192,53226,1,0,0:0:0:0:
64,192,53226,1,0,0:0:0:0:
320,192,53387,1,0,0:0:0:0:
192,192,53387,128,0,53602:0:0:0:0:
64,192,53602,128,0,53710:0:0:0:0:
320,192,53710,1,0,0:0:0:0:
448,192,53710,128,0,53871:0:0:0:0:
320,192,54032,128,0,54194:0:0:0:0:
64,192,54355,1,0,0:0:0:0:
320,192,54355,128,0,54516:0:0:0:0:
320,192,54678,128,0,54839:0:0:0:0:
448,192,54839,1,0,0:0:0:0:
64,192,55000,1,0,0:0:0:0:
320,192,55000,128,0,55162:0:0:0:0:
192,192,55323,128,0,55484:0:0:0:0:
64,192,55323,1,0,0:0:0:0:
448,192,55484,1,0,0:0:0:0:
320,192,55484,1,0,0:0:0:0:
64,192,55645,128,0,55807:0:0:0:0:
448,192,55807,1,0,0:0:0:0:
192,192,55807,1,0,0:0:0:0:
64,192,55968,1,0,0:0:0:0:
320,192,55968,128,0,56129:0:0:0:0:
192,192,56129,128,0,56291:0:0:0:0:
64,192,56291,1,0,0:0:0:0:
448,192,56291,128,0,56452:0:0:0:0:
320,192,56613,128,0,56774:0:0:0:0:
192,192,56774,128,0,56936:0:0:0:0:
64,192,56936,1,0,0:0:0:0:
448,192,56936,1,0,0:0:0:0:
320,192,57258,128,0,57420:0:0:0:0:
64,192,57420,1,0,0:0:0:0:
192,192,57581,1,0,0:0:0:0:
320,192,57581,128,0,57742:0:0:0:0:
192,192,57903,1,0,0:0:0:0:
320,192,57903,128,0,58065:0:0:0:0:
64,192,58065,1,0,0:0:0:0:
448,192,58065,1,0,0:0:0:0:
320,192,58226,128,0,58387:0:0:0:0:
64,192,58387,1,0,0:0:0:0:
448,192,58387,1,0,0:0:0:0:
192,192,58549,128,0,58764:0:0:0:0:
320,192,58549,1,0,0:0:0:0:
64,192,58764,128,0,58871:0:0:0:0:
320,192,58871,1,0,0:0:0:0:
448,192,58871,128,0,59032:0:0:0:0:
320,192,59194,128,0,59355:0:0:0:0:
64,192,59516,1,0,0:0:0:0:
320,192,59516,128,0,59678:0:0:0:0:
320,192,59839,128,0,60000:0:0:0:0:
448,192,60000,1,0,0:0:0:0:
64,192,60162,1,0,0:0:0:0:
320,192,60162,128,0,60323:0:0:0:0:
192,192,60484,128,0,60645:0:0:0:0:
64,192,60484,1,0,0:0:0:0:
448,192,60645,1,0,0:0:0:0:
320,192,60645,1,0,0:0:0:0:
64,192,60807,128,0,60968:0:0:0:0:
448,192,60968,1,0,0:0:0:0:
192,192,60968,1,0,0:0:0:0:
64,192,61129,1,0,0:0:0:0:
320,192,61129,128,0,61291:0:0:0:0:
192,192,61291,128,0,61452:0:0:0:0:
64,192,61452,1,0,0:0:0:0:
448,192,61452,128,0,61613:0:0:0:0:
320,192,61613,1,0,0:0:0:0:
192,192,61694,1,0,0:0:0:0:
64,192,61774,1,0,0:0:0:0:
320,192,61774,128,0,61936:0:0:0:0:
192,192,61936,128,0,62097:0:0:0:0:
64,192,62097,1,0,0:0:0:0:
448,192,62097,1,0,0:0:0:0:
320,192,62420,128,0,62581:0:0:0:0:
192,192,62742,1,0,0:0:0:0:
320,192,62742,128,0,62903:0:0:0:0:
192,192,63065,1,0,0:0:0:0:
320,192,63065,128,0,63226:0:0:0:0:
64,192,63226,1,0,0:0:0:0:
448,192,63226,1,0,0:0:0:0:
320,192,63387,128,0,63549:0:0:0:0:
64,192,63549,1,0,0:0:0:0:
448,192,63549,1,0,0:0:0:0:
320,192,63710,1,0,0:0:0:0:
192,192,63710,128,0,63925:0:0:0:0:
64,192,63925,128,0,64032:0:0:0:0:
320,192,64032,1,0,0:0:0:0:
448,192,64032,128,0,64194:0:0:0:0:
320,192,64355,128,0,64516:0:0:0:0:
192,192,64678,1,0,0:0:0:0:
320,192,64678,128,0,64839:0:0:0:0:
320,192,65000,128,0,65162:0:0:0:0:
64,192,65323,1,0,0:0:0:0:
320,192,65323,128,0,65484:0:0:0:0:
192,192,65645,128,0,65807:0:0:0:0:
64,192,65645,1,0,0:0:0:0:
448,192,65807,1,0,0:0:0:0:
320,192,65807,1,0,0:0:0:0:
64,192,65968,128,0,66129:0:0:0:0:
448,192,66129,1,0,0:0:0:0:
192,192,66129,1,0,0:0:0:0:
64,192,66291,1,0,0:0:0:0:
320,192,66291,128,0,66452:0:0:0:0:
192,192,66452,128,0,66613:0:0:0:0:
64,192,66613,1,0,0:0:0:0:
448,192,66613,128,0,66774:0:0:0:0:
320,192,66936,128,0,67097:0:0:0:0:
192,192,67097,128,0,67258:0:0:0:0:
448,192,67258,1,0,0:0:0:0:
64,192,67258,1,0,0:0:0:0:
320,192,67581,128,0,67742:0:0:0:0:
192,192,67903,1,0,0:0:0:0:
320,192,67903,128,0,68065:0:0:0:0:
192,192,68226,1,0,0:0:0:0:
320,192,68226,128,0,68387:0:0:0:0:
64,192,68387,1,0,0:0:0:0:
448,192,68387,1,0,0:0:0:0:
320,192,68549,128,0,68710:0:0:0:0:
64,192,68710,1,0,0:0:0:0:
448,192,68710,1,0,0:0:0:0:
320,192,68871,1,0,0:0:0:0:
192,192,68871,128,0,69086:0:0:0:0:
64,192,69086,128,0,69194:0:0:0:0:
320,192,69194,1,0,0:0:0:0:
448,192,69194,128,0,69355:0:0:0:0:
320,192,69516,128,0,69678:0:0:0:0:
192,192,69839,1,0,0:0:0:0:
320,192,69839,128,0,70000:0:0:0:0:
320,192,70162,128,0,70323:0:0:0:0:
64,192,70484,1,0,0:0:0:0:
320,192,70484,128,0,70645:0:0:0:0:
192,192,70807,128,0,70968:0:0:0:0:
64,192,70807,1,0,0:0:0:0:
448,192,70968,1,0,0:0:0:0:
320,192,70968,1,0,0:0:0:0:
64,192,71129,128,0,71291:0:0:0:0:
448,192,71291,1,0,0:0:0:0:
192,192,71291,1,0,0:0:0:0:
64,192,71452,1,0,0:0:0:0:
320,192,71452,128,0,71613:0:0:0:0:
192,192,71613,128,0,71774:0:0:0:0:
64,192,71774,1,0,0:0:0:0:
448,192,71774,128,0,71936:0:0:0:0:
320,192,71936,1,0,0:0:0:0:
192,192,72016,1,0,0:0:0:0:
64,192,72097,1,0,0:0:0:0:
320,192,72097,128,0,72258:0:0:0:0:
192,192,72258,128,0,72420:0:0:0:0:
64,192,72420,1,0,0:0:0:0:
448,192,72420,1,0,0:0:0:0:
320,192,72742,128,0,72903:0:0:0:0:
320,192,73065,128,0,73226:0:0:0:0:
192,192,73065,1,0,0:0:0:0:
320,192,73387,128,0,73549:0:0:0:0:
64,192,73387,1,0,0:0:0:0:
64,192,73549,1,0,0:0:0:0:
320,192,73710,128,0,73871:0:0:0:0:
448,192,73871,1,0,0:0:0:0:
448,192,74032,1,0,0:0:0:0:
192,192,74032,128,0,74248:0:0:0:0:
64,192,74248,128,0,74355:0:0:0:0:
448,192,74355,1,0,0:0:0:0:
320,192,74355,128,0,74516:0:0:0:0:
320,192,74678,128,0,74839:0:0:0:0:
192,192,74839,1,0,0:0:0:0:
448,192,75000,1,0,0:0:0:0:
320,192,75000,128,0,75162:0:0:0:0:
192,192,75162,1,0,0:0:0:0:
320,192,75323,128,0,75484:0:0:0:0:
192,192,75645,1,0,0:0:0:0:
320,192,75645,128,0,75807:0:0:0:0:
192,192,75968,128,0,76129:0:0:0:0:
448,192,75968,1,0,0:0:0:0:
448,192,76129,1,0,0:0:0:0:
192,192,76291,128,0,76452:0:0:0:0:
64,192,76452,1,0,0:0:0:0:
192,192,76613,128,0,76774:0:0:0:0:
64,192,76613,1,0,0:0:0:0:
320,192,76936,1,0,0:0:0:0:
448,192,76936,128,0,77258:0:0:0:0:
192,192,77097,1,0,0:0:0:0:
64,192,77258,128,0,77473:0:0:0:0:
448,192,77473,128,0,77581:0:0:0:0:
192,192,77581,1,0,0:0:0:0:
320,192,77581,1,0,0:0:0:0:
64,192,77742,1,0,0:0:0:0:
320,192,77903,128,0,78065:0:0:0:0:
448,192,78226,1,0,0:0:0:0:
320,192,78226,128,0,78387:0:0:0:0:
320,192,78549,128,0,78710:0:0:0:0:
448,192,78549,1,0,0:0:0:0:
448,192,78710,1,0,0:0:0:0:
320,192,78871,128,0,79032:0:0:0:0:
64,192,79032,1,0,0:0:0:0:
64,192,79194,1,0,0:0:0:0:
192,192,79194,128,0,79409:0:0:0:0:
64,192,79409,128,0,79516:0:0:0:0:
448,192,79516,1,0,0:0:0:0:
320,192,79516,128,0,79678:0:0:0:0:
64,192,79678,1,0,0:0:0:0:
320,192,79839,128,0,80000:0:0:0:0:
192,192,80000,1,0,0:0:0:0:
64,192,80162,1,0,0:0:0:0:
320,192,80162,128,0,80323:0:0:0:0:
192,192,80323,1,0,0:0:0:0:
320,192,80484,128,0,80645:0:0:0:0:
448,192,80807,1,0,0:0:0:0:
320,192,80807,128,0,80968:0:0:0:0:
448,192,81129,1,0,0:0:0:0:
192,192,81129,128,0,81291:0:0:0:0:
448,192,81291,1,0,0:0:0:0:
192,192,81452,128,0,81613:0:0:0:0:
64,192,81613,1,0,0:0:0:0:
192,192,81774,128,0,81936:0:0:0:0:
64,192,81774,1,0,0:0:0:0:
320,192,82097,1,0,0:0:0:0:
448,192,82097,128,0,82420:0:0:0:0:
192,192,82420,1,0,0:0:0:0:
64,192,82420,128,0,82635:0:0:0:0:
448,192,82635,128,0,82742:0:0:0:0:
192,192,82742,1,0,0:0:0:0:
320,192,82742,1,0,0:0:0:0:
448,192,83065,128,0,83226:0:0:0:0:
192,192,83226,128,0,83387:0:0:0:0:
320,192,83387,1,0,0:0:0:0:
64,192,83387,1,0,0:0:0:0:
192,192,83710,1,0,0:0:0:0:
64,192,83710,1,0,0:0:0:0:
192,192,83871,1,0,0:0:0:0:
64,192,83871,1,0,0:0:0:0:
320,192,84032,1,0,0:0:0:0:
448,192,84194,1,0,0:0:0:0:
64,192,84194,1,0,0:0:0:0:
64,192,84355,1,0,0:0:0:0:
448,192,84355,1,0,0:0:0:0:
192,192,84516,1,0,0:0:0:0:
320,192,84678,1,0,0:0:0:0:
448,192,84678,1,0,0:0:0:0:
192,192,84839,1,0,0:0:0:0:
64,192,85000,1,0,0:0:0:0:
448,192,85162,1,0,0:0:0:0:
192,192,85323,1,0,0:0:0:0:
320,192,85323,1,0,0:0:0:0:
448,192,85645,128,0,85807:0:0:0:0:
320,192,85807,128,0,85968:0:0:0:0:
192,192,85968,1,0,0:0:0:0:
64,192,85968,1,0,0:0:0:0:
192,192,86291,1,0,0:0:0:0:
64,192,86291,1,0,0:0:0:0:
64,192,86452,1,0,0:0:0:0:
192,192,86452,1,0,0:0:0:0:
320,192,86613,1,0,0:0:0:0:
448,192,86774,1,0,0:0:0:0:
64,192,86774,1,0,0:0:0:0:
64,192,86936,1,0,0:0:0:0:
448,192,86936,1,0,0:0:0:0:
192,192,87097,1,0,0:0:0:0:
320,192,87258,1,0,0:0:0:0:
448,192,87258,1,0,0:0:0:0:
320,192,87581,1,0,0:0:0:0:
448,192,87581,1,0,0:0:0:0:
64,192,87903,1,0,0:0:0:0:
192,192,87903,1,0,0:0:0:0:
192,192,88387,1,0,0:0:0:0:
320,192,88549,1,0,0:0:0:0:
448,192,88549,1,0,0:0:0:0:
192,192,88871,1,0,0:0:0:0:
64,192,88871,1,0,0:0:0:0:
64,192,89032,1,0,0:0:0:0:
192,192,89032,1,0,0:0:0:0:
320,192,89194,1,0,0:0:0:0:
448,192,89355,1,0,0:0:0:0:
64,192,89355,1,0,0:0:0:0:
64,192,89516,1,0,0:0:0:0:
448,192,89516,1,0,0:0:0:0:
192,192,89678,1,0,0:0:0:0:
320,192,89839,1,0,0:0:0:0:
448,192,89839,1,0,0:0:0:0:
192,192,90162,1,0,0:0:0:0:
64,192,90484,1,0,0:0:0:0:
448,192,90484,1,0,0:0:0:0:
320,192,91129,1,0,0:0:0:0:
192,192,91129,1,0,0:0:0:0:
64,192,91452,1,0,0:0:0:0:
192,192,91452,1,0,0:0:0:0:
192,192,91613,1,0,0:0:0:0:
64,192,91613,1,0,0:0:0:0:
320,192,91774,1,0,0:0:0:0:
448,192,91936,1,0,0:0:0:0:
64,192,91936,1,0,0:0:0:0:
64,192,92097,1,0,0:0:0:0:
448,192,92097,1,0,0:0:0:0:
192,192,92258,1,0,0:0:0:0:
320,192,92420,1,0,0:0:0:0:
448,192,92420,1,0,0:0:0:0:
192,192,92742,1,0,0:0:0:0:
448,192,93065,1,0,0:0:0:0:
64,192,93065,1,0,0:0:0:0:
192,192,93387,1,0,0:0:0:0:
448,192,93710,1,0,0:0:0:0:
64,192,93710,1,0,0:0:0:0:
192,192,93871,1,0,0:0:0:0:
320,192,94032,1,0,0:0:0:0:
448,192,94032,1,0,0:0:0:0:
320,192,94194,1,0,0:0:0:0:
448,192,94194,1,0,0:0:0:0:
192,192,94355,1,0,0:0:0:0:
64,192,94516,1,0,0:0:0:0:
320,192,94516,1,0,0:0:0:0:
320,192,94678,1,0,0:0:0:0:
64,192,94678,1,0,0:0:0:0:
448,192,94839,1,0,0:0:0:0:
320,192,95000,1,0,0:0:0:0:
192,192,95000,1,0,0:0:0:0:
64,192,95162,1,0,0:0:0:0:
448,192,95323,1,0,0:0:0:0:
64,192,95484,1,0,0:0:0:0:
192,192,95645,1,0,0:0:0:0:
320,192,95645,1,0,0:0:0:0:
192,192,95968,1,0,0:0:0:0:
320,192,96291,1,0,0:0:0:0:
64,192,96291,1,0,0:0:0:0:
192,192,96452,1,0,0:0:0:0:
320,192,96613,1,0,0:0:0:0:
448,192,96613,1,0,0:0:0:0:
448,192,96774,1,0,0:0:0:0:
320,192,96774,1,0,0:0:0:0:
192,192,96936,1,0,0:0:0:0:
64,192,97097,1,0,0:0:0:0:
448,192,97097,1,0,0:0:0:0:
448,192,97258,1,0,0:0:0:0:
64,192,97258,1,0,0:0:0:0:
192,192,97420,1,0,0:0:0:0:
320,192,97581,1,0,0:0:0:0:
448,192,97581,1,0,0:0:0:0:
64,192,97903,1,0,0:0:0:0:
448,192,97903,1,0,0:0:0:0:
64,192,98226,1,0,0:0:0:0:
448,192,98226,1,0,0:0:0:0:
448,192,98710,1,0,0:0:0:0:
192,192,98871,1,0,0:0:0:0:
64,192,98871,1,0,0:0:0:0:
320,192,99194,1,0,0:0:0:0:
192,192,99194,1,0,0:0:0:0:
192,192,99355,1,0,0:0:0:0:
320,192,99355,1,0,0:0:0:0:
448,192,99516,1,0,0:0:0:0:
192,192,99678,1,0,0:0:0:0:
64,192,99678,1,0,0:0:0:0:
192,192,99839,1,0,0:0:0:0:
64,192,99839,1,0,0:0:0:0:
320,192,100000,1,0,0:0:0:0:
448,192,100162,1,0,0:0:0:0:
64,192,100162,1,0,0:0:0:0:
192,192,100484,1,0,0:0:0:0:
320,192,100807,1,0,0:0:0:0:
448,192,100807,1,0,0:0:0:0:
320,192,101291,1,0,0:0:0:0:
192,192,101452,1,0,0:0:0:0:
64,192,101452,1,0,0:0:0:0:
448,192,101613,1,0,0:0:0:0:
320,192,101774,1,0,0:0:0:0:
192,192,101774,1,0,0:0:0:0:
192,192,101936,1,0,0:0:0:0:
320,192,101936,1,0,0:0:0:0:
64,192,102097,1,0,0:0:0:0:
320,192,102258,1,0,0:0:0:0:
448,192,102258,1,0,0:0:0:0:
448,192,102420,1,0,0:0:0:0:
320,192,102420,1,0,0:0:0:0:
192,192,102581,1,0,0:0:0:0:
64,192,102742,1,0,0:0:0:0:
448,192,102742,1,0,0:0:0:0:
192,192,102903,1,0,0:0:0:0:
320,192,102984,1,0,0:0:0:0:
448,192,103065,1,0,0:0:0:0:
64,192,103065,1,0,0:0:0:0:
192,192,103387,1,0,0:0:0:0:
64,192,103387,1,0,0:0:0:0:
320,192,103871,1,0,0:0:0:0:
64,192,104678,1,0,0:0:0:0:
192,192,105000,1,0,0:0:0:0:
448,192,105162,1,0,0:0:0:0:
192,192,105323,1,0,0:0:0:0:
320,192,105484,1,0,0:0:0:0:
448,192,105807,1,0,0:0:0:0:
320,192,105968,1,0,0:0:0:0:
192,192,105968,1,0,0:0:0:0:
448,192,106129,1,0,0:0:0:0:
64,192,106291,1,0,0:0:0:0:
192,192,106452,1,0,0:0:0:0:
320,192,107258,1,0,0:0:0:0:
192,192,107742,1,0,0:0:0:0:
448,192,107903,1,0,0:0:0:0:
64,192,108065,1,0,0:0:0:0:
320,192,108226,1,0,0:0:0:0:
192,192,108387,1,0,0:0:0:0:
448,192,108549,1,0,0:0:0:0:
320,192,108549,1,0,0:0:0:0:
192,192,108710,1,0,0:0:0:0:
320,192,108871,1,0,0:0:0:0:
64,192,109032,1,0,0:0:0:0:
448,192,109032,1,0,0:0:0:0:
320,192,109355,1,0,0:0:0:0:
192,192,109516,1,0,0:0:0:0:
448,192,109839,1,0,0:0:0:0:
320,192,110000,1,0,0:0:0:0:
192,192,110162,1,0,0:0:0:0:
320,192,110323,1,0,0:0:0:0:
64,192,110484,1,0,0:0:0:0:
448,192,110645,1,0,0:0:0:0:
192,192,110807,1,0,0:0:0:0:
320,192,110968,1,0,0:0:0:0:
64,192,111129,1,0,0:0:0:0:
192,192,111129,1,0,0:0:0:0:
320,192,111291,1,0,0:0:0:0:
192,192,111452,1,0,0:0:0:0:
64,192,111613,1,0,0:0:0:0:
448,192,111613,1,0,0:0:0:0:
320,192,112420,1,0,0:0:0:0:
448,192,112903,1,0,0:0:0:0:
320,192,113065,1,0,0:0:0:0:
64,192,113226,1,0,0:0:0:0:
192,192,113307,1,0,0:0:0:0:
448,192,113387,1,0,0:0:0:0:
320,192,113387,1,0,0:0:0:0:
320,192,113710,1,0,0:0:0:0:
448,192,113710,1,0,0:0:0:0:
64,192,113871,1,0,0:0:0:0:
192,192,114032,1,0,0:0:0:0:
320,192,114194,1,0,0:0:0:0:
64,192,114355,1,0,0:0:0:0:
448,192,114355,1,0,0:0:0:0:
320,192,114516,1,0,0:0:0:0:
192,192,114678,1,0,0:0:0:0:
64,192,114839,1,0,0:0:0:0:
320,192,115000,1,0,0:0:0:0:
192,192,115162,1,0,0:0:0:0:
448,192,115323,1,0,0:0:0:0:
320,192,115484,1,0,0:0:0:0:
192,192,115645,1,0,0:0:0:0:
64,192,115645,1,0,0:0:0:0:
320,192,115807,1,0,0:0:0:0:
448,192,115968,1,0,0:0:0:0:
64,192,116129,1,0,0:0:0:0:
320,192,116291,1,0,0:0:0:0:
192,192,116291,1,0,0:0:0:0:
64,192,116452,1,0,0:0:0:0:
448,192,116613,1,0,0:0:0:0:
320,192,116774,1,0,0:0:0:0:
192,192,116936,1,0,0:0:0:0:
64,192,116936,1,0,0:0:0:0:
448,192,117097,1,0,0:0:0:0:
320,192,117258,1,0,0:0:0:0:
192,192,117420,1,0,0:0:0:0:
64,192,117581,1,0,0:0:0:0:
448,192,117742,1,0,0:0:0:0:
320,192,117903,1,0,0:0:0:0:
192,192,118065,1,0,0:0:0:0:
64,192,118226,1,0,0:0:0:0:
448,192,118226,1,0,0:0:0:0:
192,192,118387,1,0,0:0:0:0:
320,192,118549,1,0,0:0:0:0:
64,192,118629,1,0,0:0:0:0:
448,192,118710,1,0,0:0:0:0:
320,192,118791,1,0,0:0:0:0:
64,192,118871,1,0,0:0:0:0:
192,192,118871,1,0,0:0:0:0:
320,192,119032,1,0,0:0:0:0:
192,192,119194,1,0,0:0:0:0:
64,192,119355,1,0,0:0:0:0:
448,192,119355,1,0,0:0:0:0:
192,192,119516,1,0,0:0:0:0:
320,192,119516,1,0,0:0:0:0:
64,192,119678,1,0,0:0:0:0:
192,192,119839,1,0,0:0:0:0:
320,192,120000,1,0,0:0:0:0:
448,192,120162,1,0,0:0:0:0:
192,192,120323,1,0,0:0:0:0:
320,192,120484,1,0,0:0:0:0:
64,192,120645,1,0,0:0:0:0:
192,192,120807,1,0,0:0:0:0:
320,192,120807,1,0,0:0:0:0:
448,192,120968,1,0,0:0:0:0:
192,192,121129,1,0,0:0:0:0:
320,192,121291,1,0,0:0:0:0:
64,192,121452,1,0,0:0:0:0:
192,192,121613,1,0,0:0:0:0:
320,192,121774,1,0,0:0:0:0:
64,192,123387,1,0,0:0:0:0:
320,192,123549,1,0,0:0:0:0:
64,192,123710,1,0,0:0:0:0:
192,192,123871,1,0,0:0:0:0:
320,192,124355,128,0,124516:0:0:0:0:
320,192,124678,128,0,124839:0:0:0:0:
192,192,124678,1,0,0:0:0:0:
320,192,125000,128,0,125162:0:0:0:0:
320,192,125323,128,0,125484:0:0:0:0:
448,192,125484,1,0,0:0:0:0:
192,192,125645,128,0,125860:0:0:0:0:
64,192,125860,128,0,125968:0:0:0:0:
448,192,125968,128,0,126129:0:0:0:0:
320,192,125968,1,0,0:0:0:0:
320,192,126291,128,0,126452:0:0:0:0:
320,192,126613,128,0,126774:0:0:0:0:
320,192,126936,128,0,127097:0:0:0:0:
320,192,127258,128,0,127420:0:0:0:0:
192,192,127258,1,0,0:0:0:0:
192,192,127581,128,0,127742:0:0:0:0:
64,192,127903,128,0,128065:0:0:0:0:
448,192,128065,1,0,0:0:0:0:
320,192,128226,128,0,128387:0:0:0:0:
192,192,128387,128,0,128549:0:0:0:0:
64,192,128549,1,0,0:0:0:0:
448,192,128549,128,0,128710:0:0:0:0:
320,192,128871,128,0,129032:0:0:0:0:
192,192,129032,128,0,129194:0:0:0:0:
320,192,129516,128,0,129678:0:0:0:0:
320,192,129839,128,0,130000:0:0:0:0:
192,192,129839,1,0,0:0:0:0:
320,192,130162,128,0,130323:0:0:0:0:
320,192,130484,128,0,130645:0:0:0:0:
64,192,130645,1,0,0:0:0:0:
192,192,130807,128,0,131022:0:0:0:0:
64,192,131022,128,0,131129:0:0:0:0:
320,192,131129,1,0,0:0:0:0:
448,192,131129,128,0,131291:0:0:0:0:
320,192,131452,128,0,131613:0:0:0:0:
320,192,131774,128,0,131936:0:0:0:0:
320,192,132097,128,0,132258:0:0:0:0:
320,192,132420,128,0,132581:0:0:0:0:
192,192,132420,1,0,0:0:0:0:
192,192,132742,128,0,132903:0:0:0:0:
448,192,132903,1,0,0:0:0:0:
64,192,133065,128,0,133226:0:0:0:0:
192,192,133226,1,0,0:0:0:0:
320,192,133387,128,0,133549:0:0:0:0:
192,192,133549,128,0,133710:0:0:0:0:
448,192,133710,128,0,133871:0:0:0:0:
64,192,133710,1,0,0:0:0:0:
320,192,133871,1,0,0:0:0:0:
192,192,133952,1,0,0:0:0:0:
64,192,134032,1,0,0:0:0:0:
320,192,134032,128,0,134194:0:0:0:0:
192,192,134194,128,0,134355:0:0:0:0:
64,192,134355,1,0,0:0:0:0:
448,192,134355,1,0,0:0:0:0:
320,192,134678,128,0,134839:0:0:0:0:
64,192,134839,1,0,0:0:0:0:
192,192,135000,1,0,0:0:0:0:
320,192,135000,128,0,135162:0:0:0:0:
192,192,135323,1,0,0:0:0:0:
320,192,135323,128,0,135484:0:0:0:0:
64,192,135484,1,0,0:0:0:0:
448,192,135484,1,0,0:0:0:0:
320,192,135645,128,0,135807:0:0:0:0:
64,192,135807,1,0,0:0:0:0:
448,192,135807,1,0,0:0:0:0:
192,192,135968,128,0,136183:0:0:0:0:
320,192,135968,1,0,0:0:0:0:
64,192,136183,128,0,136291:0:0:0:0:
320,192,136291,1,0,0:0:0:0:
448,192,136291,128,0,136452:0:0:0:0:
320,192,136613,128,0,136774:0:0:0:0:
64,192,136936,1,0,0:0:0:0:
320,192,136936,128,0,137097:0:0:0:0:
320,192,137258,128,0,137420:0:0:0:0:
448,192,137420,1,0,0:0:0:0:
64,192,137581,1,0,0:0:0:0:
320,192,137581,128,0,137742:0:0:0:0:
192,192,137903,128,0,138065:0:0:0:0:
64,192,137903,1,0,0:0:0:0:
448,192,138065,1,0,0:0:0:0:
320,192,138065,1,0,0:0:0:0:
64,192,138226,128,0,138387:0:0:0:0:
448,192,138387,1,0,0:0:0:0:
320,192,138387,1,0,0:0:0:0:
64,192,138549,1,0,0:0:0:0:
192,192,138549,128,0,138710:0:0:0:0:
320,192,138710,128,0,138871:0:0:0:0:
448,192,138871,1,0,0:0:0:0:
64,192,138871,1,0,0:0:0:0:
320,192,139194,128,0,139355:0:0:0:0:
192,192,139355,128,0,139516:0:0:0:0:
64,192,139516,1,0,0:0:0:0:
448,192,139516,1,0,0:0:0:0:
320,192,139839,128,0,140000:0:0:0:0:
64,192,140000,1,0,0:0:0:0:
192,192,140162,1,0,0:0:0:0:
320,192,140162,128,0,140323:0:0:0:0:
192,192,140484,1,0,0:0:0:0:
320,192,140484,128,0,140645:0:0:0:0:
64,192,140645,1,0,0:0:0:0:
448,192,140645,1,0,0:0:0:0:
320,192,140807,128,0,140968:0:0:0:0:
192,192,140968,1,0,0:0:0:0:
64,192,140968,1,0,0:0:0:0:
448,192,141129,1,0,0:0:0:0:
192,192,141129,128,0,141344:0:0:0:0:
64,192,141344,128,0,141452:0:0:0:0:
320,192,141452,1,0,0:0:0:0:
448,192,141452,128,0,141613:0:0:0:0:
320,192,141774,128,0,141936:0:0:0:0:
64,192,142097,1,0,0:0:0:0:
320,192,142097,128,0,142258:0:0:0:0:
320,192,142420,128,0,142581:0:0:0:0:
448,192,142581,1,0,0:0:0:0:
64,192,142742,1,0,0:0:0:0:
320,192,142742,128,0,142903:0:0:0:0:
192,192,143065,128,0,143226:0:0:0:0:
64,192,143065,1,0,0:0:0:0:
448,192,143226,1,0,0:0:0:0:
320,192,143226,1,0,0:0:0:0:
64,192,143387,128,0,143549:0:0:0:0:
448,192,143549,1,0,0:0:0:0:
320,192,143549,1,0,0:0:0:0:
64,192,143710,1,0,0:0:0:0:
192,192,143710,128,0,143871:0:0:0:0:
320,192,143871,128,0,144032:0:0:0:0:
448,192,144032,1,0,0:0:0:0:
64,192,144032,1,0,0:0:0:0:
192,192,144194,1,0,0:0:0:0:
320,192,144274,1,0,0:0:0:0:
448,192,144355,128,0,144516:0:0:0:0:
64,192,144355,1,0,0:0:0:0:
320,192,144516,128,0,144678:0:0:0:0:
64,192,144678,1,0,0:0:0:0:
448,192,144678,1,0,0:0:0:0:
320,192,145000,128,0,145162:0:0:0:0:
192,192,145323,1,0,0:0:0:0:
320,192,145323,128,0,145484:0:0:0:0:
192,192,145645,1,0,0:0:0:0:
320,192,145645,128,0,145807:0:0:0:0:
64,192,145807,1,0,0:0:0:0:
448,192,145807,1,0,0:0:0:0:
320,192,145968,128,0,146129:0:0:0:0:
64,192,146129,1,0,0:0:0:0:
448,192,146129,1,0,0:0:0:0:
320,192,146291,1,0,0:0:0:0:
192,192,146291,128,0,146506:0:0:0:0:
64,192,146506,128,0,146613:0:0:0:0:
320,192,146613,1,0,0:0:0:0:
448,192,146613,128,0,146774:0:0:0:0:
320,192,146936,128,0,147097:0:0:0:0:
192,192,147258,1,0,0:0:0:0:
320,192,147258,128,0,147420:0:0:0:0:
320,192,147581,128,0,147742:0:0:0:0:
64,192,147903,1,0,0:0:0:0:
320,192,147903,128,0,148065:0:0:0:0:
192,192,148226,128,0,148387:0:0:0:0:
64,192,148226,1,0,0:0:0:0:
448,192,148387,1,0,0:0:0:0:
320,192,148387,1,0,0:0:0:0:
64,192,148549,128,0,148710:0:0:0:0:
448,192,148710,1,0,0:0:0:0:
320,192,148710,1,0,0:0:0:0:
64,192,148871,1,0,0:0:0:0:
192,192,148871,128,0,149032:0:0:0:0:
320,192,149032,128,0,149194:0:0:0:0:
448,192,149194,1,0,0:0:0:0:
64,192,149194,1,0,0:0:0:0:
64,192,149516,128,0,149678:0:0:0:0:
192,192,149678,128,0,149839:0:0:0:0:
320,192,149839,1,0,0:0:0:0:
448,192,149839,1,0,0:0:0:0:
320,192,150162,128,0,150323:0:0:0:0:
192,192,150484,1,0,0:0:0:0:
320,192,150484,128,0,150645:0:0:0:0:
192,192,150807,1,0,0:0:0:0:
320,192,150807,128,0,150968:0:0:0:0:
64,192,150968,1,0,0:0:0:0:
448,192,150968,1,0,0:0:0:0:
320,192,151129,128,0,151291:0:0:0:0:
64,192,151291,1,0,0:0:0:0:
448,192,151291,1,0,0:0:0:0:
320,192,151452,1,0,0:0:0:0:
192,192,151452,128,0,151667:0:0:0:0:
64,192,151667,128,0,151774:0:0:0:0:
320,192,151774,1,0,0:0:0:0:
448,192,151774,128,0,151936:0:0:0:0:
320,192,152097,128,0,152258:0:0:0:0:
192,192,152420,1,0,0:0:0:0:
320,192,152420,128,0,152581:0:0:0:0:
320,192,152742,128,0,152903:0:0:0:0:
64,192,153065,1,0,0:0:0:0:
320,192,153065,128,0,153226:0:0:0:0:
192,192,153387,128,0,153549:0:0:0:0:
64,192,153387,1,0,0:0:0:0:
448,192,153549,1,0,0:0:0:0:
320,192,153549,1,0,0:0:0:0:
64,192,153710,128,0,153871:0:0:0:0:
448,192,153871,1,0,0:0:0:0:
320,192,153871,1,0,0:0:0:0:
64,192,154032,1,0,0:0:0:0:
192,192,154032,128,0,154194:0:0:0:0:
320,192,154194,128,0,154355:0:0:0:0:
448,192,154355,1,0,0:0:0:0:
64,192,154355,1,0,0:0:0:0:
192,192,154516,1,0,0:0:0:0:
320,192,154597,1,0,0:0:0:0:
448,192,154678,1,0,0:0:0:0:
64,192,154678,128,0,154839:0:0:0:0:
192,192,154839,128,0,155000:0:0:0:0:
320,192,155000,1,0,0:0:0:0:
448,192,155000,1,0,0:0:0:0:
320,192,155323,128,0,155484:0:0:0:0:
320,192,155645,128,0,155807:0:0:0:0:
192,192,155645,1,0,0:0:0:0:
320,192,155968,128,0,156129:0:0:0:0:
64,192,155968,1,0,0:0:0:0:
64,192,156129,1,0,0:0:0:0:
320,192,156291,128,0,156452:0:0:0:0:
448,192,156452,1,0,0:0:0:0:
448,192,156613,1,0,0:0:0:0:
192,192,156613,128,0,156828:0:0:0:0:
64,192,156828,128,0,156936:0:0:0:0:
320,192,156936,128,0,157097:0:0:0:0:
448,192,156936,1,0,0:0:0:0:
320,192,157258,128,0,157420:0:0:0:0:
192,192,157420,1,0,0:0:0:0:
64,192,157581,1,0,0:0:0:0:
320,192,157581,128,0,157742:0:0:0:0:
192,192,157742,1,0,0:0:0:0:
320,192,157903,128,0,158065:0:0:0:0:
448,192,158226,1,0,0:0:0:0:
320,192,158226,128,0,158387:0:0:0:0:
448,192,158549,1,0,0:0:0:0:
192,192,158549,128,0,158710:0:0:0:0:
448,192,158710,1,0,0:0:0:0:
192,192,158871,128,0,159032:0:0:0:0:
64,192,159032,1,0,0:0:0:0:
192,192,159194,128,0,159355:0:0:0:0:
64,192,159194,1,0,0:0:0:0:
320,192,159516,1,0,0:0:0:0:
448,192,159516,128,0,159839:0:0:0:0:
192,192,159678,1,0,0:0:0:0:
64,192,159839,128,0,160054:0:0:0:0:
320,192,160054,128,0,160162:0:0:0:0:
448,192,160162,1,0,0:0:0:0:
192,192,160162,1,0,0:0:0:0:
64,192,160323,1,0,0:0:0:0:
320,192,160484,128,0,160645:0:0:0:0:
192,192,160807,1,0,0:0:0:0:
320,192,160807,128,0,160968:0:0:0:0:
320,192,161129,128,0,161291:0:0:0:0:
64,192,161129,1,0,0:0:0:0:
64,192,161291,1,0,0:0:0:0:
320,192,161452,128,0,161613:0:0:0:0:
448,192,161613,1,0,0:0:0:0:
192,192,161774,128,0,161989:0:0:0:0:
448,192,161774,1,0,0:0:0:0:
64,192,161989,128,0,162097:0:0:0:0:
448,192,162097,1,0,0:0:0:0:
320,192,162097,128,0,162258:0:0:0:0:
192,192,162258,1,0,0:0:0:0:
320,192,162420,128,0,162581:0:0:0:0:
192,192,162581,1,0,0:0:0:0:
64,192,162742,1,0,0:0:0:0:
320,192,162742,128,0,162903:0:0:0:0:
448,192,162903,1,0,0:0:0:0:
320,192,163065,128,0,163226:0:0:0:0:
192,192,163387,1,0,0:0:0:0:
320,192,163387,128,0,163549:0:0:0:0:
192,192,163710,128,0,163871:0:0:0:0:
448,192,163710,1,0,0:0:0:0:
448,192,163871,1,0,0:0:0:0:
192,192,164032,128,0,164194:0:0:0:0:
64,192,164194,1,0,0:0:0:0:
192,192,164355,128,0,164516:0:0:0:0:
64,192,164355,1,0,0:0:0:0:
64,192,164678,1,0,0:0:0:0:
448,192,164678,128,0,165000:0:0:0:0:
192,192,164839,1,0,0:0:0:0:
320,192,164920,1,0,0:0:0:0:
192,192,165000,1,0,0:0:0:0:
64,192,165000,128,0,165215:0:0:0:0:
448,192,165215,128,0,165323:0:0:0:0:
320,192,165323,128,0,165968:0:0:0:0:
