osu file format v14

[General]
AudioFilename: audio.mp3
AudioLeadIn: 0
PreviewTime: 51133
Countdown: 0
SampleSet: Soft
StackLeniency: 0.7
Mode: 2
LetterboxInBreaks: 0
WidescreenStoryboard: 1

[Editor]
Bookmarks: 10488,31133
DistanceSpacing: 0.8
BeatDivisor: 4
GridSize: 8
TimelineZoom: 1

[Metadata]
Title:Otter Pop (feat. Hollis)
TitleUnicode:Otter Pop (feat. Hollis)
Artist:Shawn Wasabi
ArtistUnicode:Shawn Wasabi
Creator:Chatie
Version:ZiRoX's Platter
Source:
Tags:ZiRoX collab english pop fa featured artist ft. mappers' guild mg mpg osu!
BeatmapID:3175485
BeatmapSetID:1554250

[Difficulty]
HPDrainRate:4
CircleSize:4
OverallDifficulty:7.5
ApproachRate:7.5
SliderMultiplier:2.7
SliderTickRate:1

[Events]
//Background and Video events
0,0,"us.jpg",0,0
//Break Periods
//Storyboard Layer 0 (Background)
//Storyboard Layer 1 (Fail)
//Storyboard Layer 2 (Pass)
//Storyboard Layer 3 (Foreground)
//Storyboard Layer 4 (Overlay)
//Storyboard Sound Samples

[TimingPoints]
166,645.161290322581,4,2,2,40,1,0
10488,-100,4,2,1,60,0,0
31133,-117.647058823529,4,2,1,50,0,0
49198,-117.647058823529,4,2,2,60,0,0
49843,-117.647058823529,4,2,2,65,0,0
50488,-117.647058823529,4,2,2,70,0,0
50649,-100,4,2,2,75,0,0
50811,-100,4,2,2,80,0,0
50972,-100,4,2,2,85,0,0
51133,-100,4,2,2,30,0,0
51778,-100,4,2,3,70,0,1
61778,-100,4,2,3,70,0,0
62101,-100,4,2,3,70,0,1
72424,-117.647058823529,4,2,1,50,0,0
82746,-100,4,2,1,60,0,0
103391,-117.647058823529,4,2,1,50,0,0
121456,-117.647058823529,4,2,2,60,0,0
122101,-117.647058823529,4,2,2,65,0,0
122746,-117.647058823529,4,2,2,70,0,0
122907,-100,4,2,2,75,0,0
123069,-100,4,2,2,80,0,0
123230,-100,4,2,2,85,0,0
123391,-100,4,2,2,30,0,0
124036,-100,4,2,2,40,0,0
133875,-100,4,2,2,50,0,0
134359,-100,4,2,3,70,0,1
144359,-100,4,2,3,70,0,0
144682,-100,4,2,3,70,0,1
155004,-117.647058823529,4,2,1,50,0,0
165972,-100,4,2,1,20,0,0

[Colours]
Combo1 : 255,128,192
Combo2 : 145,125,104
Combo3 : 66,255,255
Combo4 : 255,255,128

[HitObjects]
168,192,166,5,2,0:0:0:0:
304,192,488,2,0,L|304:56,1,135,0|8,0:0|0:0,0:0:0:0:
168,192,1133,2,0,L|168:56,1,135,0|2,0:0|0:0,0:0:0:0:
304,120,1778,1,0,0:0:0:0:
372,120,1939,1,0,0:0:0:0:
440,120,2101,2,0,L|440:256,1,135,8|0,0:0|0:0,0:0:0:0:
312,232,2746,6,0,L|160:232,1,135,2|0,0:0|0:0,0:0:0:0:
312,224,3391,2,0,L|312:80,1,135,8|0,0:0|0:0,0:0:0:0:
248,88,3875,1,0,0:0:0:0:
184,88,4036,2,0,L|184:232,1,135,2|0,0:0|0:0,0:0:0:0:
424,208,4682,2,0,L|280:208,1,135,8|0,0:0|0:0,0:0:0:0:
224,208,5166,1,0,0:0:0:0:
376,128,5327,6,0,L|376:272,1,135,2|0,0:0|0:0,0:0:0:0:
232,272,5972,2,0,L|368:272,1,135,8|0,0:0|0:0,0:0:0:0:
232,272,6617,2,0,L|232:128,1,135,2|0,0:0|0:0,0:0:0:0:
168,152,7101,1,0,0:0:0:0:
104,152,7262,2,0,L|240:152,1,135,8|0,0:0|0:0,0:0:0:0:
384,160,7907,6,0,L|384:304,1,135,2|0,0:0|0:0,0:0:0:0:
240,296,8553,2,0,L|96:296,1,135,8|0,0:0|0:0,0:0:0:0:
48,296,9036,1,0,0:0:0:0:
48,240,9198,2,0,L|48:96,1,135,2|2,0:0|0:0,0:0:0:0:
312,136,9843,2,0,L|312:248,1,67.5,8|0,0:0|0:0,0:0:0:0:
240,216,10166,2,0,L|240:296,1,67.5,0|0,0:0|0:0,0:0:0:0:
472,280,10488,6,0,L|472:144,1,135,2|0,0:0|0:0,0:0:0:0:
352,152,11133,2,0,L|352:288,1,135,8|2,0:0|0:0,0:0:0:0:
216,224,11778,2,0,L|216:152,1,67.5,0|2,0:0|0:0,0:0:0:0:
304,184,12101,2,0,L|304:112,1,67.5,2|0,0:0|0:0,0:0:0:0:
160,112,12424,2,0,L|160:256,1,135,8|0,0:0|0:0,0:0:0:0:
408,104,13069,6,0,L|256:104,1,135,2|0,0:0|0:0,0:0:0:0:
144,240,13714,2,0,L|304:240,1,135,8|2,0:0|0:0,0:0:0:0:
424,224,14359,2,0,L|424:144,1,67.5,0|2,0:0|0:0,0:0:0:0:
352,160,14682,2,0,L|280:160,1,67.5,2|0,0:0|0:0,0:0:0:0:
136,192,15004,2,0,L|136:16,1,135,8|2,0:0|0:0,0:0:0:0:
392,136,15649,6,0,L|176:136,2,202.5,2|0|2,0:0|0:0|0:0,0:0:0:0:
224,136,16940,2,0,L|312:136,1,67.5,0|2,0:0|0:0,0:0:0:0:
360,208,17262,2,0,L|272:208,1,67.5,2|0,0:0|0:0,0:0:0:0:
152,208,17585,2,0,L|152:352,1,135,8|0,0:0|0:0,0:0:0:0:
384,128,18230,6,0,L|112:128,1,270,2|8,0:0|0:0,0:0:0:0:
232,120,19198,1,2,0:0:0:0:
352,120,19520,2,0,L|352:200,1,67.5,0|2,0:0|0:0,0:0:0:0:
280,200,19843,2,0,L|192:200,1,67.5,2|0,0:0|0:0,0:0:0:0:
360,240,20166,2,0,L|480:320,1,135,8|0,0:0|0:0,0:0:0:0:
88,224,20811,6,0,L|280:224,1,135,2|0,0:0|0:0,0:0:0:0:
344,224,21456,2,0,L|344:80,1,135,8|2,0:0|0:0,0:0:0:0:
184,112,22101,2,0,L|184:192,1,67.5,0|2,0:0|0:0,0:0:0:0:
256,184,22424,2,0,L|344:184,1,67.5,2|0,0:0|0:0,0:0:0:0:
176,184,22746,2,0,L|176:320,1,135,8|0,0:0|0:0,0:0:0:0:
456,256,23391,6,0,L|456:96,1,135,2|0,0:0|0:0,0:0:0:0:
320,104,24036,2,0,L|176:104,1,135,8|2,0:0|0:0,0:0:0:0:
336,216,24682,2,0,L|248:216,1,67.5,0|2,0:0|0:0,0:0:0:0:
192,216,25004,2,0,L|192:304,1,67.5,2|0,0:0|0:0,0:0:0:0:
336,280,25327,2,0,L|336:144,1,135,8|2,0:0|0:0,0:0:0:0:
104,152,25972,6,0,L|312:152,2,202.5,2|0|2,0:0|0:0|0:0,0:0:0:0:
240,120,27262,2,0,L|328:120,1,67.5,0|2,0:0|0:0,0:0:0:0:
392,192,27585,2,0,L|304:192,1,67.5,0|2,0:0|0:0,0:0:0:0:
176,192,27907,2,0,L|176:336,1,135,8|0,0:0|0:0,0:0:0:0:
440,248,28553,6,0,L|440:40,1,202.5,2|0,0:0|0:0,0:0:0:0:
360,40,29198,2,0,L|240:40,1,67.5,8|0,0:0|0:0,0:0:0:0:
224,48,29520,2,0,L|224:120,1,67.5,2|2,0:0|0:0,0:0:0:0:
368,176,29843,2,0,L|368:243,1,67.5,0|2,0:0|0:0,0:0:0:0:
299,251,30165,2,0,L|231:251,1,67.5,2|0,0:0|0:0,0:0:0:0:
96,256,30488,2,0,L|96:112,1,135,8|8,0:0|3:0,0:0:0:0:
480,128,31133,6,0,P|488:192|448:336,1,172.125003283024,2|0,0:0|0:0,0:0:0:0:
184,344,32424,2,0,L|184:160,1,172.125003283024,0|0,0:0|0:0,0:0:0:0:
248,168,33069,2,0,L|448:168,1,172.125003283024,0|0,0:0|0:0,0:0:0:0:
480,200,33714,6,0,L|480:264,1,57.3750010943413,2|0,0:0|0:0,0:0:0:0:
408,256,34036,1,0,0:0:0:0:
120,208,35649,2,0,L|120:144,1,57.3750010943413,0|0,0:0|0:0,0:0:0:0:
200,144,35972,2,0,L|200:80,1,57.3750010943413,0|0,0:0|0:0,0:0:0:0:
336,96,36295,6,0,L|408:96,2,57.3750010943413,2|0|0,0:0|0:0|0:0,0:0:0:0:
136,208,38230,2,0,L|136:144,1,57.3750010943413,0|0,0:0|0:0,0:0:0:0:
64,144,38553,2,0,L|64:80,1,57.3750010943413,0|0,0:0|0:0,0:0:0:0:
216,96,38876,5,2,0:0:0:0:
272,112,39037,1,0,0:0:0:0:
304,152,39198,1,0,0:0:0:0:
184,104,40166,2,0,L|184:280,1,172.125003283024,0|0,0:0|0:0,0:0:0:0:
304,264,40972,1,8,3:0:0:0:
360,264,41133,1,8,3:0:0:0:
136,240,41456,6,0,L|136:120,1,114.750002188683,2|0,0:0|0:0,0:0:0:0:
264,128,42101,2,0,L|384:128,1,114.750002188683,8|0,0:0|0:0,0:0:0:0:
152,128,42746,2,0,L|152:256,1,114.750002188683,0|0,0:0|0:0,0:0:0:0:
208,240,43230,1,0,0:0:0:0:
264,240,43391,2,0,L|408:240,1,114.750002188683,8|0,0:0|0:0,0:0:0:0:
440,240,43875,1,0,0:0:0:0:
312,240,44036,6,0,L|224:240,2,57.3750010943413,2|0|0,0:0|0:0|0:0,0:0:0:0:
424,240,44682,2,0,L|424:120,1,114.750002188683,8|0,0:0|0:0,0:0:0:0:
312,120,45327,2,0,L|184:120,1,114.750002188683,0|0,0:0|0:0,0:0:0:0:
80,120,45972,2,0,L|80:192,1,57.3750010943413,8|0,0:0|0:0,0:0:0:0:
152,184,46295,2,0,L|216:184,1,57.3750010943413,0|0,0:0|0:0,0:0:0:0:
352,184,46617,6,0,L|416:184,2,57.3750010943413,2|0|2,0:0|0:0|0:0,0:0:0:0:
208,168,47262,2,0,L|208:296,1,114.750002188683,8|0,0:0|0:0,0:0:0:0:
320,280,47907,2,0,L|440:280,1,114.750002188683
304,216,48553,2,0,L|304:144,1,57.3750010943413,8|0,0:0|0:0,0:0:0:0:
224,152,48875,2,0,L|224:80,1,57.3750010943413
368,96,49198,6,0,L|448:96,2,76.5000014591217,2|0|0,0:0|0:0|0:0,0:0:0:0:
192,96,49843,2,0,L|112:96,2,76.5000014591217,2|0|0,0:0|0:0|0:0,0:0:0:0:
360,96,50488,2,0,P|416:160|315:280,1,229.500004377365
296,280,51295,1,0,0:0:0:0:
232,280,51456,1,0,0:0:0:0:
168,280,51617,1,0,0:0:0:0:
392,336,51778,6,0,L|392:176,1,135,2|0,0:0|0:0,0:0:0:0:
264,88,52424,2,0,L|264:224,1,135,8|2,0:0|0:0,0:0:0:0:
24,224,53069,2,0,L|192:224,1,135,0|2,0:0|0:0,0:0:0:0:
232,224,53553,1,0,0:0:0:0:
376,224,53714,2,0,L|376:88,1,135,8|0,0:0|0:0,0:0:0:0:
144,56,54359,6,0,L|280:56,1,135,2|0,0:0|0:0,0:0:0:0:
144,176,55004,2,0,L|304:176,1,135,8|2,0:0|0:0,0:0:0:0:
40,176,55649,2,0,L|40:40,1,135,0|2,0:0|0:0,0:0:0:0:
104,48,56133,1,0,0:0:0:0:
240,48,56295,2,0,L|376:48,1,135,8|0,0:0|0:0,0:0:0:0:
376,112,56778,1,0,0:0:0:0:
152,192,56940,6,0,L|152:336,1,135,2|0,0:0|0:0,0:0:0:0:
256,120,57585,2,0,L|400:120,1,135,8|2,0:0|0:0,0:0:0:0:
144,288,58230,2,0,L|144:152,1,135,0|2,0:0|0:0,0:0:0:0:
208,160,58714,1,0,0:0:0:0:
344,88,58875,2,0,L|200:88,1,135,8|0,0:0|0:0,0:0:0:0:
448,136,59520,6,0,L|448:280,1,135,2|0,0:0|0:0,0:0:0:0:
312,272,60166,2,0,L|448:272,1,135,8|2,0:0|0:0,0:0:0:0:
448,272,60649,1,2,0:0:0:0:
296,272,60811,2,0,L|296:128,1,135,0|2,0:0|0:0,0:0:0:0:
376,144,61295,1,0,0:0:0:0:
224,72,61456,2,0,L|360:72,1,135,8|8,0:0|3:0,0:0:0:0:
432,72,61940,1,0,0:0:0:0:
192,336,62101,6,0,L|192:176,1,135,2|0,0:0|0:0,0:0:0:0:
376,224,62747,2,0,L|208:224,1,135,8|2,0:0|0:0,0:0:0:0:
168,224,63230,1,2,0:0:0:0:
328,224,63553,2,0,L|328:144,1,67.5,2|2,0:0|0:0,0:0:0:0:
256,152,63876,1,0,0:0:0:0:
96,224,64037,2,0,L|96:368,1,135,8|0,0:0|0:0,0:0:0:0:
480,184,64682,6,0,L|480:48,1,135,2|0,0:0|0:0,0:0:0:0:
232,48,65327,2,0,L|400:48,1,135,8|2,0:0|0:0,0:0:0:0:
440,48,65810,1,2,0:0:0:0:
272,48,66133,2,0,L|272:120,1,67.5,2|2,0:0|0:0,0:0:0:0:
352,120,66456,1,0,0:0:0:0:
496,184,66618,2,0,L|360:184,1,135,8|0,0:0|0:0,0:0:0:0:
296,184,67101,1,0,0:0:0:0:
64,192,67263,6,0,L|64:336,1,135,2|0,0:0|0:0,0:0:0:0:
288,216,67907,2,0,L|440:216,1,135,8|2,0:0|0:0,0:0:0:0:
424,288,68390,1,2,0:0:0:0:
288,288,68713,2,0,L|208:288,1,67.5,2|2,0:0|0:0,0:0:0:0:
144,288,69037,1,0,0:0:0:0:
296,112,69198,2,0,L|440:112,1,135,8|0,0:0|0:0,0:0:0:0:
48,160,69843,6,0,L|48:304,1,135,2|0,0:0|0:0,0:0:0:0:
280,280,70489,2,0,L|144:280,1,135,8|2,0:0|0:0,0:0:0:0:
72,280,70972,1,2,0:0:0:0:
224,272,71134,2,0,L|224:128,1,135,0|2,0:0|0:0,0:0:0:0:
224,88,71618,1,0,0:0:0:0:
80,80,71779,1,8,0:0:0:0:
64,136,71940,1,8,3:0:0:0:
104,176,72101,1,8,3:0:0:0:
496,128,72424,6,0,P|496:192|376:304,1,229.500004377365,2|8,0:0|0:0,0:0:0:0:
272,312,73391,1,2,0:0:0:0:
400,304,73715,2,0,L|400:120,1,172.125003283024,0|0,0:0|0:0,0:0:0:0:
336,128,74360,2,0,L|136:128,1,172.125003283024,8|0,0:0|0:0,0:0:0:0:
96,160,75005,6,0,L|96:224,1,57.3750010943413,2|0,0:0|0:0,0:0:0:0:
160,216,75327,1,0,0:0:0:0:
304,216,75649,1,8,0:0:0:0:
160,216,75972,1,2,0:0:0:0:
160,216,76133,1,2,0:0:0:0:
304,216,76456,1,2,0:0:0:0:
304,216,76617,1,2,0:0:0:0:
176,216,76940,2,0,L|176:152,1,57.3750010943413,8|0,0:0|0:0,0:0:0:0:
256,152,77263,2,0,L|256:88,1,57.3750010943413,0|0,0:0|0:0,0:0:0:0:
392,104,77586,6,0,L|456:144,2,57.3750010943413,2|0|0,0:0|0:0|0:0,0:0:0:0:
248,152,78230,1,8,0:0:0:0:
392,160,78553,1,2,0:0:0:0:
392,160,78714,1,2,0:0:0:0:
248,152,79036,1,2,0:0:0:0:
248,152,79198,1,2,0:0:0:0:
400,208,79520,2,0,L|400:144,1,57.3750010943413,8|0,0:0|0:0,0:0:0:0:
328,144,79843,2,0,L|328:80,1,57.3750010943413
192,96,80166,6,0,L|128:136,2,57.3750010943413,2|0|0,0:0|0:0|0:0,0:0:0:0:
352,216,80811,1,8,0:0:0:0:
200,200,81133,1,2,0:0:0:0:
200,200,81295,1,2,0:0:0:0:
352,216,81617,1,2,0:0:0:0:
352,216,81778,1,2,0:0:0:0:
216,200,82101,1,8,0:0:0:0:
440,192,82424,1,8,3:0:0:0:
56,184,82746,6,0,L|56:320,1,135,2|0,0:0|0:0,0:0:0:0:
296,152,83391,2,0,L|296:288,1,135,8|2,0:0|0:0,0:0:0:0:
168,224,84036,2,0,L|256:224,1,67.5,0|2,0:0|0:0,0:0:0:0:
320,224,84359,2,0,L|400:224,1,67.5,2|0,0:0|0:0,0:0:0:0:
240,224,84682,2,0,L|240:88,1,135,8|0,0:0|0:0,0:0:0:0:
32,104,85327,6,0,L|184:104,1,135,2|0,0:0|0:0,0:0:0:0:
408,104,85972,2,0,L|272:104,1,135,8|2,0:0|0:0,0:0:0:0:
416,208,86617,2,0,L|416:288,1,67.5,0|2,0:0|0:0,0:0:0:0:
344,336,86940,2,0,L|344:256,1,67.5,2|0,0:0|0:0,0:0:0:0:
480,176,87262,2,0,L|480:328,1,135,8|2,0:0|0:0,0:0:0:0:
80,136,87907,6,0,L|296:136,2,202.5,2|0|2,0:0|0:0|0:0,0:0:0:0:
224,136,89198,2,0,L|312:136,1,67.5,0|2,0:0|0:0,0:0:0:0:
360,208,89520,2,0,L|272:208,1,67.5,2|0,0:0|0:0,0:0:0:0:
152,208,89843,2,0,L|152:352,1,135,8|0,0:0|0:0,0:0:0:0:
400,128,90488,6,0,L|128:128,1,270,2|8,0:0|0:0,0:0:0:0:
288,184,91456,2,0,L|288:256,1,67.5,2|2,0:0|0:0,0:0:0:0:
208,256,91778,2,0,L|288:256,1,67.5,0|2,0:0|0:0,0:0:0:0:
360,264,92101,2,0,L|360:352,1,67.5,2|0,0:0|0:0,0:0:0:0:
216,336,92424,2,0,L|64:336,1,135,8|0,0:0|0:0,0:0:0:0:
472,224,93069,6,0,L|280:224,1,135,2|0,0:0|0:0,0:0:0:0:
104,216,93714,2,0,L|104:72,1,135,8|2,0:0|0:0,0:0:0:0:
328,80,94359,2,0,L|256:80,1,67.5,0|2,0:0|0:0,0:0:0:0:
184,152,94682,2,0,L|256:152,1,67.5,2|0,0:0|0:0,0:0:0:0:
400,152,95004,2,0,L|400:288,1,135,8|0,0:0|0:0,0:0:0:0:
152,272,95649,6,0,L|152:112,1,135,2|0,0:0|0:0,0:0:0:0:
392,104,96294,2,0,L|248:104,1,135,8|2,0:0|0:0,0:0:0:0:
192,104,96778,1,2,0:0:0:0:
336,216,96940,2,0,L|248:216,1,67.5,0|2,0:0|0:0,0:0:0:0:
192,216,97262,2,0,L|192:304,1,67.5,2|0,0:0|0:0,0:0:0:0:
336,280,97585,2,0,L|480:280,1,135,8|0,0:0|0:0,0:0:0:0:
88,152,98230,6,0,L|296:152,2,202.5,2|0|2,0:0|0:0|0:0,0:0:0:0:
280,120,99520,2,0,L|280:200,1,67.5,0|2,0:0|0:0,0:0:0:0:
200,200,99843,2,0,L|200:272,1,67.5,2|0,0:0|0:0,0:0:0:0:
336,280,100165,2,0,L|488:280,1,135,8|0,0:0|0:0,0:0:0:0:
208,280,100811,6,0,L|208:72,1,202.5,2|0,0:0|0:0,0:0:0:0:
360,40,101456,2,0,L|360:112,1,67.5,8|0,0:0|0:0,0:0:0:0:
288,120,101778,2,0,L|216:120,1,67.5,2|2,0:0|0:0,0:0:0:0:
80,144,102101,2,0,L|80:211,1,67.5,0|2,0:0|0:0,0:0:0:0:
149,219,102423,2,2,L|217:219,1,67.5,2|0,0:0|0:0,0:0:0:0:
368,216,102746,2,0,L|512:216,1,135,8|8,0:0|3:0,0:0:0:0:
80,136,103391,6,0,P|72:200|112:336,1,172.125003283024,2|0,0:0|0:0,0:0:0:0:
360,336,104682,2,0,L|360:152,1,172.125003283024,0|0,0:0|0:0,0:0:0:0:
296,168,105327,2,0,L|96:168,1,172.125003283024,0|0,0:0|0:0,0:0:0:0:
56,192,105972,6,0,L|56:128,1,57.3750010943413,2|0,0:0|0:0,0:0:0:0:
120,136,106294,1,0,0:0:0:0:
360,144,107262,1,0,0:0:0:0:
120,216,107907,2,0,L|120:152,1,57.3750010943413,0|0,0:0|0:0,0:0:0:0:
200,144,108230,2,0,L|200:80,1,57.3750010943413,0|0,0:0|0:0,0:0:0:0:
344,96,108553,6,0,L|408:136,2,57.3750010943413,2|0|0,0:0|0:0|0:0,0:0:0:0:
200,128,109359,1,0,0:0:0:0:
200,184,109520,1,0,0:0:0:0:
344,272,109843,1,0,0:0:0:0:
328,320,110004,1,0,0:0:0:0:
280,344,110166,1,0,0:0:0:0:
136,208,110488,2,0,L|136:144,1,57.3750010943413
208,152,110811,2,0,L|208:88,1,57.3750010943413,0|0,0:0|0:0,0:0:0:0:
80,80,111134,5,2,0:0:0:0:
136,56,111295,1,0,0:0:0:0:
192,24,111456,1,0,0:0:0:0:
416,104,112424,2,0,L|416:280,1,172.125003283024
296,264,113230,1,8,3:0:0:0:
240,264,113391,1,8,3:0:0:0:
472,200,113714,6,0,L|472:80,1,114.750002188683,2|0,0:0|0:0,0:0:0:0:
344,88,114359,2,0,L|224:88,1,114.750002188683,8|0,0:0|0:0,0:0:0:0:
448,128,115004,2,0,L|448:256,1,114.750002188683
384,248,115488,1,0,0:0:0:0:
320,248,115649,2,0,L|176:248,1,114.750002188683,8|0,0:0|0:0,0:0:0:0:
144,248,116133,1,0,0:0:0:0:
288,160,116294,6,0,L|376:160,2,57.3750010943413,2|0|0,0:0|0:0|0:0,0:0:0:0:
144,240,116940,2,0,L|144:120,1,114.750002188683,8|0,0:0|0:0,0:0:0:0:
256,120,117585,2,0,L|384:120,1,114.750002188683,0|0,0:0|0:0,0:0:0:0:
144,120,118230,2,0,L|144:192,1,57.3750010943413,8|0,0:0|0:0,0:0:0:0:
216,184,118553,2,0,L|280:184,1,57.3750010943413,0|0,0:0|0:0,0:0:0:0:
416,184,118875,6,0,L|480:184,2,57.3750010943413,2|0|0,0:0|0:0|0:0,0:0:0:0:
184,176,119520,2,0,L|184:304,1,114.750002188683,8|0,0:0|0:0,0:0:0:0:
288,280,120165,2,0,L|408:280,1,114.750002188683,0|0,0:0|0:0,0:0:0:0:
264,216,120811,2,0,L|264:144,1,57.3750010943413,8|0,0:0|0:0,0:0:0:0:
344,152,121133,2,0,L|344:80,1,57.3750010943413
200,96,121456,6,0,L|120:96,2,76.5000014591217,2|0|0,0:0|0:0|0:0,0:0:0:0:
352,96,122101,2,0,L|272:96,2,76.5000014591217,2|0|0,0:0|0:0|0:0,0:0:0:0:
176,104,122746,2,0,P|96:168|111:333,1,229.500004377365,0|0,0:0|0:0,0:0:0:0:
128,320,123553,1,0,0:0:0:0:
176,344,123714,1,0,0:0:0:0:
224,352,123875,1,0,0:0:0:0:
464,264,124036,6,0,L|464:104,1,135,2|0,0:0|0:0,0:0:0:0:
329,129,124682,2,0,L|497:129,1,135,0|0,0:0|0:0,0:0:0:0:
329,129,125327,2,0,L|497:129,1,135,2|0,0:0|0:0,0:0:0:0:
392,128,125811,1,0,0:0:0:0:
329,129,125972,2,0,L|193:129,1,135,0|0,0:0|0:0,0:0:0:0:
48,264,126617,6,0,L|48:104,1,135,2|0,0:0|0:0,0:0:0:0:
183,129,127263,2,0,L|15:129,1,135,0|0,0:0|0:0,0:0:0:0:
183,129,127908,2,0,L|15:129,1,135,2|0,0:0|0:0,0:0:0:0:
120,128,128392,1,0,0:0:0:0:
183,129,128553,2,0,L|319:129,1,135,2|0,0:0|0:0,0:0:0:0:
376,128,129036,1,0,0:0:0:0:
216,136,129198,6,0,L|216:272,1,135,2|0,0:0|0:0,0:0:0:0:
352,272,129843,2,0,L|488:272,1,135,0|0,0:0|0:0,0:0:0:0:
352,272,130488,2,0,L|352:136,1,135,2|0,0:0|0:0,0:0:0:0:
288,136,130972,1,0,0:0:0:0:
224,136,131133,2,0,L|80:136,1,135,0|0,0:0|0:0,0:0:0:0:
224,272,131778,6,0,L|360:272,1,135,2|0,0:0|0:0,0:0:0:0:
224,272,132424,2,0,L|360:272,1,135,0|0,0:0|0:0,0:0:0:0:
424,272,132907,1,0,0:0:0:0:
488,272,133069,2,0,L|488:128,1,135,2|0,0:0|0:0,0:0:0:0:
424,136,133553,1,0,0:0:0:0:
360,136,133714,2,0,L|224:136,1,135,2|8,0:0|3:0,0:0:0:0:
168,136,134198,1,0,0:0:0:0:
408,232,134359,6,0,L|408:72,1,135,2|0,0:0|0:0,0:0:0:0:
136,224,135005,2,0,L|304:224,1,135,8|2,0:0|0:0,0:0:0:0:
120,224,135488,2,0,L|120:80,1,135,2|2,0:0|0:0,0:0:0:0:
200,88,135972,2,0,L|200:160,1,67.5,2|0,0:0|0:0,0:0:0:0:
48,208,136295,2,0,L|48:344,1,135,8|0,0:0|0:0,0:0:0:0:
472,176,136940,6,0,L|472:40,1,135,2|0,0:0|0:0,0:0:0:0:
232,160,137585,2,0,L|232:320,1,135,8|2,0:0|0:0,0:0:0:0:
88,224,138068,2,0,L|88:80,1,135,2|2,0:0|0:0,0:0:0:0:
168,88,138552,2,0,L|240:88,1,67.5,2|0,0:0|0:0,0:0:0:0:
392,80,138875,2,0,L|392:216,1,135,8|0,0:0|0:0,0:0:0:0:
328,216,139359,1,0,0:0:0:0:
96,216,139521,6,0,L|232:216,1,135,2|0,0:0|0:0,0:0:0:0:
464,224,140165,2,0,L|296:224,1,135,8|2,0:0|0:0,0:0:0:0:
472,224,140649,2,0,L|472:80,1,135,2|2,0:0|0:0,0:0:0:0:
400,88,141133,2,0,L|320:88,1,67.5,2|0,0:0|0:0,0:0:0:0:
176,224,141456,2,0,L|24:224,1,135,8|0,0:0|0:0,0:0:0:0:
464,160,142101,6,0,L|464:304,1,135,2|0,0:0|0:0,0:0:0:0:
240,272,142747,2,0,L|240:128,1,135,8|2,0:0|0:0,0:0:0:0:
400,272,143230,2,0,L|400:128,1,135,2|2,0:0|0:0,0:0:0:0:
280,80,143714,2,0,L|200:80,1,67.5,2|0,0:0|0:0,0:0:0:0:
336,80,144036,2,0,L|336:152,1,67.5,8|8,0:0|3:0,0:0:0:0:
184,144,144359,2,0,L|104:144,1,67.5,8|0,3:0|0:0,0:0:0:0:
360,336,144682,6,0,L|360:176,1,135,2|0,0:0|0:0,0:0:0:0:
120,224,145328,2,0,L|288:224,1,135,8|2,0:0|0:0,0:0:0:0:
400,224,145811,2,0,L|400:80,1,135,2|2,0:0|0:0,0:0:0:0:
320,88,146295,2,0,L|248:88,1,67.5,2|0,0:0|0:0,0:0:0:0:
480,216,146618,2,0,L|480:352,1,135,8|0,0:0|0:0,0:0:0:0:
88,272,147263,6,0,L|88:136,1,135,2|0,0:0|0:0,0:0:0:0:
320,128,147908,2,0,L|152:128,1,135,8|2,0:0|0:0,0:0:0:0:
32,120,148391,2,0,L|32:264,1,135,2|2,0:0|0:0,0:0:0:0:
112,248,148875,2,0,L|192:248,1,67.5,2|0,0:0|0:0,0:0:0:0:
400,48,149199,2,0,L|264:48,1,135,8|0,0:0|0:0,0:0:0:0:
192,48,149682,1,0,0:0:0:0:
424,192,149844,6,0,L|288:192,1,135,2|0,0:0|0:0,0:0:0:0:
136,224,150488,2,0,L|304:224,1,135,8|2,0:0|0:0,0:0:0:0:
424,216,150972,2,0,L|424:72,1,135,2|2,0:0|0:0,0:0:0:0:
344,80,151456,2,0,L|272:80,1,67.5,2|0,0:0|0:0,0:0:0:0:
56,80,151779,2,0,L|56:216,1,135,8|0,0:0|0:0,0:0:0:0:
464,160,152424,6,0,L|464:304,1,135,2|0,0:0|0:0,0:0:0:0:
240,272,153070,2,0,L|240:192,1,67.5,8|0,0:0|0:0,0:0:0:0:
384,208,153391,2,0,L|384:128,1,67.5,2|2,0:0|0:0,0:0:0:0:
232,144,153714,6,0,L|128:144,2,67.5,0|2|2,0:0|0:0|0:0,0:0:0:0:
296,144,154199,1,0,0:0:0:0:
432,152,154360,1,8,0:0:0:0:
488,192,154521,1,8,3:0:0:0:
488,256,154682,1,8,3:0:0:0:
432,288,154844,1,0,0:0:0:0:
184,280,155004,6,0,P|184:216|320:88,1,229.500004377365,2|8,0:0|0:0,0:0:0:0:
384,72,155972,1,2,0:0:0:0:
168,344,156295,2,2,L|168:160,1,172.125003283024,0|0,0:0|0:0,0:0:0:0:
248,168,156940,2,0,P|304:104|248:48,1,172.125003283024,8|0,0:0|0:0,0:0:0:0:
192,48,157585,6,0,L|128:48,1,57.3750010943413,2|0,0:0|0:0,0:0:0:0:
72,112,157907,1,0,0:0:0:0:
296,112,158230,1,8,0:0:0:0:
160,112,158553,1,2,0:0:0:0:
160,112,158714,1,2,0:0:0:0:
296,112,159036,1,2,0:0:0:0:
296,112,159198,1,2,0:0:0:0:
160,112,159520,2,0,L|96:112,1,57.3750010943413,8|0,0:0|0:0,0:0:0:0:
168,184,159843,2,0,L|256:184,1,57.3750010943413
368,184,160166,6,0,L|432:224,2,57.3750010943413,2|0|0,0:0|0:0|0:0,0:0:0:0:
144,192,160811,1,8,0:0:0:0:
296,192,161133,1,2,0:0:0:0:
296,192,161295,1,2,0:0:0:0:
144,192,161617,1,2,0:0:0:0:
144,192,161778,1,2,0:0:0:0:
304,192,162101,2,0,L|368:192,1,57.3750010943413,8|0,0:0|0:0,0:0:0:0:
416,120,162424,2,0,L|344:120,1,57.3750010943413
216,120,162746,6,0,L|152:160,2,57.3750010943413,2|0|0,0:0|0:0|0:0,0:0:0:0:
448,128,163391,1,8,0:0:0:0:
320,128,163714,2,0,L|256:128,1,57.3750010943413,2|2,0:0|0:0,0:0:0:0:
144,128,164198,2,0,L|224:128,1,57.3750010943413,2|2,0:0|0:0,0:0:0:0:
344,120,164682,2,0,L|344:200,1,57.3750010943413,8|0,0:0|0:0,0:0:0:0:
208,200,165004,2,0,L|208:280,1,57.3750010943413,0|0,0:0|0:0,0:0:0:0:
352,288,165327,6,0,L|352:48,1,229.500004377365,2|0,0:0|0:0,0:0:0:0:
