osu file format v14

[General]
AudioFilename: audio.mp3
AudioLeadIn: 0
PreviewTime: 51133
Countdown: 0
SampleSet: Soft
StackLeniency: 0.7
Mode: 2
LetterboxInBreaks: 0
WidescreenStoryboard: 0

[Editor]
Bookmarks: 10488,20811,31133,41456,51778,62101,72424,82746,93069,103391,113714,124036,134359,144682,155004
DistanceSpacing: 0.9
BeatDivisor: 4
GridSize: 4
TimelineZoom: 1.5

[Metadata]
Title:Otter Pop (feat. Hollis)
TitleUnicode:Otter Pop (feat. Hollis)
Artist:Shawn Wasabi
ArtistUnicode:Shawn Wasabi
Creator:Chatie
Version:ZiRoX & Chatie's Otter Love
Source:
Tags:ZiRoX collab english pop fa featured artist ft. mappers' guild mg mpg osu!
BeatmapID:3175484
BeatmapSetID:1554250

[Difficulty]
HPDrainRate:5
CircleSize:4.5
OverallDifficulty:8.5
ApproachRate:8.5
SliderMultiplier:3
SliderTickRate:1

[Events]
//Background and Video events
0,0,"us.jpg",0,0
//Break Periods
//Storyboard Layer 0 (Background)
//Storyboard Layer 1 (Fail)
//Storyboard Layer 2 (Pass)
//Storyboard Layer 3 (Foreground)
//Storyboard Layer 4 (Overlay)
//Storyboard Sound Samples

[TimingPoints]
166,645.161290322581,4,2,2,40,1,0
10488,-100,4,2,1,60,0,0
31133,-100,4,2,1,50,0,0
49198,-100,4,2,2,60,0,0
49843,-100,4,2,2,65,0,0
50488,-66.6666666666667,4,2,2,70,0,0
50649,-66.6666666666667,4,2,2,75,0,0
50811,-66.6666666666667,4,2,2,80,0,0
50972,-66.6666666666667,4,2,2,85,0,0
51133,-100,4,2,2,30,0,0
51778,-100,4,2,3,70,0,1
61778,-100,4,2,3,70,0,0
62101,-100,4,2,3,70,0,1
72424,-100,4,2,1,50,0,0
82746,-100,4,2,1,60,0,0
103391,-100,4,2,1,50,0,0
121456,-100,4,2,2,60,0,0
122101,-100,4,2,2,65,0,0
122746,-100,4,2,2,70,0,0
122907,-100,4,2,2,75,0,0
123069,-100,4,2,2,80,0,0
123230,-100,4,2,2,85,0,0
123391,-100,4,2,2,30,0,0
124036,-100,4,2,2,40,0,0
133875,-100,4,2,2,50,0,0
134359,-100,4,2,3,70,0,1
144359,-100,4,2,3,70,0,0
144682,-100,4,2,3,70,0,1
155004,-100,4,2,1,50,0,0
165972,-100,4,2,1,20,0,0

[Colours]
Combo1 : 255,128,192
Combo2 : 145,125,104
Combo3 : 66,255,255
Combo4 : 255,255,128

[HitObjects]
175,150,166,6,0,L|15:150,1,150,2|0,0:0|0:0,0:0:0:0:
280,234,811,2,0,L|282:76,1,150,8|0,0:0|0:0,0:0:0:0:
206,84,1295,1,0,0:0:0:0:
56,193,1456,2,0,P|10:131|17:57,1,150,2|0,0:0|0:0,0:0:0:0:
88,80,1940,1,0,0:0:0:0:
238,80,2101,2,0,L|69:80,1,150,8|0,0:0|0:0,0:0:0:0:
478,243,2746,6,0,L|478:84,1,150,2|0,0:0|0:0,0:0:0:0:
222,229,3391,2,0,L|222:64,1,150,8|0,0:0|0:0,0:0:0:0:
297,88,3875,1,0,0:0:0:0:
447,193,4036,2,0,P|478:104|421:76,1,150,2|0,0:0|0:0,0:0:0:0:
53,218,4682,2,0,L|216:218,1,150,8|0,0:0|0:0,0:0:0:0:
278,215,5166,1,0,0:0:0:0:
53,218,5327,6,0,P|31:149|79:82,1,150,2|0,0:0|0:0,0:0:0:0:
325,132,5972,2,0,L|172:131,1,150,8|0,0:0|0:0,0:0:0:0:
250,132,6456,1,0,0:0:0:0:
401,238,6617,2,0,P|490:187|495:124,1,150,2|0,0:0|0:0,0:0:0:0:
429,132,7101,1,0,0:0:0:0:
273,133,7262,2,0,L|425:134,1,150,8|0,0:0|0:0,0:0:0:0:
20,224,7907,6,0,L|20:63,1,150,2|0,0:0|0:0,0:0:0:0:
276,167,8553,2,0,L|87:167,1,150,8|0,0:0|0:0,0:0:0:0:
206,134,9036,1,0,0:0:0:0:
366,125,9198,1,2,0:0:0:0:
99,124,9520,1,2,0:0:0:0:
490,221,9843,2,0,P|498:133|449:73,1,150,8|0,0:0|0:0,0:0:0:0:
390,72,10327,1,0,0:0:0:0:
166,86,10488,5,2,0:0:0:0:
17,198,10811,2,0,L|17:108,1,75
167,144,11133,1,8,0:0:0:0:
317,137,11456,1,2,0:0:0:0:
392,137,11617,1,2,0:0:0:0:
242,147,11778,2,0,L|242:61,1,75,0|2,0:0|0:0,0:0:0:0:
320,75,12101,2,0,L|408:75,1,75,2|0,0:0|0:0,0:0:0:0:
242,72,12424,2,0,L|88:72,1,150,8|0,0:0|0:0,0:0:0:0:
482,83,13069,5,2,0:0:0:0:
333,132,13391,2,0,L|333:51,1,75
484,57,13714,1,8,0:0:0:0:
229,108,14036,2,0,L|229:213,1,75,2|2,0:0|0:0,0:0:0:0:
357,103,14359,2,0,L|434:103,1,75,0|2,0:0|0:0,0:0:0:0:
507,103,14682,2,0,L|424:103,1,75,2|0,0:0|0:0,0:0:0:0:
282,103,15004,2,0,L|437:103,1,150,8|2,0:0|0:0,0:0:0:0:
42,165,15649,6,0,L|209:165,1,150,2|0,0:0|0:0,0:0:0:0:
192,165,16133,1,0,0:0:0:0:
42,165,16295,2,0,P|22:84|55:26,1,150,8|2,0:0|0:0,0:0:0:0:
307,130,16940,2,0,L|198:130,1,75,0|2,0:0|0:0,0:0:0:0:
155,130,17262,2,0,L|155:210,1,75,2|0,0:0|0:0,0:0:0:0:
305,215,17585,2,0,P|330:137|270:84,1,150,8|0,0:0|0:0,0:0:0:0:
34,81,18230,5,2,0:0:0:0:
192,83,18553,1,0,0:0:0:0:
114,87,18714,1,0,0:0:0:0:
265,94,18875,1,8,0:0:0:0:
414,96,19198,1,2,0:0:0:0:
337,90,19359,1,2,0:0:0:0:
184,146,19520,2,0,L|100:146,1,75,0|2,0:0|0:0,0:0:0:0:
34,146,19843,2,0,L|110:146,1,75,2|0,0:0|0:0,0:0:0:0:
258,145,20166,2,0,L|73:146,1,150,8|0,0:0|0:0,0:0:0:0:
497,146,20811,6,0,L|293:146,1,150,2|0,0:0|0:0,0:0:0:0:
92,152,21456,2,0,L|90:310,1,150,8|2,0:0|0:0,0:0:0:0:
356,120,22101,2,0,L|276:120,1,75,0|2,0:0|0:0,0:0:0:0:
200,116,22424,2,0,L|125:116,1,75,2|0,0:0|0:0,0:0:0:0:
272,124,22746,2,0,L|272:212,1,75,8|0,0:0|0:0,0:0:0:0:
104,200,23069,1,0,0:0:0:0:
480,232,23391,6,0,L|480:72,1,150,2|0,0:0|0:0,0:0:0:0:
224,104,24036,2,0,L|404:104,1,150,8|2,0:0|0:0,0:0:0:0:
120,140,24682,2,0,L|120:232,1,75,0|2,0:0|0:0,0:0:0:0:
208,216,25004,2,0,L|304:216,1,75,2|0,0:0|0:0,0:0:0:0:
436,208,25327,2,0,L|436:364,1,150,8|2,0:0|0:0,0:0:0:0:
44,188,25972,6,0,L|232:188,1,150,2|0,0:0|0:0,0:0:0:0:
276,188,26456,1,0,0:0:0:0:
424,180,26617,2,0,L|424:344,1,150,8|2,0:0|0:0,0:0:0:0:
144,128,27262,2,0,L|232:128,1,75,0|2,0:0|0:0,0:0:0:0:
304,128,27585,2,0,L|392:128,1,75,0|2,0:0|0:0,0:0:0:0:
248,196,27907,2,0,L|248:340,1,75,8|0,0:0|0:0,0:0:0:0:
408,268,28230,1,0,0:0:0:0:
28,248,28553,6,0,L|272:248,1,225,2|0,0:0|0:0,0:0:0:0:
360,40,29198,2,0,L|240:40,1,75,8|0,0:0|0:0,0:0:0:0:
152,116,29520,2,0,L|272:116,1,75,2|2,0:0|0:0,0:0:0:0:
360,40,29843,2,0,L|240:40,1,75,0|2,0:0|0:0,0:0:0:0:
152,116,30166,2,0,L|272:116,1,75,2|0,0:0|0:0,0:0:0:0:
364,164,30488,2,0,L|460:164,1,75,8|8,0:0|3:0,0:0:0:0:
460,192,30730,1,8,3:0:0:0:
476,232,30811,1,8,3:0:0:0:
32,128,31133,6,0,P|24:192|162:350,1,225,2|0,0:0|0:0,0:0:0:0:
440,340,32424,2,0,L|440:164,1,150
352,164,32907,1,0,0:0:0:0:
264,164,33069,2,0,L|32:164,1,225
192,128,33714,6,0,L|112:128,1,75,2|0,0:0|0:0,0:0:0:0:
40,128,34036,1,0,0:0:0:0:
408,256,35004,1,0,0:0:0:0:
240,208,35649,2,0,L|240:128,1,75
332,144,35972,2,0,L|332:56,1,75
188,76,36295,6,0,L|104:76,1,75,2|0,0:0|0:0,0:0:0:0:
272,76,36617,1,0,0:0:0:0:
164,220,37101,2,0,L|164:144,1,75
316,220,37585,1,0,0:0:0:0:
241,220,37746,1,0,0:0:0:0:
166,220,37907,1,0,0:0:0:0:
320,172,38230,2,0,L|320:252,1,75
212,236,38553,2,0,L|212:324,1,75
356,296,38876,6,0,L|440:296,1,75,2|0,0:0|0:0,0:0:0:0:
272,300,39198,1,0,0:0:0:0:
436,104,40166,2,0,L|196:104,1,225
76,116,40972,1,8,3:0:0:0:
44,144,41053,1,8,3:0:0:0:
36,184,41133,1,8,3:0:0:0:
426,183,41456,6,0,P|473:63|367:18,1,225,2|0,0:0|0:0,0:0:0:0:
257,30,42101,1,8,0:0:0:0:
411,15,42424,1,0,0:0:0:0:
21,236,42746,2,0,L|195:235,1,150
95,229,43230,1,0,0:0:0:0:
246,256,43391,2,0,L|91:256,1,150,8|0,0:0|0:0,0:0:0:0:
171,253,43875,1,0,0:0:0:0:
388,253,44036,6,0,L|388:144,1,75,2|0,0:0|0:0,0:0:0:0:
313,174,44359,1,0,0:0:0:0:
157,166,44682,1,8,0:0:0:0:
313,174,45004,1,0,0:0:0:0:
56,245,45327,2,0,L|54:91,1,150
309,195,45972,2,0,L|204:195,1,75,8|0,0:0|0:0,0:0:0:0:
168,123,46295,2,0,L|80:123,1,75
307,126,46617,6,0,L|309:227,1,75,2|0,0:0|0:0,0:0:0:0:
157,124,46940,1,2,0:0:0:0:
83,125,47101,1,2,0:0:0:0:
236,130,47262,1,8,0:0:0:0:
389,135,47585,1,0,0:0:0:0:
236,130,47907,1,0,0:0:0:0:
389,135,48230,1,0,0:0:0:0:
130,205,48553,2,0,L|215:204,1,75,8|0,0:0|0:0,0:0:0:0:
280,211,48875,2,0,L|182:210,1,75
54,203,49198,6,0,P|35:140|70:102,1,100,2|0,0:0|0:0,0:0:0:0:
151,104,49628,1,0,0:0:0:0:
352,128,49843,1,2,0:0:0:0:
254,132,50058,1,0,0:0:0:0:
352,128,50273,1,0,0:0:0:0:
67,213,50488,2,0,B|7:197|5:87|25:41|111:-4|207:-12|248:35|248:35|248:113,1,450.000017166138
308,246,51778,6,0,P|327:145|277:87,1,150,2|0,0:0|0:0,0:0:0:0:
50,228,52424,2,0,L|50:50,1,150,8|2,0:0|0:0,0:0:0:0:
128,80,52907,1,2,0:0:0:0:
279,185,53069,2,0,L|379:186,1,75,0|2,0:0|0:0,0:0:0:0:
203,177,53391,1,2,0:0:0:0:
281,175,53553,1,0,0:0:0:0:
61,250,53714,2,0,P|34:181|86:103,1,150,8|0,0:0|0:0,0:0:0:0:
455,172,54359,6,0,L|272:172,1,150,2|0,0:0|0:0,0:0:0:0:
50,164,55004,2,0,L|223:164,1,150,8|2,0:0|0:0,0:0:0:0:
276,166,55488,1,2,0:0:0:0:
125,250,55649,2,0,L|124:161,1,75,0|2,0:0|0:0,0:0:0:0:
272,134,55972,1,2,0:0:0:0:
196,133,56133,1,0,0:0:0:0:
416,238,56295,2,0,L|236:238,1,150,8|0,0:0|0:0,0:0:0:0:
341,230,56778,1,0,0:0:0:0:
121,246,56940,6,0,P|92:175|140:105,1,150,2|0,0:0|0:0,0:0:0:0:
377,191,57585,2,0,L|213:189,1,150,8|2,0:0|0:0,0:0:0:0:
227,189,58069,1,2,0:0:0:0:
377,191,58230,2,0,L|377:93,1,75,0|2,0:0|0:0,0:0:0:0:
247,98,58553,1,2,0:0:0:0:
323,97,58714,1,0,0:0:0:0:
105,215,58875,2,0,P|42:148|56:68,1,150,8|0,0:0|0:0,0:0:0:0:
433,253,59520,6,0,L|268:252,1,150,2|0,0:0|0:0,0:0:0:0:
18,227,60166,2,0,L|188:227,1,150,8|2,0:0|0:0,0:0:0:0:
91,219,60649,1,2,0:0:0:0:
243,238,60811,2,0,L|61:239,1,150,0|2,0:0|0:0,0:0:0:0:
169,215,61295,1,0,0:0:0:0:
392,208,61456,2,0,L|456:161,1,75,8|8,0:0|3:0,0:0:0:0:
490,166,61698,1,8,3:0:0:0:
450,166,61778,1,8,3:0:0:0:
366,167,61940,1,0,0:0:0:0:
149,252,62101,6,0,L|149:84,1,150,2|0,0:0|0:0,0:0:0:0:
364,136,62585,1,0,0:0:0:0:
136,224,62747,2,0,L|316:224,1,150,8|2,0:0|0:0,0:0:0:0:
56,232,63230,1,2,0:0:0:0:
148,224,63391,1,0,0:0:0:0:
56,224,63553,2,0,L|56:144,1,75,2|2,0:0|0:0,0:0:0:0:
148,144,63876,1,0,0:0:0:0:
376,140,64037,2,0,L|208:140,1,150,8|0,0:0|0:0,0:0:0:0:
496,192,64682,6,0,L|496:40,1,150,2|0,0:0|0:0,0:0:0:0:
408,48,65166,1,0,0:0:0:0:
172,224,65327,2,0,L|348:224,1,150,8|2,0:0|0:0,0:0:0:0:
100,224,65810,1,2,0:0:0:0:
196,224,65972,1,0,0:0:0:0:
288,224,66133,2,0,L|288:116,1,75,2|2,0:0|0:0,0:0:0:0:
64,148,66456,1,0,0:0:0:0:
280,48,66618,2,0,L|448:48,1,150,8|0,0:0|0:0,0:0:0:0:
432,120,67101,1,0,0:0:0:0:
152,192,67263,6,0,L|152:344,1,150,2|0,0:0|0:0,0:0:0:0:
240,340,67746,1,0,0:0:0:0:
456,220,67907,2,0,L|280:220,1,150,8|2,0:0|0:0,0:0:0:0:
84,224,68390,1,2,0:0:0:0:
180,224,68553,1,0,0:0:0:0:
276,152,68713,2,0,L|184:152,1,75,2|2,0:0|0:0,0:0:0:0:
104,156,69037,1,0,0:0:0:0:
332,84,69198,2,0,L|488:84,1,150,8|0,0:0|0:0,0:0:0:0:
16,192,69843,6,0,L|16:40,1,150,2|0,0:0|0:0,0:0:0:0:
104,48,70327,1,0,0:0:0:0:
340,224,70488,2,0,L|164:224,1,150,8|2,0:0|0:0,0:0:0:0:
412,224,70971,1,2,0:0:0:0:
316,224,71133,1,0,0:0:0:0:
224,224,71294,2,0,L|224:116,1,75,2|2,0:0|0:0,0:0:0:0:
448,148,71617,1,0,0:0:0:0:
220,156,71778,1,8,0:0:0:0:
140,160,71940,1,8,3:0:0:0:
140,200,72020,1,8,3:0:0:0:
172,232,72101,1,8,3:0:0:0:
320,232,72263,1,0,0:0:0:0:
76,128,72424,6,0,L|72:292,1,150,2|0,0:0|0:0,0:0:0:0:
348,136,73069,2,0,L|348:300,1,150,8|2,0:0|0:0,0:0:0:0:
264,276,73553,1,2,0:0:0:0:
88,280,73715,2,0,L|88:84,1,150,0|2,0:0|0:0,0:0:0:0:
224,132,74198,1,0,0:0:0:0:
360,132,74360,2,0,L|360:292,1,150,8|0,0:0|0:0,0:0:0:0:
224,272,74843,1,0,0:0:0:0:
88,268,75005,6,0,L|88:184,1,75,2|0,0:0|0:0,0:0:0:0:
276,204,75327,1,0,0:0:0:0:
124,200,75649,1,8,0:0:0:0:
380,116,75972,1,2,0:0:0:0:
300,112,76133,1,2,0:0:0:0:
130,108,76456,1,2,0:0:0:0:
130,108,76617,1,2,0:0:0:0:
384,216,76940,2,0,L|288:216,1,75,8|0,0:0|0:0,0:0:0:0:
204,216,77263,2,0,L|128:216,1,75
352,96,77586,6,0,L|428:140,1,75,2|0,0:0|0:0,0:0:0:0:
184,88,77907,1,0,0:0:0:0:
340,200,78230,1,8,0:0:0:0:
112,112,78553,1,2,0:0:0:0:
112,112,78714,1,2,0:0:0:0:
282,108,79037,1,2,0:0:0:0:
282,108,79198,1,2,0:0:0:0:
80,216,79521,2,0,L|176:216,1,75,8|0,0:0|0:0,0:0:0:0:
260,216,79844,2,0,L|336:216,1,75
112,96,80167,6,0,L|36:140,1,75,2|0,0:0|0:0,0:0:0:0:
280,88,80488,1,0,0:0:0:0:
128,92,80811,1,8,0:0:0:0:
304,112,81133,1,2,0:0:0:0:
304,112,81294,1,2,0:0:0:0:
134,108,81617,1,2,0:0:0:0:
134,108,81778,1,2,0:0:0:0:
300,192,82101,1,8,0:0:0:0:
72,196,82262,1,8,3:0:0:0:
72,228,82343,1,8,3:0:0:0:
72,264,82424,1,8,3:0:0:0:
472,280,82746,6,0,L|472:120,1,150,2|0,0:0|0:0,0:0:0:0:
384,128,83230,1,0,0:0:0:0:
236,136,83391,2,0,L|236:296,1,150,8|2,0:0|0:0,0:0:0:0:
324,288,83875,1,2,0:0:0:0:
472,220,84036,2,0,L|472:140,1,75,0|2,0:0|0:0,0:0:0:0:
328,148,84359,2,0,L|236:148,1,75,2|0,0:0|0:0,0:0:0:0:
416,116,84682,2,0,L|312:116,1,75,8|0,0:0|0:0,0:0:0:0:
204,116,85004,2,0,L|308:116,1,75
32,104,85327,6,0,L|200:104,1,150,2|0,0:0|0:0,0:0:0:0:
272,104,85811,1,0,0:0:0:0:
124,104,85972,2,0,L|124:264,1,150,8|2,0:0|0:0,0:0:0:0:
216,256,86456,1,2,0:0:0:0:
368,176,86617,2,0,L|284:176,1,75,0|2,0:0|0:0,0:0:0:0:
176,176,86940,2,0,L|176:96,1,75,2|0,0:0|0:0,0:0:0:0:
420,176,87262,2,0,L|420:328,1,150,8|2,0:0|0:0,0:0:0:0:
40,148,87907,6,0,L|228:148,1,150,2|0,0:0|0:0,0:0:0:0:
276,148,88391,1,0,0:0:0:0:
424,152,88552,2,0,L|424:316,1,150,8|2,0:0|0:0,0:0:0:0:
340,300,89036,1,2,0:0:0:0:
188,308,89198,2,0,L|188:232,1,75,0|2,0:0|0:0,0:0:0:0:
316,184,89520,2,0,L|412:184,1,75,2|0,0:0|0:0,0:0:0:0:
152,192,89843,2,0,L|152:352,1,150,8|0,0:0|0:0,0:0:0:0:
472,128,90488,6,0,L|164:128,1,300,2|8,0:0|0:0,0:0:0:0:
352,128,91456,2,0,L|352:228,1,75,2|2,0:0|0:0,0:0:0:0:
204,192,91778,2,0,L|116:192,1,75,0|2,0:0|0:0,0:0:0:0:
280,316,92101,2,0,L|204:316,1,75,2|0,0:0|0:0,0:0:0:0:
452,280,92424,2,0,L|452:108,1,150,8|0,0:0|0:0,0:0:0:0:
61,243,93069,6,0,L|61:75,1,150,2|0,0:0|0:0,0:0:0:0:
136,88,93553,1,0,0:0:0:0:
288,92,93714,1,8,0:0:0:0:
33,228,94036,2,0,L|33:132,1,75,2|2,0:0|0:0,0:0:0:0:
184,203,94359,2,0,L|271:203,1,75,0|2,0:0|0:0,0:0:0:0:
184,203,94682,2,0,L|183:109,1,75,2|0,0:0|0:0,0:0:0:0:
334,197,95004,2,0,L|334:103,1,75,8|0,0:0|0:0,0:0:0:0:
256,123,95327,2,0,L|185:162,1,75
411,114,95649,5,2,0:0:0:0:
155,221,95972,2,0,P|51:163|5:107,1,150,0|8,0:0|0:0,0:0:0:0:
100,92,96456,1,0,0:0:0:0:
251,160,96617,2,0,L|250:78,1,75,2|2,0:0|0:0,0:0:0:0:
95,145,96940,2,0,L|187:146,1,75,0|2,0:0|0:0,0:0:0:0:
320,144,97262,2,0,L|227:144,1,75,2|0,0:0|0:0,0:0:0:0:
19,216,97585,2,0,L|121:65,1,150,8|0,0:0|0:0,0:0:0:0:
493,240,98230,6,0,L|259:240,1,225,2|0,0:0|0:0,0:0:0:0:
493,240,98875,2,0,L|493:75,1,150,8|2,0:0|0:0,0:0:0:0:
417,88,99359,1,2,0:0:0:0:
267,190,99520,2,0,L|269:98,1,75,0|2,0:0|0:0,0:0:0:0:
419,192,99843,2,0,L|418:86,1,75,2|0,0:0|0:0,0:0:0:0:
197,242,100166,2,0,L|14:244,1,150,8|0,0:0|0:0,0:0:0:0:
437,256,100811,6,0,P|457:161|409:104,1,150,2|0,0:0|0:0,0:0:0:0:
356,112,101295,1,0,0:0:0:0:
208,194,101456,2,0,L|287:194,1,75,8|0,0:0|0:0,0:0:0:0:
435,132,101778,2,0,L|359:130,1,75,2|2,0:0|0:0,0:0:0:0:
208,194,102101,2,0,L|111:187,1,75,0|2,0:0|0:0,0:0:0:0:
282,210,102424,2,2,L|361:211,1,75,2|0,0:0|0:0,0:0:0:0:
131,249,102746,2,0,L|41:249,1,75,8|8,0:0|3:0,0:0:0:0:
22,246,102988,1,8,3:0:0:0:
22,246,103069,1,8,3:0:0:0:
411,228,103391,6,0,P|451:120|367:68,1,225,2|0,0:0|0:0,0:0:0:0:
102,172,104682,2,0,L|252:172,1,150
181,171,105166,1,0,0:0:0:0:
333,244,105327,2,0,P|352:143|298:106,1,150
250,123,105811,1,0,0:0:0:0:
32,221,105972,6,0,L|33:120,1,75,2|0,0:0|0:0,0:0:0:0:
183,148,106295,1,0,0:0:0:0:
257,160,106456,1,0,0:0:0:0:
271,217,107262,2,0,L|37:216,1,225
197,194,107907,2,0,L|283:194,1,75
115,194,108230,2,0,L|116:93,1,75
341,213,108553,6,0,L|342:122,1,75,2|0,0:0|0:0,0:0:0:0:
125,144,108875,1,0,0:0:0:0:
50,233,109036,2,0,L|48:59,1,150,2|0,0:0|0:0,0:0:0:0:
200,106,109520,2,0,L|357:105,1,150
426,111,110004,2,0,L|262:111,1,150
124,191,110488,2,0,L|123:109,1,75
276,195,110811,2,0,L|270:94,1,75
54,159,111133,6,0,L|161:161,1,75,2|0,0:0|0:0,0:0:0:0:
351,166,111456,1,0,0:0:0:0:
428,166,111617,1,2,0:0:0:0:
77,149,112424,2,0,L|303:149,1,225
56,149,113230,1,8,3:0:0:0:
36,140,113311,1,8,3:0:0:0:
36,140,113391,1,8,3:0:0:0:
479,128,113714,6,0,P|487:192|331:360,1,300,2|8,0:0|0:0,0:0:0:0:
212,360,114682,1,0,0:0:0:0:
448,336,115004,2,0,L|448:160,1,150
360,188,115487,1,0,0:0:0:0:
208,188,115650,2,0,P|144:208|72:356,1,225,8|0,0:0|0:0,0:0:0:0:
216,192,116295,6,0,L|216:276,1,75,2|0,0:0|0:0,0:0:0:0:
144,260,116617,1,0,0:0:0:0:
444,112,116940,2,0,L|288:112,1,150,8|0,0:0|0:0,0:0:0:0:
150,114,117585,2,0,L|313:114,1,150
100,228,118230,2,0,L|100:148,1,75,8|0,0:0|0:0,0:0:0:0:
248,156,118553,2,0,L|248:68,1,75
32,200,118876,6,0,L|32:288,1,75,2|0,0:0|0:0,0:0:0:0:
272,272,119198,1,0,0:0:0:0:
140,216,119682,2,0,L|140:140,1,75
304,176,120166,2,0,L|388:156,2,75
156,200,120811,2,0,L|156:124,1,75,8|0,0:0|0:0,0:0:0:0:
316,124,121134,2,0,L|392:124,1,75
172,92,121456,6,0,L|280:88,2,100,2|0|0,0:0|0:0|0:0,0:0:0:0:
380,92,122101,2,0,L|272:88,2,100,2|0|0,0:0|0:0|0:0,0:0:0:0:
184,84,122747,2,0,L|180:392,1,300
184,40,123553,1,0,0:0:0:0:
328,52,123714,1,0,0:0:0:0:
328,116,123875,1,0,0:0:0:0:
80,320,124036,6,0,L|236:320,1,150,2|0,0:0|0:0,0:0:0:0:
72,224,124682,2,0,L|244:224,1,150
68,124,125327,2,0,L|248:124,1,150,2|0,0:0|0:0,0:0:0:0:
216,188,125811,1,0,0:0:0:0:
68,124,125972,2,0,L|68:280,1,150
444,320,126617,6,0,L|288:320,1,150,2|0,0:0|0:0,0:0:0:0:
452,224,127263,2,0,L|280:224,1,150
456,124,127908,2,0,L|276:124,1,150,2|0,0:0|0:0,0:0:0:0:
308,56,128392,1,0,0:0:0:0:
456,124,128553,2,0,L|456:280,1,150,2|0,0:0|0:0,0:0:0:0:
360,272,129036,1,0,0:0:0:0:
88,332,129198,6,0,L|88:160,1,150,2|0,0:0|0:0,0:0:0:0:
244,184,129844,2,0,L|72:184,1,150
244,184,130488,2,0,L|244:28,1,150,2|0,0:0|0:0,0:0:0:0:
244,34,130973,1,0,0:0:0:0:
84,40,131134,2,0,L|84:204,1,150
460,332,131778,6,0,L|460:160,1,150,2|0,0:0|0:0,0:0:0:0:
304,184,132424,2,0,L|476:184,1,150
304,184,133068,2,0,L|304:28,1,150,2|0,0:0|0:0,0:0:0:0:
396,40,133553,1,0,0:0:0:0:
232,36,133714,2,0,L|320:36,1,75,2|8,0:0|3:0,0:0:0:0:
344,48,133956,1,8,3:0:0:0:
368,84,134036,1,8,3:0:0:0:
116,184,134198,1,0,0:0:0:0:
380,336,134359,6,0,L|380:168,1,150,2|0,0:0|0:0,0:0:0:0:
136,152,134843,1,0,0:0:0:0:
376,152,135005,2,0,L|196:152,1,150,8|2,0:0|0:0,0:0:0:0:
444,152,135488,1,2,0:0:0:0:
448,232,135649,1,0,0:0:0:0:
228,152,135811,2,0,L|132:152,1,75,2|2,0:0|0:0,0:0:0:0:
228,152,136134,1,0,0:0:0:0:
448,232,136295,2,0,L|448:64,1,150,8|0,0:0|0:0,0:0:0:0:
40,192,136940,6,0,L|40:40,1,150,2|0,0:0|0:0,0:0:0:0:
264,48,137424,1,0,0:0:0:0:
40,192,137585,2,0,L|40:344,1,150,8|2,0:0|0:0,0:0:0:0:
296,340,138068,1,2,0:0:0:0:
212,344,138230,1,0,0:0:0:0:
432,232,138391,2,0,L|432:144,1,75,2|2,0:0|0:0,0:0:0:0:
212,48,138714,1,0,0:0:0:0:
432,48,138876,2,0,L|432:200,1,150,8|0,0:0|0:0,0:0:0:0:
348,196,139359,1,0,0:0:0:0:
132,336,139520,6,0,L|132:168,1,150,2|0,0:0|0:0,0:0:0:0:
376,152,140004,1,0,0:0:0:0:
136,152,140166,2,0,L|316:152,1,150,8|2,0:0|0:0,0:0:0:0:
68,152,140649,1,2,0:0:0:0:
64,232,140810,1,0,0:0:0:0:
284,152,140972,2,0,L|380:152,1,75,2|2,0:0|0:0,0:0:0:0:
284,152,141295,1,0,0:0:0:0:
64,232,141456,2,0,L|64:64,1,150,8|0,0:0|0:0,0:0:0:0:
472,192,142101,6,0,L|472:40,1,150,2|0,0:0|0:0,0:0:0:0:
248,48,142585,1,0,0:0:0:0:
472,192,142746,2,0,L|472:344,1,150,8|2,0:0|0:0,0:0:0:0:
216,340,143229,1,2,0:0:0:0:
300,344,143391,1,0,0:0:0:0:
80,232,143552,2,0,L|80:144,1,75,2|2,0:0|0:0,0:0:0:0:
300,48,143875,1,0,0:0:0:0:
83,120,144036,1,8,0:0:0:0:
307,80,144198,1,8,3:0:0:0:
307,116,144278,1,8,3:0:0:0:
307,160,144359,1,8,3:0:0:0:
83,208,144521,1,0,0:0:0:0:
306,297,144682,6,0,L|116:298,1,150,2|0,0:0|0:0,0:0:0:0:
232,272,145166,1,0,0:0:0:0:
447,264,145327,2,0,L|447:91,1,150,8|2,0:0|0:0,0:0:0:0:
225,105,145811,1,2,0:0:0:0:
445,234,145972,2,0,L|445:125,1,75,0|2,0:0|0:0,0:0:0:0:
226,180,146295,2,0,L|301:177,1,75,2|0,0:0|0:0,0:0:0:0:
83,187,146617,2,0,L|70:86,1,75,8|0,0:0|0:0,0:0:0:0:
223,163,146940,2,0,L|318:165,1,75
74,258,147262,6,0,L|74:85,1,150,2|0,0:0|0:0,0:0:0:0:
150,107,147746,1,0,0:0:0:0:
371,224,147907,2,0,L|189:225,1,150,8|2,0:0|0:0,0:0:0:0:
440,224,148391,1,2,0:0:0:0:
220,237,148553,2,0,L|115:235,1,75,0|2,0:0|0:0,0:0:0:0:
362,236,148875,2,0,L|370:133,1,75,2|0,0:0|0:0,0:0:0:0:
145,216,149198,2,0,L|303:216,1,150,8|0,0:0|0:0,0:0:0:0:
370,214,149682,1,0,0:0:0:0:
148,264,149843,6,0,P|91:190|152:120,1,150,2|0,0:0|0:0,0:0:0:0:
182,126,150327,1,0,0:0:0:0:
402,252,150488,2,0,L|250:251,1,150,8|2,0:0|0:0,0:0:0:0:
472,230,150972,1,2,0:0:0:0:
249,240,151133,2,0,L|248:156,1,75,0|2,0:0|0:0,0:0:0:0:
471,153,151456,2,0,L|363:156,1,75,2|0,0:0|0:0,0:0:0:0:
176,160,151778,2,0,L|87:159,1,75,8|0,0:0|0:0,0:0:0:0:
252,155,152101,2,0,L|171:154,1,75
398,263,152424,6,0,L|223:264,1,150,2|0,0:0|0:0,0:0:0:0:
324,243,152907,1,0,0:0:0:0:
101,236,153069,2,0,L|10:236,1,75,8|0,0:0|0:0,0:0:0:0:
243,233,153391,2,0,L|326:233,1,75,2|2,0:0|0:0,0:0:0:0:
97,236,153714,2,0,L|193:239,1,75,0|2,0:0|0:0,0:0:0:0:
389,233,154036,2,0,L|388:129,1,75,2|0,0:0|0:0,0:0:0:0:
162,193,154359,2,0,L|156:105,1,75,8|8,0:0|3:0,0:0:0:0:
195,113,154601,1,8,3:0:0:0:
355,169,154682,2,0,L|458:165,1,75,8|0,3:0|0:0,0:0:0:0:
204,268,155004,6,0,L|17:267,1,150,2|0,0:0|0:0,0:0:0:0:
308,263,155649,2,0,L|299:88,1,150,8|2,0:0|0:0,0:0:0:0:
220,111,156133,1,2,0:0:0:0:
68,246,156295,2,2,L|68:86,1,150,0|2,0:0|0:0,0:0:0:0:
146,88,156778,1,0,0:0:0:0:
276,206,156940,2,0,L|455:206,1,150,8|0,0:0|0:0,0:0:0:0:
347,190,157424,1,0,0:0:0:0:
489,247,157585,6,0,L|486:78,1,150,2|0,0:0|0:0,0:0:0:0:
224,97,158230,1,8,0:0:0:0:
72,104,158553,1,2,0:0:0:0:
72,104,158714,1,2,0:0:0:0:
225,134,159036,1,2,0:0:0:0:
300,133,159198,1,2,0:0:0:0:
45,251,159520,2,0,L|210:250,1,150,8|0,0:0|0:0,0:0:0:0:
119,226,160004,1,0,0:0:0:0:
275,244,160166,6,0,L|277:150,1,75,2|0,0:0|0:0,0:0:0:0:
125,148,160488,1,0,0:0:0:0:
352,147,160811,1,8,0:0:0:0:
199,147,161133,1,2,0:0:0:0:
199,147,161295,1,2,0:0:0:0:
352,147,161617,1,2,0:0:0:0:
275,152,161778,1,2,0:0:0:0:
490,254,162101,2,0,L|491:91,1,150,8|0,0:0|0:0,0:0:0:0:
412,106,162585,1,0,0:0:0:0:
261,192,162746,6,0,L|258:102,1,75,2|0,0:0|0:0,0:0:0:0:
410,112,163069,1,0,0:0:0:0:
185,110,163391,1,8,0:0:0:0:
338,118,163714,1,2,0:0:0:0:
338,118,163875,1,2,0:0:0:0:
185,110,164198,1,2,0:0:0:0:
185,110,164359,1,2,0:0:0:0:
443,194,164682,2,0,L|364:191,1,75,8|0,0:0|0:0,0:0:0:0:
216,184,165004,2,0,L|144:166,1,75
367,303,165327,6,0,P|438:161|296:114,1,300,2|0,0:0|0:0,0:0:0:0:
