osu file format v14

[General]
AudioFilename: audio.mp3
AudioLeadIn: 0
PreviewTime: 51133
Countdown: 0
SampleSet: Soft
StackLeniency: 0.7
Mode: 2
LetterboxInBreaks: 0
WidescreenStoryboard: 1

[Editor]
Bookmarks: 10488,20811,31133,41456,51778,62101,72424,82746,93069,103391,113714,124036,134359,144682,155004
DistanceSpacing: 1
BeatDivisor: 4
GridSize: 8
TimelineZoom: 1

[Metadata]
Title:Otter Pop (feat. Hollis)
TitleUnicode:Otter Pop (feat. Hollis)
Artist:Shawn Wasabi
ArtistUnicode:Shawn Wasabi
Creator:Chatie
Version:ZiRoX & Chatie's Cup
Source:
Tags:ZiRoX collab english pop fa featured artist ft. mappers' guild mg mpg osu!
BeatmapID:3175483
BeatmapSetID:1554250

[Difficulty]
HPDrainRate:2
CircleSize:3
OverallDifficulty:5.5
ApproachRate:5.5
SliderMultiplier:2.2
SliderTickRate:1

[Events]
//Background and Video events
0,0,"us.jpg",0,0
//Break Periods
//Storyboard Layer 0 (Background)
//Storyboard Layer 1 (Fail)
//Storyboard Layer 2 (Pass)
//Storyboard Layer 3 (Foreground)
//Storyboard Layer 4 (Overlay)
//Storyboard Sound Samples

[TimingPoints]
166,645.161290322581,4,2,2,40,1,0
10488,-100,4,2,1,60,0,0
31133,-100,4,2,1,50,0,0
49198,-100,4,2,2,60,0,0
49843,-100,4,2,2,65,0,0
50488,-100,4,2,2,70,0,0
50649,-100,4,2,2,75,0,0
50811,-100,4,2,2,80,0,0
50972,-100,4,2,2,85,0,0
51133,-100,4,2,2,30,0,0
51778,-100,4,2,3,70,0,1
61778,-100,4,2,3,70,0,0
62101,-100,4,2,3,70,0,1
72424,-100,4,2,1,50,0,0
82746,-100,4,2,1,60,0,0
103391,-100,4,2,1,50,0,0
121456,-100,4,2,2,60,0,0
122101,-100,4,2,2,65,0,0
122746,-100,4,2,2,70,0,0
122907,-100,4,2,2,75,0,0
123069,-100,4,2,2,80,0,0
123230,-100,4,2,2,85,0,0
123391,-100,4,2,2,30,0,0
124036,-100,4,2,2,40,0,0
133875,-100,4,2,2,50,0,0
134359,-100,4,2,3,70,0,1
144359,-100,4,2,3,70,0,0
144682,-100,4,2,3,70,0,1
155004,-100,4,2,1,50,0,0
165972,-100,4,2,1,20,0,0

[Colours]
Combo1 : 255,128,192
Combo2 : 145,125,104
Combo3 : 66,255,255
Combo4 : 255,255,128

[HitObjects]
376,192,166,5,2,0:0:0:0:
136,192,1295,1,0,0:0:0:0:
272,192,1778,1,0,0:0:0:0:
272,192,2262,1,0,0:0:0:0:
120,192,2746,5,2,0:0:0:0:
336,192,3875,1,0,0:0:0:0:
464,192,4358,1,0,0:0:0:0:
464,192,4842,1,0,0:0:0:0:
304,192,5327,5,2,0:0:0:0:
128,184,6456,2,0,L|272:288,2,165,0|0|0,0:0|0:0|0:0,0:0:0:0:
272,192,7907,5,2,0:0:0:0:
384,184,9036,2,0,L|224:264,1,165,0|2,0:0|0:0,0:0:0:0:
72,256,10166,1,0,0:0:0:0:
208,256,10488,5,2,0:0:0:0:
360,256,11133,1,8,0:0:0:0:
184,256,11778,2,0,L|184:144,1,110,0|2,0:0|0:0,0:0:0:0:
312,152,12424,2,0,L|312:40,1,110,8|0,0:0|0:0,0:0:0:0:
176,56,13069,5,2,0:0:0:0:
336,56,13714,1,8,0:0:0:0:
496,64,14359,2,0,L|496:176,1,110,0|2,0:0|0:0,0:0:0:0:
392,160,15004,2,0,L|272:160,1,110,8|2,0:0|0:0,0:0:0:0:
176,160,15649,6,0,L|344:160,2,165,2|0|2,0:0|0:0|0:0,0:0:0:0:
80,152,16940,2,0,L|80:264,1,110,0|2,0:0|0:0,0:0:0:0:
184,248,17585,2,0,L|304:248,1,110,8|0,0:0|0:0,0:0:0:0:
416,248,18230,5,2,0:0:0:0:
232,240,18875,1,8,0:0:0:0:
400,152,19520,2,0,L|400:40,1,110,0|2,0:0|0:0,0:0:0:0:
304,56,20166,2,0,L|192:56,1,110,8|0,0:0|0:0,0:0:0:0:
304,56,20811,5,2,0:0:0:0:
304,56,21456,1,8,0:0:0:0:
84,147,22101,2,0,L|84:260,1,110,0|2,0:0|0:0,0:0:0:0:
194,139,22746,2,0,L|306:139,1,110,8|0,0:0|0:0,0:0:0:0:
194,139,23391,5,2,0:0:0:0:
415,139,24036,1,8,0:0:0:0:
196,156,24682,2,0,L|72:156,1,110,0|2,0:0|0:0,0:0:0:0:
200,157,25327,2,0,L|328:158,1,110,8|2,0:0|0:0,0:0:0:0:
365,157,25972,6,0,L|168:157,2,165,2|0|2,0:0|0:0|0:0,0:0:0:0:
255,160,27262,2,0,L|143:160,1,110,0|0,0:0|0:0,0:0:0:0:
255,160,27907,2,0,L|255:33,1,110,8|0,0:0|0:0,0:0:0:0:
365,160,28553,5,2,0:0:0:0:
149,213,29198,2,0,L|149:91,1,110,8|2,0:0|0:0,0:0:0:0:
278,203,29843,2,0,L|399:203,1,110,0|2,0:0|0:0,0:0:0:0:
388,203,30327,1,0,0:0:0:0:
333,205,30488,2,0,L|215:205,1,110,8|8,0:0|3:0,0:0:0:0:
388,203,31133,6,0,P|400:115|331:77,1,165,2|0,0:0|0:0,0:0:0:0:
142,118,32424,2,0,L|142:295,1,165
197,267,33069,1,0,0:0:0:0:
412,243,33714,6,0,L|266:243,1,110,2|0,0:0|0:0,0:0:0:0:
400,241,35004,1,0,0:0:0:0:
179,229,35649,2,0,L|299:229,1,110,0|0,0:0|0:0,0:0:0:0:
399,228,36295,6,0,L|413:89,1,110,2|0,0:0|0:0,0:0:0:0:
344,121,36778,2,0,L|154:122,2,165,2|0|0,0:0|0:0|0:0,0:0:0:0:
178,243,38230,2,0,L|178:95,1,110,0|0,0:0|0:0,0:0:0:0:
288,243,38875,6,0,L|288:121,1,110,2|0,0:0|0:0,0:0:0:0:
233,136,39359,1,2,0:0:0:0:
68,136,40166,2,0,L|245:136,1,165,0|0,0:0|0:0,0:0:0:0:
123,130,40972,1,8,3:0:0:0:
123,130,41133,1,8,3:0:0:0:
256,128,41456,6,0,P|340:188|360:304,1,220,2|8,0:0|0:0,0:0:0:0:
128,120,42747,2,0,L|240:120,1,110,0|0,0:0|0:0,0:0:0:0:
352,120,43392,1,8,0:0:0:0:
160,240,44037,6,0,L|160:128,1,110,2|0,0:0|0:0,0:0:0:0:
160,80,44682,1,8,0:0:0:0:
360,120,45327,1,0,0:0:0:0:
176,232,45972,2,0,L|176:120,1,110,8|0,0:0|0:0,0:0:0:0:
288,104,46618,6,0,L|408:104,1,110,2|2,0:0|0:0,0:0:0:0:
400,176,47262,1,8,0:0:0:0:
208,96,47907,1,0,0:0:0:0:
424,144,48553,6,0,L|424:256,1,110,8|0,0:0|0:0,0:0:0:0:
256,192,49198,12,0,50488,0:0:0:0:
144,152,51133,6,0,L|144:272,1,110,0|0,0:0|0:0,0:0:0:0:
288,144,51778,6,0,L|160:144,1,110,2|0,0:0|0:0,0:0:0:0:
288,60,52424,2,0,L|160:60,1,110,8|2,0:0|0:0,0:0:0:0:
80,60,53069,2,0,L|80:172,1,110,0|2,0:0|0:0,0:0:0:0:
144,164,53553,1,0,0:0:0:0:
216,164,53714,2,0,L|216:276,1,110,8|0,0:0|0:0,0:0:0:0:
368,244,54359,6,0,L|368:132,1,110,2|0,0:0|0:0,0:0:0:0:
256,140,55004,2,0,L|136:140,1,110,8|2,0:0|0:0,0:0:0:0:
256,140,55649,2,0,L|256:252,1,110,0|2,0:0|0:0,0:0:0:0:
320,244,56133,1,0,0:0:0:0:
392,244,56295,2,0,L|392:356,1,110,8|0,0:0|0:0,0:0:0:0:
248,144,56940,6,0,L|376:144,1,110,2|0,0:0|0:0,0:0:0:0:
240,56,57586,2,0,L|130:56,1,110,8|2,0:0|0:0,0:0:0:0:
240,56,58231,2,0,L|240:168,1,110,0|2,0:0|0:0,0:0:0:0:
176,160,58715,1,0,0:0:0:0:
104,160,58876,2,0,L|104:272,1,110,8|0,0:0|0:0,0:0:0:0:
240,264,59521,6,0,L|352:264,1,110,2|0,0:0|0:0,0:0:0:0:
224,136,60166,2,0,L|344:136,1,110,8|2,0:0|0:0,0:0:0:0:
224,136,60811,2,0,L|224:248,1,110,0|2,0:0|0:0,0:0:0:0:
160,240,61295,1,0,0:0:0:0:
88,240,61457,2,0,L|88:352,1,110,8|8,0:0|3:0,0:0:0:0:
198,280,62101,6,0,L|72:280,1,110,2|0,0:0|0:0,0:0:0:0:
198,280,62746,2,0,L|198:149,1,110,8|2,0:0|0:0,0:0:0:0:
88,202,63391,2,0,L|88:54,1,110,0|2,0:0|0:0,0:0:0:0:
143,90,63875,1,0,0:0:0:0:
198,90,64036,2,0,L|322:90,1,110,8|0,0:0|0:0,0:0:0:0:
197,246,64682,6,0,P|171:181|210:155,1,110,2|0,0:0|0:0,0:0:0:0:
302,159,65327,2,0,L|424:159,1,110,8|2,0:0|0:0,0:0:0:0:
302,159,65972,2,0,P|274:99|317:68,1,110,0|2,0:0|0:0,0:0:0:0:
354,71,66456,1,0,0:0:0:0:
409,72,66617,2,0,L|289:72,1,110,8|0,0:0|0:0,0:0:0:0:
184,199,67262,6,0,L|184:70,1,110,2|0,0:0|0:0,0:0:0:0:
297,202,67907,2,0,L|297:64,1,110,8|2,0:0|0:0,0:0:0:0:
184,89,68553,2,0,L|65:89,1,110,0|2,0:0|0:0,0:0:0:0:
130,90,69036,1,0,0:0:0:0:
184,89,69198,2,0,L|300:89,1,110,8|0,0:0|0:0,0:0:0:0:
409,200,69843,6,0,L|285:200,1,110,2|0,0:0|0:0,0:0:0:0:
409,200,70488,2,0,L|291:200,1,110,8|2,0:0|0:0,0:0:0:0:
189,200,71133,2,0,L|318:200,1,110,0|2,0:0|0:0,0:0:0:0:
299,200,71617,1,0,0:0:0:0:
244,206,71778,2,0,L|120:206,1,110,8|8,0:0|3:0,0:0:0:0:
23,227,72424,6,0,P|38:139|161:78,1,220,2|8,0:0|0:0,0:0:0:0:
365,255,73714,2,0,P|353:153|297:137,1,165
251,173,74359,1,8,0:0:0:0:
31,235,75004,6,0,L|31:89,1,110,2|0,0:0|0:0,0:0:0:0:
145,153,75649,1,8,0:0:0:0:
302,152,76133,2,0,L|121:152,1,165,2|2,0:0|0:0,0:0:0:0:
247,157,76940,2,0,L|247:23,1,110,8|0,0:0|0:0,0:0:0:0:
137,47,77585,6,0,L|274:47,1,110,2|0,0:0|0:0,0:0:0:0:
357,54,78230,1,8,0:0:0:0:
156,212,78875,2,0,L|153:84,1,110,0|2,0:0|0:0,0:0:0:0:
267,210,79520,2,0,L|268:79,1,110,8|0,0:0|0:0,0:0:0:0:
157,99,80166,6,0,L|280:100,1,110,2|0,0:0|0:0,0:0:0:0:
379,104,80811,1,8,0:0:0:0:
167,196,81456,2,0,L|167:65,1,110,0|2,0:0|0:0,0:0:0:0:
277,86,82101,2,0,L|155:86,1,110,8|8,0:0|3:0,0:0:0:0:
277,86,82746,5,2,0:0:0:0:
475,78,83391,1,8,0:0:0:0:
299,81,84036,2,0,L|173:81,1,110,0|2,0:0|0:0,0:0:0:0:
79,81,84682,2,0,L|80:203,1,110,8|0,0:0|0:0,0:0:0:0:
189,81,85327,5,2,0:0:0:0:
22,69,85972,1,8,0:0:0:0:
244,78,86617,2,0,L|243:207,1,110,0|2,0:0|0:0,0:0:0:0:
133,76,87262,2,0,L|269:76,1,110,8|2,0:0|0:0,0:0:0:0:
353,76,87907,6,0,L|148:76,2,165,2|0|2,0:0|0:0|0:0,0:0:0:0:
463,168,89198,2,0,L|463:46,1,110,0|2,0:0|0:0,0:0:0:0:
350,249,89843,2,0,L|350:124,1,110,8|0,0:0|0:0,0:0:0:0:
463,168,90488,5,2,0:0:0:0:
242,219,91133,2,0,L|242:86,1,110,8|2,0:0|0:0,0:0:0:0:
352,220,91778,2,0,L|352:73,1,110,0|2,0:0|0:0,0:0:0:0:
242,109,92424,2,0,L|361:110,1,110,8|0,0:0|0:0,0:0:0:0:
242,109,93069,5,2,0:0:0:0:
72,88,93714,1,8,0:0:0:0:
213,81,94359,2,0,L|339:81,1,110,0|2,0:0|0:0,0:0:0:0:
213,81,95005,2,0,L|212:203,1,110,8|0,0:0|0:0,0:0:0:0:
328,192,95650,5,2,0:0:0:0:
480,192,96295,1,8,0:0:0:0:
268,78,96940,2,0,L|269:207,1,110,0|2,0:0|0:0,0:0:0:0:
152,200,97585,2,0,L|152:328,1,110,8|0,0:0|0:0,0:0:0:0:
280,304,98230,6,0,L|75:304,2,165,2|0|2,0:0|0:0|0:0,0:0:0:0:
400,304,99521,2,0,L|400:182,1,110,0|2,0:0|0:0,0:0:0:0:
288,192,100166,2,0,L|288:67,1,110,8|0,0:0|0:0,0:0:0:0:
408,96,100811,5,2,0:0:0:0:
200,216,101456,2,0,L|328:216,1,110,8|2,0:0|0:0,0:0:0:0:
200,216,102101,2,2,L|200:69,1,110,0|2,0:0|0:0,0:0:0:0:
309,105,102747,2,0,L|190:106,1,110,8|8,0:0|3:0,0:0:0:0:
88,104,103392,5,2,0:0:0:0:
352,344,104682,2,0,L|352:168,1,165,0|0,0:0|0:0,0:0:0:0:
352,120,105327,1,0,0:0:0:0:
128,176,105972,6,0,L|128:56,1,110,2|0,0:0|0:0,0:0:0:0:
352,48,107262,1,0,0:0:0:0:
160,48,107907,2,0,L|160:160,1,110,0|0,0:0|0:0,0:0:0:0:
280,152,108553,6,0,L|400:152,1,110,2|0,0:0|0:0,0:0:0:0:
40,144,110488,2,0,L|40:256,1,110,0|0,0:0|0:0,0:0:0:0:
160,248,111134,6,0,L|280:248,1,110,2|0,0:0|0:0,0:0:0:0:
432,104,112424,2,0,L|432:280,1,165,0|0,0:0|0:0,0:0:0:0:
312,264,113230,1,8,3:0:0:0:
264,264,113391,1,8,3:0:0:0:
147,302,113714,6,0,P|97:199|206:142,1,220,2|8,0:0|0:0,0:0:0:0:
384,136,115004,2,0,L|209:137,1,165,0|0,0:0|0:0,0:0:0:0:
219,136,115649,1,8,0:0:0:0:
384,136,116295,6,0,L|384:259,1,110,2|0,0:0|0:0,0:0:0:0:
248,141,116940,1,8,0:0:0:0:
66,144,117585,2,0,L|201:145,1,110,0|0,0:0|0:0,0:0:0:0:
285,144,118230,2,0,L|168:144,1,110,8|0,0:0|0:0,0:0:0:0:
285,144,118875,6,0,P|303:71|270:56,1,110,2|0,0:0|0:0,0:0:0:0:
148,70,119520,1,8,0:0:0:0:
185,132,120166,2,0,L|298:132,1,110,0|0,0:0|0:0,0:0:0:0:
185,132,120811,6,0,P|167:66|209:32,1,110,8|0,0:0|0:0,0:0:0:0:
256,192,121456,12,0,123391,0:0:0:0:
169,229,124036,6,0,L|168:83,1,110,2|0,0:0|0:0,0:0:0:0:
298,215,124682,2,0,L|298:90,1,110,0|0,0:0|0:0,0:0:0:0:
169,229,125327,2,0,L|171:95,1,110,2|0,0:0|0:0,0:0:0:0:
113,114,125811,1,0,0:0:0:0:
57,157,125972,2,0,L|60:29,1,110,0|0,0:0|0:0,0:0:0:0:
179,74,126617,6,0,L|314:73,1,110,2|0,0:0|0:0,0:0:0:0:
179,74,127262,2,0,L|295:74,1,110,0|0,0:0|0:0,0:0:0:0:
408,187,127907,2,0,L|408:50,1,110,2|0,0:0|0:0,0:0:0:0:
352,74,128391,1,0,0:0:0:0:
298,76,128553,2,0,L|427:77,1,110,2|0,0:0|0:0,0:0:0:0:
298,76,129198,6,0,L|177:76,1,110,2|0,0:0|0:0,0:0:0:0:
78,193,129843,2,0,L|80:68,1,110,0|0,0:0|0:0,0:0:0:0:
198,190,130488,2,0,L|334:191,1,110,2|0,0:0|0:0,0:0:0:0:
307,190,130972,1,0,0:0:0:0:
250,189,131134,2,0,L|134:190,1,110,0|0,0:0|0:0,0:0:0:0:
250,189,131778,6,0,L|249:69,1,110,2|0,0:0|0:0,0:0:0:0:
150,84,132424,2,0,L|279:82,1,110,0|0,0:0|0:0,0:0:0:0:
158,87,133068,2,0,L|296:88,1,110,2|0,0:0|0:0,0:0:0:0:
323,91,133552,1,0,0:0:0:0:
383,152,133714,2,0,L|309:27,1,110,2|8,0:0|3:0,0:0:0:0:
214,225,134359,6,0,L|331:226,1,110,2|0,0:0|0:0,0:0:0:0:
214,225,135004,2,0,L|216:100,1,110,8|2,0:0|0:0,0:0:0:0:
326,225,135649,2,0,L|327:87,1,110,0|2,0:0|0:0,0:0:0:0:
271,115,136133,1,0,0:0:0:0:
215,115,136295,2,0,L|102:115,1,110,8|0,0:0|0:0,0:0:0:0:
215,115,136940,6,0,L|327:116,1,110,2|0,0:0|0:0,0:0:0:0:
434,114,137585,2,0,L|314:114,1,110,8|2,0:0|0:0,0:0:0:0:
200,215,138230,2,0,L|200:79,1,110,0|2,0:0|0:0,0:0:0:0:
257,100,138714,1,0,0:0:0:0:
310,105,138876,2,0,L|183:105,1,110,8|0,0:0|0:0,0:0:0:0:
86,194,139520,6,0,L|82:50,1,110,2|0,0:0|0:0,0:0:0:0:
197,87,140165,2,0,L|318:87,1,110,8|2,0:0|0:0,0:0:0:0:
197,87,140810,2,0,L|72:87,1,110,0|2,0:0|0:0,0:0:0:0:
87,87,141294,1,0,0:0:0:0:
147,87,141456,2,0,L|261:87,1,110,8|0,0:0|0:0,0:0:0:0:
370,149,142101,6,0,L|232:150,1,110,2|0,0:0|0:0,0:0:0:0:
370,149,142746,2,0,L|232:150,1,110,8|2,0:0|0:0,0:0:0:0:
150,149,143391,2,0,L|149:272,1,110,0|2,0:0|0:0,0:0:0:0:
205,158,143875,1,0,0:0:0:0:
262,149,144037,2,0,L|395:150,1,110,8|8,0:0|3:0,0:0:0:0:
264,144,144682,6,0,L|136:144,1,110,2|0,0:0|0:0,0:0:0:0:
256,64,145328,2,0,L|384:64,1,110,8|2,0:0|0:0,0:0:0:0:
416,60,145811,1,2,0:0:0:0:
312,72,146133,2,0,L|312:136,1,55,2|2,0:0|0:0,0:0:0:0:
424,192,146618,2,0,L|288:192,1,110,8|0,0:0|0:0,0:0:0:0:
176,112,147263,6,0,L|304:112,1,110,2|0,0:0|0:0,0:0:0:0:
400,104,147907,2,0,L|400:216,1,110,8|2,0:0|0:0,0:0:0:0:
344,256,148390,1,2,0:0:0:0:
224,256,148714,2,0,L|152:256,1,55,2|2,0:0|0:0,0:0:0:0:
56,256,149197,2,0,L|56:136,1,110,8|0,0:0|0:0,0:0:0:0:
192,144,149844,6,0,L|320:144,1,110,2|0,0:0|0:0,0:0:0:0:
192,136,150488,2,0,L|192:248,1,110,8|2,0:0|0:0,0:0:0:0:
248,288,150971,1,2,0:0:0:0:
368,192,151295,2,0,L|368:128,1,55,2|2,0:0|0:0,0:0:0:0:
240,192,151778,2,0,L|376:192,1,110,8|0,0:0|0:0,0:0:0:0:
472,104,152425,6,0,L|360:104,1,110,2|0,0:0|0:0,0:0:0:0:
256,64,153069,2,0,L|384:64,1,110,8|2,0:0|0:0,0:0:0:0:
416,60,153552,1,2,0:0:0:0:
312,72,153874,2,0,L|312:136,1,55,2|2,0:0|0:0,0:0:0:0:
424,192,154359,2,0,L|288:192,1,110,8|8,0:0|3:0,0:0:0:0:
192,200,155004,6,0,P|108:140|88:24,1,220,2|8,0:0|0:0,0:0:0:0:
320,136,156294,2,2,L|320:320,1,165,0|0,0:0|0:0,0:0:0:0:
248,304,156939,1,8,0:0:0:0:
72,288,157585,6,0,L|192:288,1,110,2|0,0:0|0:0,0:0:0:0:
296,288,158230,1,8,0:0:0:0:
464,144,158875,2,0,L|329:145,1,110,0|2,0:0|0:0,0:0:0:0:
248,144,159520,2,0,L|131:144,1,110,8|0,0:0|0:0,0:0:0:0:
264,160,160165,6,0,L|264:48,1,110,2|0,0:0|0:0,0:0:0:0:
376,48,160811,1,8,0:0:0:0:
200,48,161456,2,0,L|72:48,1,110,0|2,0:0|0:0,0:0:0:0:
192,136,162101,2,0,L|309:136,1,110,8|0,0:0|0:0,0:0:0:0:
408,136,162746,6,0,L|408:24,1,110,2|0,0:0|0:0,0:0:0:0:
320,40,163392,1,8,0:0:0:0:
168,40,164036,2,0,L|168:160,1,110,0|2,0:0|0:0,0:0:0:0:
272,160,164682,2,0,L|384:160,1,110,8|0,0:0|0:0,0:0:0:0:
272,160,165327,6,0,L|272:384,1,220,2|0,0:0|0:0,0:0:0:0:
