osu file format v14

[General]
AudioFilename: audio.mp3
AudioLeadIn: 0
PreviewTime: 48471
Countdown: 0
SampleSet: Normal
StackLeniency: 0.7
Mode: 1
LetterboxInBreaks: 0
WidescreenStoryboard: 0

[Editor]
DistanceSpacing: 1
BeatDivisor: 4
GridSize: 8
TimelineZoom: 1

[Metadata]
Title:Otter Pop
TitleUnicode:Otter Pop
Artist:Shawn Wasabi
ArtistUnicode:Shawn Wasabi
Creator:Jbean10
Version:Inner oni
Source:
Tags:
BeatmapID:2472151
BeatmapSetID:1186072

[Difficulty]
HPDrainRate:5
CircleSize:5
OverallDifficulty:6
ApproachRate:5
SliderMultiplier:2.00000000596047
SliderTickRate:1

[Events]
//Background and Video events
0,0,"DFOhSwlUIAMb4cz.jpeg",0,0
//Break Periods
//Storyboard Layer 0 (Background)
//Storyboard Layer 1 (Fail)
//Storyboard Layer 2 (Pass)
//Storyboard Layer 3 (Foreground)
//Storyboard Layer 4 (Overlay)
//Storyboard Sound Samples

[TimingPoints]
84,645.161290322581,4,1,0,100,1,0
10406,-100,4,1,0,100,0,1
10729,-100,4,1,0,100,0,0
11051,-100,4,1,0,100,0,1
13309,-100,4,1,0,100,0,0
13632,-100,4,1,0,100,0,1
18793,-100,4,1,0,100,0,0
20729,-100,4,1,0,100,0,1
31051,-100,4,1,0,100,0,0
51696,-100,4,1,0,100,0,1
72342,-100,4,1,0,100,0,0
82664,-100,4,1,0,100,0,1
82987,-100,4,1,0,100,0,0
83309,-100,4,1,0,100,0,1
85567,-100,4,1,0,100,0,0
85890,-100,4,1,0,100,0,1
91051,-100,4,1,0,100,0,0
92987,-100,4,1,0,100,0,1
103309,-100,4,1,0,100,0,0
123954,-100,4,1,0,100,0,1
134277,-100,4,1,0,100,0,0
134600,-100,4,1,0,100,0,1
154922,-100,4,1,0,100,0,0

[HitObjects]
235,130,406,5,2,0:0:0:0:
258,129,729,1,2,0:0:0:0:
179,116,1051,1,2,0:0:0:0:
229,166,1374,1,2,0:0:0:0:
206,187,1696,1,0,0:0:0:0:
210,180,1938,1,0,0:0:0:0:
210,177,2019,1,2,0:0:0:0:
199,86,2342,1,2,0:0:0:0:
215,177,2664,1,2,0:0:0:0:
206,84,2987,1,2,0:0:0:0:
245,146,3309,1,2,0:0:0:0:
250,108,3632,1,0,0:0:0:0:
212,137,3954,1,0,0:0:0:0:
265,195,4277,1,0,0:0:0:0:
265,195,4600,1,2,0:0:0:0:
119,54,4922,1,0,0:0:0:0:
155,37,5083,1,0,0:0:0:0:
405,172,5567,1,2,0:0:0:0:
405,172,5890,1,2,0:0:0:0:
405,172,6213,1,2,0:0:0:0:
405,172,6535,1,2,0:0:0:0:
299,145,6858,1,0,0:0:0:0:
299,145,7100,1,0,0:0:0:0:
277,125,7180,1,2,0:0:0:0:
236,118,7503,1,2,0:0:0:0:
265,106,7825,1,2,0:0:0:0:
265,106,8148,1,2,0:0:0:0:
265,106,8471,1,2,0:0:0:0:
235,109,8793,1,0,0:0:0:0:
265,128,9116,1,0,0:0:0:0:
263,128,9438,1,0,0:0:0:0:
238,98,9761,1,2,0:0:0:0:
302,197,10083,1,2,0:0:0:0:
302,197,10245,1,0,0:0:0:0:
296,204,10406,1,4,0:0:0:0:
350,176,10729,1,2,0:0:0:0:
350,180,10890,1,2,0:0:0:0:
297,146,11051,1,0,0:0:0:0:
341,188,11374,1,0,0:0:0:0:
341,188,11535,1,0,0:0:0:0:
252,148,11696,1,2,0:0:0:0:
252,148,11858,1,2,0:0:0:0:
252,148,12019,1,2,0:0:0:0:
174,88,12180,1,0,0:0:0:0:
226,86,12261,1,0,0:0:0:0:
226,86,12342,1,0,0:0:0:0:
223,95,12503,1,2,0:0:0:0:
259,92,12664,1,2,0:0:0:0:
246,143,12825,1,0,0:0:0:0:
224,237,12987,1,4,0:0:0:0:
255,273,13309,1,2,0:0:0:0:
255,273,13471,1,2,0:0:0:0:
275,275,13632,1,0,0:0:0:0:
225,212,13954,1,0,0:0:0:0:
225,212,14116,1,0,0:0:0:0:
283,173,14196,1,0,0:0:0:0:
251,220,14277,1,2,0:0:0:0:
177,95,14438,1,2,0:0:0:0:
259,217,14600,1,0,0:0:0:0:
259,217,14761,1,0,0:0:0:0:
276,217,14922,1,2,0:0:0:0:
275,216,15245,1,0,0:0:0:0:
303,174,15406,1,0,0:0:0:0:
287,210,15567,1,0,0:0:0:0:
166,89,16051,1,2,0:0:0:0:
281,203,16213,1,0,0:0:0:0:
284,136,16535,1,0,0:0:0:0:
284,136,16696,1,0,0:0:0:0:
290,152,16858,1,2,0:0:0:0:
294,152,17019,1,2,0:0:0:0:
341,169,17100,1,2,0:0:0:0:
300,155,17180,1,2,0:0:0:0:
319,163,17342,1,0,0:0:0:0:
323,168,17503,1,2,0:0:0:0:
290,110,17825,1,0,0:0:0:0:
167,122,18148,1,0,0:0:0:0:
363,151,18632,1,0,0:0:0:0:
185,129,18793,1,2,0:0:0:0:
202,141,19116,1,0,0:0:0:0:
202,141,19277,1,0,0:0:0:0:
234,147,19438,1,2,0:0:0:0:
234,147,19600,1,2,0:0:0:0:
440,179,19680,1,0,0:0:0:0:
177,68,19761,1,0,0:0:0:0:
184,106,19922,1,0,0:0:0:0:
220,111,20083,1,2,0:0:0:0:
339,218,20406,1,2,0:0:0:0:
339,218,20487,1,2,0:0:0:0:
332,217,20567,1,2,0:0:0:0:
331,213,20648,1,2,0:0:0:0:
208,123,20729,1,4,0:0:0:0:
303,180,21051,1,0,0:0:0:0:
303,180,21213,1,0,0:0:0:0:
300,129,21293,1,0,0:0:0:0:
308,180,21374,1,2,0:0:0:0:
290,158,21535,1,0,0:0:0:0:
221,86,21696,1,0,0:0:0:0:
252,97,21777,1,0,0:0:0:0:
256,94,21858,1,2,0:0:0:0:
252,97,22019,1,2,0:0:0:0:
252,91,22180,1,0,0:0:0:0:
252,91,22342,1,2,0:0:0:0:
252,91,22503,1,0,0:0:0:0:
239,93,22583,1,0,0:0:0:0:
252,91,22664,1,2,0:0:0:0:
239,93,22825,1,0,0:0:0:0:
227,88,22987,1,2,0:0:0:0:
227,88,23067,1,2,0:0:0:0:
227,87,23148,1,0,0:0:0:0:
228,87,23229,1,0,0:0:0:0:
229,87,23309,1,2,0:0:0:0:
212,113,23471,1,0,0:0:0:0:
186,70,23632,1,0,0:0:0:0:
177,63,23713,1,0,0:0:0:0:
226,104,23793,1,2,0:0:0:0:
219,86,23954,1,0,0:0:0:0:
203,96,24116,1,0,0:0:0:0:
219,63,24277,1,0,0:0:0:0:
223,144,24438,1,0,0:0:0:0:
223,144,24519,1,0,0:0:0:0:
182,123,24600,1,2,0:0:0:0:
227,120,24761,1,2,0:0:0:0:
228,124,24922,1,2,0:0:0:0:
229,124,25083,1,2,0:0:0:0:
252,128,25164,1,2,0:0:0:0:
199,93,25245,1,0,0:0:0:0:
219,102,25325,1,0,0:0:0:0:
252,129,25406,1,2,0:0:0:0:
226,167,25487,1,0,0:0:0:0:
175,76,25567,1,0,0:0:0:0:
227,120,25729,1,0,0:0:0:0:
222,126,25890,1,0,0:0:0:0:
354,131,26374,1,2,0:0:0:0:
354,131,26535,1,0,0:0:0:0:
366,160,26858,1,2,0:0:0:0:
218,204,27342,1,0,0:0:0:0:
203,203,27503,1,0,0:0:0:0:
258,236,27825,1,2,0:0:0:0:
269,239,28148,1,0,0:0:0:0:
282,244,28471,1,2,0:0:0:0:
305,238,28954,1,0,0:0:0:0:
305,238,29116,1,2,0:0:0:0:
304,238,29277,1,2,0:0:0:0:
305,242,29438,1,0,0:0:0:0:
305,238,29600,1,0,0:0:0:0:
308,240,29761,1,2,0:0:0:0:
305,238,29922,1,0,0:0:0:0:
310,237,30083,1,2,0:0:0:0:
192,151,30245,1,0,0:0:0:0:
192,151,30406,1,2,0:0:0:0:
424,237,30567,1,0,0:0:0:0:
424,237,30648,1,0,0:0:0:0:
424,237,30729,1,2,0:0:0:0:
240,125,31051,1,0,0:0:0:0:
305,149,32342,1,2,0:0:0:0:
455,258,32825,1,2,0:0:0:0:
289,151,32987,1,0,0:0:0:0:
323,171,33471,1,2,0:0:0:0:
323,171,33632,1,2,0:0:0:0:
323,171,33793,1,0,0:0:0:0:
330,175,33954,1,0,0:0:0:0:
319,178,35567,1,0,0:0:0:0:
225,68,35729,1,0,0:0:0:0:
258,103,35890,1,2,0:0:0:0:
258,103,36051,1,2,0:0:0:0:
229,119,36213,1,0,0:0:0:0:
236,124,36374,1,2,0:0:0:0:
223,150,36535,1,2,0:0:0:0:
319,178,38148,1,0,0:0:0:0:
225,68,38310,1,0,0:0:0:0:
258,103,38471,1,2,0:0:0:0:
258,103,38632,1,2,0:0:0:0:
229,119,38794,1,0,0:0:0:0:
236,124,38955,1,2,0:0:0:0:
223,150,39116,1,2,0:0:0:0:
342,175,40890,1,0,0:0:0:0:
342,180,40971,1,0,0:0:0:0:
257,241,41051,1,6,0:0:0:0:
258,149,41374,1,0,0:0:0:0:
339,202,41535,1,2,0:0:0:0:
251,153,41696,1,2,0:0:0:0:
240,164,41858,1,0,0:0:0:0:
290,61,41938,1,0,0:0:0:0:
303,177,42019,1,0,0:0:0:0:
274,186,42180,1,2,0:0:0:0:
307,166,42342,1,2,0:0:0:0:
203,128,42503,1,0,0:0:0:0:
316,174,42664,1,0,0:0:0:0:
325,175,42825,1,2,0:0:0:0:
325,175,42987,1,2,0:0:0:0:
213,161,43148,1,0,0:0:0:0:
268,57,43229,1,0,0:0:0:0:
288,128,43309,1,0,0:0:0:0:
440,191,43471,1,2,0:0:0:0:
426,183,43632,1,2,0:0:0:0:
261,92,43793,1,0,0:0:0:0:
261,92,43954,1,0,0:0:0:0:
197,93,44035,1,0,0:0:0:0:
170,65,44116,1,2,0:0:0:0:
226,157,44196,1,2,0:0:0:0:
234,117,44277,1,2,0:0:0:0:
234,117,44438,1,0,0:0:0:0:
281,50,44600,1,2,0:0:0:0:
253,134,44761,1,0,0:0:0:0:
253,134,44922,1,0,0:0:0:0:
246,138,45083,1,0,0:0:0:0:
245,138,45245,1,2,0:0:0:0:
243,138,45406,1,0,0:0:0:0:
182,73,45487,1,0,0:0:0:0:
241,138,45567,1,0,0:0:0:0:
260,159,45729,1,2,0:0:0:0:
311,93,45890,1,2,0:0:0:0:
157,141,46051,1,2,0:0:0:0:
182,73,46132,1,2,0:0:0:0:
216,140,46213,1,0,0:0:0:0:
244,159,46374,1,0,0:0:0:0:
245,162,46535,1,2,0:0:0:0:
217,74,46616,1,2,0:0:0:0:
245,162,46696,1,2,0:0:0:0:
217,74,46777,1,0,0:0:0:0:
195,122,46858,1,0,0:0:0:0:
289,178,47019,1,0,0:0:0:0:
327,101,47180,1,2,0:0:0:0:
194,35,47342,1,0,0:0:0:0:
266,97,47503,1,2,0:0:0:0:
185,47,47664,1,0,0:0:0:0:
283,104,47825,1,2,0:0:0:0:
190,48,47987,1,2,0:0:0:0:
235,84,48148,1,2,0:0:0:0:
274,99,48309,1,0,0:0:0:0:
334,106,48471,1,2,0:0:0:0:
281,115,48793,1,0,0:0:0:0:
256,192,49116,8,0,50406,0:0:0:0:
285,137,51051,5,2,0:0:0:0:
285,137,51213,1,2,0:0:0:0:
288,149,51374,1,0,0:0:0:0:
288,150,51535,1,0,0:0:0:0:
243,144,51696,1,6,0:0:0:0:
274,237,52019,1,0,0:0:0:0:
274,237,52180,1,0,0:0:0:0:
274,237,52261,1,0,0:0:0:0:
274,237,52342,1,2,0:0:0:0:
294,224,52664,1,2,0:0:0:0:
298,227,52825,1,0,0:0:0:0:
299,228,52906,1,0,0:0:0:0:
299,228,52987,1,2,0:0:0:0:
299,228,53148,1,0,0:0:0:0:
304,229,53309,1,0,0:0:0:0:
283,170,53471,1,2,0:0:0:0:
208,97,53632,1,2,0:0:0:0:
255,189,53954,1,0,0:0:0:0:
258,136,54277,1,0,0:0:0:0:
263,138,54438,1,2,0:0:0:0:
270,137,54600,1,0,0:0:0:0:
190,65,54761,1,0,0:0:0:0:
190,65,54922,1,2,0:0:0:0:
190,65,55245,1,2,0:0:0:0:
195,69,55406,1,0,0:0:0:0:
195,69,55487,1,0,0:0:0:0:
197,69,55567,1,2,0:0:0:0:
197,69,55729,1,2,0:0:0:0:
197,69,55890,1,2,0:0:0:0:
281,260,55971,1,2,0:0:0:0:
183,69,56051,1,0,0:0:0:0:
279,158,56132,1,0,0:0:0:0:
192,74,56213,1,2,0:0:0:0:
195,75,56535,1,2,0:0:0:0:
205,79,56696,1,0,0:0:0:0:
182,208,57180,1,2,0:0:0:0:
182,208,57503,1,2,0:0:0:0:
186,206,57825,1,2,0:0:0:0:
262,175,57987,1,0,0:0:0:0:
193,204,58148,1,2,0:0:0:0:
183,72,58309,1,2,0:0:0:0:
215,155,58390,1,0,0:0:0:0:
215,155,58471,1,2,0:0:0:0:
176,42,58632,1,0,0:0:0:0:
227,105,58793,1,2,0:0:0:0:
199,60,59116,1,2,0:0:0:0:
167,118,59277,1,0,0:0:0:0:
172,119,59438,1,2,0:0:0:0:
330,84,59600,1,2,0:0:0:0:
244,102,59680,1,2,0:0:0:0:
305,136,59761,1,2,0:0:0:0:
199,46,59922,1,0,0:0:0:0:
293,162,60083,1,2,0:0:0:0:
367,179,60245,1,0,0:0:0:0:
374,179,60406,1,0,0:0:0:0:
294,92,60567,1,2,0:0:0:0:
248,52,60729,1,2,0:0:0:0:
303,108,60890,1,0,0:0:0:0:
308,110,60971,1,0,0:0:0:0:
308,110,61051,1,2,0:0:0:0:
316,113,61213,1,0,0:0:0:0:
317,113,61374,1,2,0:0:0:0:
197,61,61696,1,2,0:0:0:0:
203,64,61777,1,2,0:0:0:0:
205,64,61858,1,0,0:0:0:0:
192,69,61938,1,0,0:0:0:0:
196,71,62019,1,0,0:0:0:0:
274,237,62342,1,0,0:0:0:0:
274,237,62503,1,0,0:0:0:0:
274,237,62584,1,0,0:0:0:0:
274,237,62665,1,2,0:0:0:0:
102,175,62825,1,0,0:0:0:0:
294,224,62987,1,2,0:0:0:0:
298,227,63148,1,0,0:0:0:0:
299,228,63229,1,0,0:0:0:0:
299,228,63310,1,2,0:0:0:0:
299,228,63471,1,0,0:0:0:0:
304,229,63632,1,0,0:0:0:0:
144,100,63713,1,0,0:0:0:0:
283,170,63794,1,2,0:0:0:0:
105,109,63874,1,2,0:0:0:0:
208,97,63955,1,2,0:0:0:0:
105,109,64116,1,0,0:0:0:0:
255,189,64277,1,0,0:0:0:0:
105,109,64358,1,0,0:0:0:0:
105,109,64438,1,2,0:0:0:0:
258,136,64600,1,0,0:0:0:0:
263,138,64761,1,2,0:0:0:0:
270,137,64923,1,0,0:0:0:0:
190,65,65084,1,0,0:0:0:0:
105,109,65164,1,0,0:0:0:0:
190,65,65245,1,2,0:0:0:0:
105,109,65406,1,0,0:0:0:0:
190,65,65568,1,2,0:0:0:0:
195,69,65729,1,0,0:0:0:0:
195,69,65810,1,0,0:0:0:0:
197,69,65890,1,2,0:0:0:0:
197,69,66052,1,2,0:0:0:0:
197,69,66213,1,2,0:0:0:0:
281,260,66294,1,2,0:0:0:0:
183,69,66374,1,0,0:0:0:0:
279,158,66455,1,0,0:0:0:0:
192,74,66536,1,2,0:0:0:0:
103,108,66696,1,0,0:0:0:0:
195,75,66858,1,2,0:0:0:0:
205,79,67019,1,0,0:0:0:0:
182,208,67503,1,2,0:0:0:0:
190,127,67664,1,0,0:0:0:0:
182,208,67826,1,2,0:0:0:0:
198,126,67987,1,0,0:0:0:0:
186,206,68148,1,2,0:0:0:0:
183,42,68309,1,0,0:0:0:0:
199,117,68390,1,0,0:0:0:0:
193,204,68471,1,2,0:0:0:0:
211,106,68632,1,2,0:0:0:0:
215,155,68713,1,0,0:0:0:0:
215,155,68794,1,2,0:0:0:0:
176,42,68955,1,0,0:0:0:0:
227,105,69116,1,2,0:0:0:0:
212,108,69277,1,0,0:0:0:0:
199,117,69358,1,0,0:0:0:0:
199,60,69439,1,2,0:0:0:0:
167,118,69600,1,0,0:0:0:0:
172,119,69761,1,2,0:0:0:0:
330,84,69923,1,2,0:0:0:0:
244,102,70003,1,2,0:0:0:0:
305,136,70084,1,2,0:0:0:0:
199,46,70245,1,0,0:0:0:0:
293,162,70406,1,2,0:0:0:0:
367,179,70568,1,0,0:0:0:0:
236,144,70648,1,0,0:0:0:0:
374,179,70729,1,0,0:0:0:0:
294,92,70890,1,2,0:0:0:0:
248,52,71052,1,2,0:0:0:0:
303,108,71213,1,0,0:0:0:0:
308,110,71294,1,0,0:0:0:0:
308,110,71374,1,2,0:0:0:0:
316,113,71536,1,0,0:0:0:0:
317,113,71697,1,2,0:0:0:0:
285,152,71858,1,0,0:0:0:0:
197,61,72019,1,2,0:0:0:0:
203,64,72100,1,2,0:0:0:0:
205,64,72181,1,0,0:0:0:0:
192,69,72261,1,0,0:0:0:0:
196,71,72342,1,0,0:0:0:0:
352,177,72664,1,2,0:0:0:0:
345,180,72987,1,2,0:0:0:0:
339,182,73309,1,2,0:0:0:0:
339,182,73632,1,2,0:0:0:0:
213,236,73954,1,2,0:0:0:0:
219,167,74116,1,2,0:0:0:0:
414,53,74277,1,0,0:0:0:0:
328,151,74761,1,2,0:0:0:0:
269,142,74922,1,0,0:0:0:0:
261,140,75083,1,0,0:0:0:0:
259,138,75245,1,2,0:0:0:0:
248,128,75567,1,2,0:0:0:0:
283,123,75890,1,0,0:0:0:0:
266,131,76213,1,0,0:0:0:0:
265,123,76535,1,0,0:0:0:0:
283,115,76858,1,0,0:0:0:0:
291,107,77019,1,0,0:0:0:0:
290,106,77180,1,2,0:0:0:0:
290,104,77342,1,2,0:0:0:0:
288,103,77503,1,0,0:0:0:0:
288,103,77664,1,0,0:0:0:0:
287,104,77825,1,2,0:0:0:0:
261,98,78148,1,2,0:0:0:0:
254,97,78471,1,2,0:0:0:0:
244,94,78793,1,2,0:0:0:0:
310,138,79116,1,2,0:0:0:0:
310,138,79438,1,2,0:0:0:0:
234,109,79600,1,2,0:0:0:0:
244,117,79761,1,0,0:0:0:0:
256,122,79922,1,2,0:0:0:0:
259,124,80083,1,0,0:0:0:0:
259,126,80245,1,0,0:0:0:0:
261,126,80406,1,2,0:0:0:0:
352,102,80729,1,2,0:0:0:0:
318,109,81051,1,0,0:0:0:0:
318,109,81374,1,0,0:0:0:0:
318,109,81696,1,0,0:0:0:0:
322,106,82019,1,2,0:0:0:0:
314,148,82180,1,0,0:0:0:0:
321,151,82261,1,0,0:0:0:0:
322,150,82342,1,6,0:0:0:0:
328,153,82503,1,0,0:0:0:0:
384,140,82664,1,4,0:0:0:0:
350,176,82987,1,2,0:0:0:0:
350,180,83148,1,2,0:0:0:0:
297,146,83309,1,0,0:0:0:0:
341,188,83632,1,0,0:0:0:0:
341,188,83793,1,0,0:0:0:0:
252,148,83954,1,2,0:0:0:0:
252,148,84116,1,2,0:0:0:0:
252,148,84277,1,2,0:0:0:0:
174,88,84438,1,0,0:0:0:0:
226,86,84519,1,0,0:0:0:0:
226,86,84600,1,0,0:0:0:0:
223,95,84761,1,2,0:0:0:0:
259,92,84922,1,2,0:0:0:0:
246,143,85083,1,0,0:0:0:0:
224,237,85245,1,4,0:0:0:0:
255,273,85567,1,2,0:0:0:0:
255,273,85729,1,2,0:0:0:0:
275,275,85890,1,0,0:0:0:0:
225,212,86212,1,0,0:0:0:0:
225,212,86374,1,0,0:0:0:0:
283,173,86454,1,0,0:0:0:0:
251,220,86535,1,2,0:0:0:0:
177,95,86696,1,2,0:0:0:0:
259,217,86858,1,0,0:0:0:0:
259,217,87019,1,0,0:0:0:0:
276,217,87180,1,2,0:0:0:0:
275,216,87503,1,0,0:0:0:0:
303,174,87664,1,0,0:0:0:0:
287,210,87825,1,0,0:0:0:0:
166,89,88309,1,2,0:0:0:0:
281,203,88471,1,0,0:0:0:0:
284,136,88793,1,0,0:0:0:0:
284,136,88954,1,0,0:0:0:0:
290,152,89116,1,2,0:0:0:0:
294,152,89277,1,2,0:0:0:0:
341,169,89358,1,2,0:0:0:0:
300,155,89438,1,2,0:0:0:0:
319,163,89600,1,0,0:0:0:0:
323,168,89761,1,2,0:0:0:0:
290,110,90083,1,0,0:0:0:0:
167,122,90406,1,0,0:0:0:0:
363,151,90890,1,0,0:0:0:0:
185,129,91051,1,2,0:0:0:0:
202,141,91374,1,0,0:0:0:0:
202,141,91535,1,0,0:0:0:0:
234,147,91696,1,2,0:0:0:0:
234,147,91858,1,2,0:0:0:0:
440,179,91938,1,0,0:0:0:0:
177,68,92019,1,0,0:0:0:0:
184,106,92180,1,0,0:0:0:0:
220,111,92341,1,2,0:0:0:0:
339,218,92664,1,2,0:0:0:0:
339,218,92745,1,2,0:0:0:0:
332,217,92825,1,2,0:0:0:0:
331,213,92906,1,2,0:0:0:0:
208,123,92987,1,4,0:0:0:0:
303,180,93309,1,0,0:0:0:0:
303,180,93471,1,0,0:0:0:0:
300,129,93551,1,0,0:0:0:0:
308,180,93632,1,2,0:0:0:0:
290,158,93793,1,0,0:0:0:0:
221,86,93954,1,0,0:0:0:0:
252,97,94035,1,0,0:0:0:0:
256,94,94116,1,2,0:0:0:0:
252,97,94277,1,2,0:0:0:0:
252,91,94438,1,0,0:0:0:0:
252,91,94600,1,2,0:0:0:0:
252,91,94761,1,0,0:0:0:0:
239,93,94841,1,0,0:0:0:0:
252,91,94922,1,2,0:0:0:0:
239,93,95083,1,0,0:0:0:0:
227,88,95245,1,2,0:0:0:0:
227,88,95325,1,2,0:0:0:0:
227,87,95406,1,0,0:0:0:0:
228,87,95487,1,0,0:0:0:0:
229,87,95567,1,2,0:0:0:0:
212,113,95729,1,0,0:0:0:0:
186,70,95890,1,0,0:0:0:0:
177,63,95971,1,0,0:0:0:0:
226,104,96051,1,2,0:0:0:0:
219,86,96212,1,0,0:0:0:0:
203,96,96374,1,0,0:0:0:0:
219,63,96535,1,0,0:0:0:0:
223,144,96696,1,0,0:0:0:0:
223,144,96777,1,0,0:0:0:0:
182,123,96858,1,2,0:0:0:0:
227,120,97019,1,2,0:0:0:0:
228,124,97180,1,2,0:0:0:0:
229,124,97341,1,2,0:0:0:0:
252,128,97422,1,2,0:0:0:0:
199,93,97503,1,0,0:0:0:0:
219,102,97583,1,0,0:0:0:0:
252,129,97664,1,2,0:0:0:0:
226,167,97745,1,0,0:0:0:0:
175,76,97825,1,0,0:0:0:0:
227,120,97987,1,0,0:0:0:0:
222,126,98148,1,0,0:0:0:0:
354,131,98632,1,2,0:0:0:0:
354,131,98793,1,0,0:0:0:0:
366,160,99116,1,2,0:0:0:0:
218,204,99600,1,0,0:0:0:0:
203,203,99761,1,0,0:0:0:0:
258,236,100083,1,2,0:0:0:0:
269,239,100406,1,0,0:0:0:0:
282,244,100729,1,2,0:0:0:0:
305,238,101212,1,0,0:0:0:0:
305,238,101374,1,2,0:0:0:0:
304,238,101535,1,2,0:0:0:0:
305,242,101696,1,0,0:0:0:0:
305,238,101858,1,0,0:0:0:0:
308,240,102019,1,2,0:0:0:0:
305,238,102180,1,0,0:0:0:0:
310,237,102341,1,2,0:0:0:0:
192,151,102503,1,0,0:0:0:0:
192,151,102664,1,2,0:0:0:0:
424,237,102825,1,0,0:0:0:0:
424,237,102906,1,0,0:0:0:0:
424,237,102987,1,2,0:0:0:0:
240,125,103309,1,0,0:0:0:0:
305,149,104600,1,2,0:0:0:0:
455,258,105083,1,2,0:0:0:0:
289,151,105245,1,0,0:0:0:0:
323,171,105729,1,2,0:0:0:0:
323,171,105890,1,2,0:0:0:0:
323,171,106051,1,0,0:0:0:0:
330,175,106212,1,0,0:0:0:0:
319,178,107825,1,0,0:0:0:0:
225,68,107987,1,0,0:0:0:0:
258,103,108148,1,2,0:0:0:0:
258,103,108309,1,2,0:0:0:0:
229,119,108471,1,0,0:0:0:0:
236,124,108632,1,2,0:0:0:0:
223,150,108793,1,2,0:0:0:0:
319,178,110406,1,0,0:0:0:0:
225,68,110568,1,0,0:0:0:0:
258,103,110729,1,2,0:0:0:0:
258,103,110890,1,2,0:0:0:0:
229,119,111052,1,0,0:0:0:0:
236,124,111213,1,2,0:0:0:0:
223,150,111374,1,2,0:0:0:0:
342,175,113148,1,0,0:0:0:0:
342,180,113229,1,0,0:0:0:0:
257,241,113309,1,6,0:0:0:0:
258,149,113632,1,0,0:0:0:0:
339,202,113793,1,2,0:0:0:0:
251,153,113954,1,2,0:0:0:0:
240,164,114116,1,0,0:0:0:0:
290,61,114196,1,0,0:0:0:0:
303,177,114277,1,0,0:0:0:0:
274,186,114438,1,2,0:0:0:0:
307,166,114600,1,2,0:0:0:0:
203,128,114761,1,0,0:0:0:0:
316,174,114922,1,0,0:0:0:0:
325,175,115083,1,2,0:0:0:0:
325,175,115245,1,2,0:0:0:0:
213,161,115406,1,0,0:0:0:0:
268,57,115487,1,0,0:0:0:0:
288,128,115567,1,0,0:0:0:0:
440,191,115729,1,2,0:0:0:0:
426,183,115890,1,2,0:0:0:0:
261,92,116051,1,0,0:0:0:0:
261,92,116212,1,0,0:0:0:0:
197,93,116293,1,0,0:0:0:0:
170,65,116374,1,2,0:0:0:0:
226,157,116454,1,2,0:0:0:0:
234,117,116535,1,2,0:0:0:0:
234,117,116696,1,0,0:0:0:0:
281,50,116858,1,2,0:0:0:0:
253,134,117019,1,0,0:0:0:0:
253,134,117180,1,0,0:0:0:0:
246,138,117341,1,0,0:0:0:0:
245,138,117503,1,2,0:0:0:0:
243,138,117664,1,0,0:0:0:0:
182,73,117745,1,0,0:0:0:0:
241,138,117825,1,0,0:0:0:0:
260,159,117987,1,2,0:0:0:0:
311,93,118148,1,2,0:0:0:0:
157,141,118309,1,2,0:0:0:0:
182,73,118390,1,2,0:0:0:0:
216,140,118471,1,0,0:0:0:0:
244,159,118632,1,0,0:0:0:0:
245,162,118793,1,2,0:0:0:0:
217,74,118874,1,2,0:0:0:0:
245,162,118954,1,2,0:0:0:0:
217,74,119035,1,0,0:0:0:0:
195,122,119116,1,0,0:0:0:0:
289,178,119277,1,0,0:0:0:0:
327,101,119438,1,2,0:0:0:0:
194,35,119600,1,0,0:0:0:0:
266,97,119761,1,2,0:0:0:0:
185,47,119922,1,0,0:0:0:0:
283,104,120083,1,2,0:0:0:0:
190,48,120245,1,2,0:0:0:0:
235,84,120406,1,2,0:0:0:0:
274,99,120567,1,0,0:0:0:0:
334,106,120729,1,2,0:0:0:0:
281,115,121051,1,0,0:0:0:0:
256,192,121374,8,0,122664,0:0:0:0:
285,137,123309,5,2,0:0:0:0:
285,137,123471,1,2,0:0:0:0:
288,149,123632,1,0,0:0:0:0:
288,150,123793,1,0,0:0:0:0:
243,144,123954,1,6,0:0:0:0:
274,237,124277,1,0,0:0:0:0:
274,237,124438,1,0,0:0:0:0:
274,237,124600,1,2,0:0:0:0:
294,224,124922,1,2,0:0:0:0:
298,227,125083,1,0,0:0:0:0:
299,228,125245,1,2,0:0:0:0:
299,228,125406,1,0,0:0:0:0:
304,229,125567,1,0,0:0:0:0:
283,170,125729,1,2,0:0:0:0:
208,97,125890,1,2,0:0:0:0:
255,189,126212,1,0,0:0:0:0:
258,136,126535,1,0,0:0:0:0:
263,138,126696,1,2,0:0:0:0:
270,137,126858,1,0,0:0:0:0:
190,65,127019,1,0,0:0:0:0:
190,65,127180,1,2,0:0:0:0:
190,65,127503,1,2,0:0:0:0:
195,69,127664,1,0,0:0:0:0:
197,69,127825,1,2,0:0:0:0:
197,69,127987,1,2,0:0:0:0:
197,69,128148,1,2,0:0:0:0:
183,69,128309,1,0,0:0:0:0:
178,143,128471,1,2,0:0:0:0:
195,75,128793,1,2,0:0:0:0:
205,79,128954,1,0,0:0:0:0:
182,208,129438,1,2,0:0:0:0:
182,208,129761,1,2,0:0:0:0:
186,206,130083,1,2,0:0:0:0:
262,175,130245,1,0,0:0:0:0:
193,204,130406,1,2,0:0:0:0:
183,72,130567,1,2,0:0:0:0:
312,111,130729,1,2,0:0:0:0:
176,42,130890,1,0,0:0:0:0:
227,105,131051,1,2,0:0:0:0:
199,60,131374,1,2,0:0:0:0:
167,118,131535,1,0,0:0:0:0:
172,119,131696,1,2,0:0:0:0:
330,84,131858,1,2,0:0:0:0:
305,136,132019,1,2,0:0:0:0:
199,46,132180,1,0,0:0:0:0:
293,162,132341,1,2,0:0:0:0:
367,179,132503,1,0,0:0:0:0:
374,179,132664,1,0,0:0:0:0:
294,92,132825,1,2,0:0:0:0:
248,52,132987,1,2,0:0:0:0:
303,108,133148,1,0,0:0:0:0:
308,110,133309,1,2,0:0:0:0:
316,113,133471,1,0,0:0:0:0:
317,113,133632,1,2,0:0:0:0:
197,61,133954,1,2,0:0:0:0:
203,64,134035,1,2,0:0:0:0:
205,64,134116,1,0,0:0:0:0:
192,69,134196,1,0,0:0:0:0:
196,71,134277,1,0,0:0:0:0:
274,237,134600,1,0,0:0:0:0:
274,237,134761,1,0,0:0:0:0:
274,237,134842,1,0,0:0:0:0:
274,237,134923,1,2,0:0:0:0:
102,175,135083,1,0,0:0:0:0:
294,224,135245,1,2,0:0:0:0:
298,227,135406,1,0,0:0:0:0:
299,228,135487,1,0,0:0:0:0:
299,228,135568,1,2,0:0:0:0:
299,228,135729,1,0,0:0:0:0:
304,229,135890,1,0,0:0:0:0:
144,100,135971,1,0,0:0:0:0:
283,170,136052,1,2,0:0:0:0:
105,109,136132,1,2,0:0:0:0:
208,97,136213,1,2,0:0:0:0:
105,109,136374,1,0,0:0:0:0:
255,189,136535,1,0,0:0:0:0:
105,109,136616,1,0,0:0:0:0:
105,109,136696,1,2,0:0:0:0:
258,136,136858,1,0,0:0:0:0:
263,138,137019,1,2,0:0:0:0:
270,137,137181,1,0,0:0:0:0:
190,65,137342,1,0,0:0:0:0:
105,109,137422,1,0,0:0:0:0:
190,65,137503,1,2,0:0:0:0:
105,109,137664,1,0,0:0:0:0:
190,65,137826,1,2,0:0:0:0:
195,69,137987,1,0,0:0:0:0:
195,69,138068,1,0,0:0:0:0:
197,69,138148,1,2,0:0:0:0:
197,69,138310,1,2,0:0:0:0:
197,69,138471,1,2,0:0:0:0:
281,260,138552,1,2,0:0:0:0:
183,69,138632,1,0,0:0:0:0:
279,158,138713,1,0,0:0:0:0:
192,74,138794,1,2,0:0:0:0:
103,108,138954,1,0,0:0:0:0:
195,75,139116,1,2,0:0:0:0:
205,79,139277,1,0,0:0:0:0:
182,208,139761,1,2,0:0:0:0:
190,127,139922,1,0,0:0:0:0:
182,208,140084,1,2,0:0:0:0:
198,126,140245,1,0,0:0:0:0:
186,206,140406,1,2,0:0:0:0:
183,42,140567,1,0,0:0:0:0:
199,117,140648,1,0,0:0:0:0:
193,204,140729,1,2,0:0:0:0:
211,106,140890,1,2,0:0:0:0:
215,155,140971,1,0,0:0:0:0:
215,155,141052,1,2,0:0:0:0:
176,42,141213,1,0,0:0:0:0:
227,105,141374,1,2,0:0:0:0:
212,108,141535,1,0,0:0:0:0:
199,117,141616,1,0,0:0:0:0:
199,60,141697,1,2,0:0:0:0:
167,118,141858,1,0,0:0:0:0:
172,119,142019,1,2,0:0:0:0:
330,84,142181,1,2,0:0:0:0:
244,102,142261,1,2,0:0:0:0:
305,136,142342,1,2,0:0:0:0:
199,46,142503,1,0,0:0:0:0:
293,162,142664,1,2,0:0:0:0:
367,179,142826,1,0,0:0:0:0:
236,144,142906,1,0,0:0:0:0:
374,179,142987,1,0,0:0:0:0:
294,92,143148,1,2,0:0:0:0:
248,52,143310,1,2,0:0:0:0:
303,108,143471,1,0,0:0:0:0:
308,110,143552,1,0,0:0:0:0:
308,110,143632,1,2,0:0:0:0:
316,113,143794,1,0,0:0:0:0:
317,113,143955,1,2,0:0:0:0:
285,152,144116,1,0,0:0:0:0:
197,61,144277,1,2,0:0:0:0:
203,64,144358,1,2,0:0:0:0:
205,64,144439,1,0,0:0:0:0:
192,69,144519,1,0,0:0:0:0:
196,71,144600,1,0,0:0:0:0:
274,237,144922,1,0,0:0:0:0:
274,237,145083,1,0,0:0:0:0:
274,237,145164,1,0,0:0:0:0:
274,237,145245,1,2,0:0:0:0:
102,175,145405,1,0,0:0:0:0:
294,224,145567,1,2,0:0:0:0:
298,227,145728,1,0,0:0:0:0:
299,228,145809,1,0,0:0:0:0:
299,228,145890,1,2,0:0:0:0:
299,228,146051,1,0,0:0:0:0:
304,229,146212,1,0,0:0:0:0:
144,100,146293,1,0,0:0:0:0:
283,170,146374,1,2,0:0:0:0:
105,109,146454,1,2,0:0:0:0:
208,97,146535,1,2,0:0:0:0:
105,109,146696,1,0,0:0:0:0:
255,189,146857,1,0,0:0:0:0:
105,109,146938,1,0,0:0:0:0:
105,109,147018,1,2,0:0:0:0:
258,136,147180,1,0,0:0:0:0:
263,138,147341,1,2,0:0:0:0:
270,137,147503,1,0,0:0:0:0:
190,65,147664,1,0,0:0:0:0:
105,109,147744,1,0,0:0:0:0:
190,65,147825,1,2,0:0:0:0:
105,109,147986,1,0,0:0:0:0:
190,65,148148,1,2,0:0:0:0:
195,69,148309,1,0,0:0:0:0:
195,69,148390,1,0,0:0:0:0:
197,69,148470,1,2,0:0:0:0:
197,69,148632,1,2,0:0:0:0:
197,69,148793,1,2,0:0:0:0:
281,260,148874,1,2,0:0:0:0:
183,69,148954,1,0,0:0:0:0:
279,158,149035,1,0,0:0:0:0:
192,74,149116,1,2,0:0:0:0:
103,108,149276,1,0,0:0:0:0:
195,75,149438,1,2,0:0:0:0:
205,79,149599,1,0,0:0:0:0:
182,208,150083,1,2,0:0:0:0:
190,127,150244,1,0,0:0:0:0:
182,208,150406,1,2,0:0:0:0:
198,126,150567,1,0,0:0:0:0:
186,206,150728,1,2,0:0:0:0:
183,42,150889,1,0,0:0:0:0:
199,117,150970,1,0,0:0:0:0:
193,204,151051,1,2,0:0:0:0:
211,106,151212,1,2,0:0:0:0:
215,155,151293,1,0,0:0:0:0:
215,155,151374,1,2,0:0:0:0:
176,42,151535,1,0,0:0:0:0:
227,105,151696,1,2,0:0:0:0:
212,108,151857,1,0,0:0:0:0:
199,117,151938,1,0,0:0:0:0:
199,60,152019,1,2,0:0:0:0:
167,118,152180,1,0,0:0:0:0:
172,119,152341,1,2,0:0:0:0:
330,84,152503,1,2,0:0:0:0:
244,102,152583,1,2,0:0:0:0:
305,136,152664,1,2,0:0:0:0:
199,46,152825,1,0,0:0:0:0:
293,162,152986,1,2,0:0:0:0:
367,179,153148,1,0,0:0:0:0:
236,144,153228,1,0,0:0:0:0:
374,179,153309,1,0,0:0:0:0:
294,92,153470,1,2,0:0:0:0:
248,52,153632,1,2,0:0:0:0:
303,108,153793,1,0,0:0:0:0:
308,110,153874,1,0,0:0:0:0:
308,110,153954,1,2,0:0:0:0:
316,113,154116,1,0,0:0:0:0:
317,113,154277,1,2,0:0:0:0:
285,152,154438,1,0,0:0:0:0:
197,61,154599,1,2,0:0:0:0:
203,64,154680,1,2,0:0:0:0:
205,64,154761,1,0,0:0:0:0:
192,69,154841,1,0,0:0:0:0:
196,71,154922,1,0,0:0:0:0:
352,177,155245,1,2,0:0:0:0:
345,180,155568,1,2,0:0:0:0:
339,182,155890,1,2,0:0:0:0:
339,182,156213,1,2,0:0:0:0:
161,251,156535,1,2,0:0:0:0:
219,167,156697,1,2,0:0:0:0:
414,53,156858,1,0,0:0:0:0:
328,151,157342,1,2,0:0:0:0:
269,142,157503,1,0,0:0:0:0:
261,140,157664,1,0,0:0:0:0:
259,138,157826,1,2,0:0:0:0:
248,128,158148,1,2,0:0:0:0:
283,123,158471,1,0,0:0:0:0:
266,131,158794,1,0,0:0:0:0:
265,123,159116,1,0,0:0:0:0:
283,115,159439,1,0,0:0:0:0:
291,107,159600,1,0,0:0:0:0:
290,106,159761,1,2,0:0:0:0:
290,104,159923,1,2,0:0:0:0:
288,103,160084,1,0,0:0:0:0:
101,144,160245,1,0,0:0:0:0:
287,104,160406,1,2,0:0:0:0:
261,98,160729,1,2,0:0:0:0:
254,97,161052,1,2,0:0:0:0:
244,94,161374,1,2,0:0:0:0:
310,138,161697,1,2,0:0:0:0:
310,138,162019,1,2,0:0:0:0:
234,109,162181,1,2,0:0:0:0:
244,117,162342,1,0,0:0:0:0:
256,122,162503,1,2,0:0:0:0:
259,124,162664,1,0,0:0:0:0:
259,126,162826,1,0,0:0:0:0:
261,126,162987,1,2,0:0:0:0:
352,102,163310,1,2,0:0:0:0:
318,109,163632,1,0,0:0:0:0:
318,109,163955,1,0,0:0:0:0:
318,109,164277,1,0,0:0:0:0:
322,106,164600,1,2,0:0:0:0:
404,238,164761,1,2,0:0:0:0:
122,208,164922,1,0,0:0:0:0:
128,208,165083,1,0,0:0:0:0:
128,136,165245,6,0,B|176:88|176:88|184:152|184:152|216:104|216:104|232:152|232:152|256:120|256:120|280:168|280:168|304:136|304:136|328:176|328:176|336:184,1,400.000001192093
