osu file format v14

[General]
AudioFilename: audio.ogg
AudioLeadIn: 0
PreviewTime: 34025
Countdown: 0
SampleSet: Soft
StackLeniency: 0.5
Mode: 0
LetterboxInBreaks: 0
WidescreenStoryboard: 1

[Editor]
Bookmarks: 103668,114739
DistanceSpacing: 0.73
BeatDivisor: 4
GridSize: 4
TimelineZoom: 2.5

[Metadata]
Title:Marble Soda
TitleUnicode:Marble Soda
Artist:Shawn Wasabi
ArtistUnicode:Shawn Wasabi
Creator:buddon
Version:A Salty Stick
Source:
Tags:fufla jeby gos the fart lord electronic english pop instrumental launchpad midi rapid fire hyper fever dream fighter mashup Fast tiktok tik tok tik-tok
BeatmapID:4089879
BeatmapSetID:1971143

[Difficulty]
HPDrainRate:5
CircleSize:4
OverallDifficulty:8.2
ApproachRate:9
SliderMultiplier:1.7
SliderTickRate:1

[Events]
//Background and Video events
0,0,"merbl serda.png",0,0
Video,-220,"videwaaaa.mp4"
//Break Periods
2,103868,114139
//Storyboard Layer 0 (Background)
//Storyboard Layer 1 (Fail)
//Storyboard Layer 2 (Pass)
//Storyboard Layer 3 (Foreground)
//Storyboard Layer 4 (Overlay)
//Storyboard Sound Samples

[TimingPoints]
811,357.142857142857,4,2,1,60,1,0
811,-117.647058823529,4,2,1,60,0,0
1792,-117.647058823529,4,2,1,5,0,0
1882,-117.647058823529,4,2,1,60,0,0
1971,-117.647058823529,4,2,1,5,0,0
2060,-117.647058823529,4,2,1,60,0,0
2328,-117.647058823529,4,2,1,5,0,0
2418,-117.647058823529,4,2,1,60,0,0
2863,-117.647058823529,4,2,1,5,0,0
2953,-117.647058823529,4,2,1,60,0,0
3221,-117.647058823529,4,2,1,5,0,0
3310,-117.647058823529,4,2,1,60,0,0
3577,-117.647058823529,4,2,1,5,0,0
3668,-117.647058823529,4,2,1,60,0,0
4649,-117.647058823529,4,2,1,5,0,0
4739,-117.647058823529,4,2,1,60,0,0
4828,-117.647058823529,4,2,1,5,0,0
4918,-117.647058823529,4,2,1,60,0,0
5007,-117.647058823529,4,2,1,5,0,0
5096,-117.647058823529,4,2,1,60,0,0
5720,-117.647058823529,4,2,1,5,0,0
5810,-117.647058823529,4,2,1,60,0,0
7685,-117.647058823529,4,2,1,5,0,0
7775,-117.647058823529,4,2,1,60,0,0
8042,-117.647058823529,4,2,1,5,0,0
8132,-117.647058823529,4,2,1,60,0,0
8935,-117.647058823529,4,2,1,5,0,0
9025,-117.647058823529,4,2,1,60,0,0
12239,-100,4,2,1,70,0,0
15363,-100,4,2,1,5,0,0
15453,-100,4,2,1,70,0,0
16257,-100,4,2,1,5,0,0
16346,-100,4,2,1,70,0,0
16435,-100,4,2,1,5,0,0
16525,-100,4,2,1,70,0,0
17863,-100,4,2,1,5,0,0
17953,-100,4,2,1,70,0,0
21971,-100,4,2,1,5,0,0
22060,-100,4,2,1,70,0,0
22149,-100,4,2,1,5,0,0
22239,-100,4,2,1,70,0,0
23668,-133.333333333333,4,2,2,60,0,0
29382,-83.3333333333333,4,2,2,65,0,0
32239,-83.3333333333333,4,2,2,70,0,0
34025,-83.3333333333333,4,2,99,80,0,0
34114,-83.3333333333333,4,2,99,5,0,0
34382,-90.9090909090909,4,2,95,65,0,0
34501,-90.9090909090909,4,2,96,65,0,0
34620,-90.9090909090909,4,2,97,65,0,0
34739,-83.3333333333333,4,2,98,65,0,0
34828,-83.3333333333333,4,2,98,5,0,0
34918,-83.3333333333333,4,2,98,65,0,0
35007,-83.3333333333333,4,2,98,5,0,0
35096,-76.9230769230769,4,2,1,80,0,1
35363,-76.9230769230769,4,2,1,5,0,1
35453,-76.9230769230769,4,2,1,80,0,1
36614,-76.9230769230769,4,2,1,5,0,1
36703,-76.9230769230769,4,2,1,80,0,1
36970,-76.9230769230769,4,2,1,5,0,1
37060,-76.9230769230769,4,2,1,80,0,1
38220,-76.9230769230769,4,2,1,5,0,1
38310,-76.9230769230769,4,2,1,80,0,1
38757,-76.9230769230769,4,2,1,5,0,1
38846,-76.9230769230769,4,2,1,80,0,1
39114,-76.9230769230769,4,2,1,5,0,1
39203,-76.9230769230769,4,2,1,80,0,1
39292,-76.9230769230769,4,2,1,5,0,1
39382,-76.9230769230769,4,2,1,80,0,1
39828,-76.9230769230769,4,2,1,5,0,1
39918,-76.9230769230769,4,2,1,80,0,1
40007,-76.9230769230769,4,2,1,5,0,1
40096,-76.9230769230769,4,2,1,80,0,1
41077,-76.9230769230769,4,2,1,5,0,1
41168,-76.9230769230769,4,2,1,80,0,1
42328,-76.9230769230769,4,2,1,5,0,1
42418,-76.9230769230769,4,2,1,80,0,1
42685,-76.9230769230769,4,2,1,5,0,1
42775,-76.9230769230769,4,2,1,80,0,1
44828,-76.9230769230769,4,2,1,5,0,1
44918,-76.9230769230769,4,2,1,80,0,1
45185,-76.9230769230769,4,2,1,5,0,1
45275,-76.9230769230769,4,2,1,80,0,1
46077,-76.9230769230769,4,2,1,5,0,1
46168,-76.9230769230769,4,2,1,80,0,1
48042,-76.9230769230769,4,2,1,5,0,1
48132,-76.9230769230769,4,2,1,80,0,1
48399,-76.9230769230769,4,2,1,5,0,1
48489,-76.9230769230769,4,2,1,80,0,1
50899,-76.9230769230769,4,2,1,5,0,1
50989,-76.9230769230769,4,2,1,80,0,1
51614,-76.9230769230769,4,2,1,5,0,1
51703,-76.9230769230769,4,2,1,80,0,1
51792,-76.9230769230769,4,2,1,5,0,1
51882,-76.9230769230769,4,2,1,80,0,1
52506,-76.9230769230769,4,2,1,5,0,1
52596,-76.9230769230769,4,2,1,80,0,1
53757,-76.9230769230769,4,2,1,5,0,1
53846,-76.9230769230769,4,2,1,80,0,1
55096,-100,4,2,1,80,0,0
55453,-100,4,2,1,65,0,0
55542,-100,4,2,1,5,0,0
55632,-76.9230769230769,4,2,1,65,0,0
55721,-76.9230769230769,4,2,1,5,0,0
55810,-100,4,2,1,65,0,0
56168,-100,4,2,1,80,0,0
56257,-100,4,2,1,5,0,0
56346,-100,4,2,1,80,0,0
57953,-90.9090909090909,4,2,1,80,0,0
58042,-90.9090909090909,4,2,1,5,0,0
58132,-90.9090909090909,4,2,1,80,0,0
58221,-90.9090909090909,4,2,1,5,0,0
58489,-90.9090909090909,4,2,1,80,0,0
59114,-90.9090909090909,4,2,1,5,0,0
59203,-90.9090909090909,4,2,1,80,0,0
59292,-90.9090909090909,4,2,1,5,0,0
59382,-90.9090909090909,4,2,1,80,0,0
60364,-90.9090909090909,4,2,1,5,0,0
60453,-90.9090909090909,4,2,1,80,0,0
60721,-90.9090909090909,4,2,1,5,0,0
60810,-90.9090909090909,4,2,1,80,0,0
61792,-90.9090909090909,4,2,1,5,0,0
61882,-90.9090909090909,4,2,1,80,0,0
63221,-90.9090909090909,4,2,1,5,0,0
63310,-90.9090909090909,4,2,1,80,0,0
63578,-90.9090909090909,4,2,1,5,0,0
63668,-90.9090909090909,4,2,1,80,0,0
66525,-100,4,2,1,80,0,0
66882,-100,4,2,1,78,0,0
67239,-100,4,2,1,76,0,0
67596,-100,4,2,1,74,0,0
67953,-100,4,2,1,72,0,0
68310,-100,4,2,1,70,0,0
68668,-100,4,2,1,68,0,0
69025,-100,4,2,1,66,0,0
69382,-117.647058823529,4,2,1,55,0,0
70274,-117.647058823529,4,2,1,5,0,0
70364,-117.647058823529,4,2,1,55,0,0
70542,-117.647058823529,4,2,1,5,0,0
70632,-117.647058823529,4,2,1,55,0,0
70721,-117.647058823529,4,2,1,5,0,0
70810,-117.647058823529,4,2,1,55,0,0
71703,-117.647058823529,4,2,1,5,0,0
71793,-117.647058823529,4,2,1,55,0,0
71971,-117.647058823529,4,2,1,5,0,0
72060,-117.647058823529,4,2,1,55,0,0
72149,-117.647058823529,4,2,1,5,0,0
72239,-117.647058823529,4,2,1,55,0,0
74560,-117.647058823529,4,2,1,5,0,0
74650,-117.647058823529,4,2,1,55,0,0
74828,-117.647058823529,4,2,1,5,0,0
74918,-117.647058823529,4,2,1,55,0,0
75007,-117.647058823529,4,2,1,5,0,0
75096,-105.263157894737,4,2,1,60,0,0
75988,-105.263157894737,4,2,1,5,0,0
76078,-105.263157894737,4,2,1,60,0,0
76256,-105.263157894737,4,2,1,5,0,0
76346,-105.263157894737,4,2,1,60,0,0
76435,-105.263157894737,4,2,1,5,0,0
76525,-105.263157894737,4,2,1,60,0,0
79025,-90.9090909090909,4,2,1,80,0,0
79114,-90.9090909090909,4,2,1,5,0,0
79203,-90.9090909090909,4,2,1,80,0,0
79470,-90.9090909090909,4,2,1,5,0,0
79560,-90.9090909090909,4,2,1,80,0,0
80453,-83.3333333333333,4,2,94,80,0,0
80720,-83.3333333333333,4,2,94,5,0,0
80810,-74.0740740740741,4,2,1,80,0,1
81077,-74.0740740740741,4,2,1,5,0,1
81168,-74.0740740740741,4,2,1,80,0,1
82328,-74.0740740740741,4,2,1,5,0,1
82418,-74.0740740740741,4,2,1,80,0,1
82685,-74.0740740740741,4,2,1,5,0,1
82775,-74.0740740740741,4,2,1,80,0,1
84025,-74.0740740740741,4,2,1,80,0,1
84560,-74.0740740740741,4,2,1,5,0,1
84739,-74.0740740740741,4,2,1,80,0,1
84828,-74.0740740740741,4,2,1,5,0,1
84918,-74.0740740740741,4,2,1,80,0,1
85007,-74.0740740740741,4,2,1,5,0,1
85096,-74.0740740740741,4,2,1,80,0,1
85632,-74.0740740740741,4,2,1,5,0,1
85810,-74.0740740740741,4,2,1,80,0,1
86077,-74.0740740740741,4,2,1,5,0,1
86168,-74.0740740740741,4,2,1,80,0,1
86435,-74.0740740740741,4,2,1,5,0,1
86525,-74.0740740740741,4,2,1,80,0,1
86792,-74.0740740740741,4,2,1,5,0,1
86882,-74.0740740740741,4,2,1,80,0,1
88042,-74.0740740740741,4,2,1,5,0,1
88132,-74.0740740740741,4,2,1,80,0,1
88399,-74.0740740740741,4,2,1,5,0,1
88489,-74.0740740740741,4,2,1,80,0,1
90542,-74.0740740740741,4,2,1,5,0,1
90632,-74.0740740740741,4,2,1,80,0,1
90899,-74.0740740740741,4,2,1,5,0,1
90989,-74.0740740740741,4,2,1,80,0,1
91792,-74.0740740740741,4,2,1,5,0,1
91882,-74.0740740740741,4,2,1,80,0,1
93757,-74.0740740740741,4,2,1,5,0,1
93846,-74.0740740740741,4,2,1,80,0,1
93935,-74.0740740740741,4,2,1,5,0,1
94025,-74.0740740740741,4,2,1,80,0,1
94114,-74.0740740740741,4,2,1,5,0,1
94203,-74.0740740740741,4,2,1,80,0,1
94292,-74.0740740740741,4,2,1,5,0,1
94382,-74.0740740740741,4,2,1,80,0,1
95453,-74.0740740740741,4,2,1,80,0,1
96614,-74.0740740740741,4,2,1,5,0,1
96703,-74.0740740740741,4,2,1,80,0,1
96792,-74.0740740740741,4,2,1,5,0,1
96882,-74.0740740740741,4,2,1,80,0,1
97328,-74.0740740740741,4,2,1,5,0,1
97418,-74.0740740740741,4,2,1,80,0,1
97507,-74.0740740740741,4,2,1,5,0,1
97596,-74.0740740740741,4,2,1,80,0,1
98220,-74.0740740740741,4,2,1,5,0,1
98310,-74.0740740740741,4,2,1,80,0,1
99471,-74.0740740740741,4,2,1,5,0,1
99560,-74.0740740740741,4,2,1,80,0,1
100810,-95.2380952380952,4,2,1,70,0,0
100899,-95.2380952380952,4,2,1,5,0,0
100989,-95.2380952380952,4,2,1,70,0,0
101078,-95.2380952380952,4,2,1,5,0,0
101168,-95.2380952380952,4,2,1,70,0,0
101257,-95.2380952380952,4,2,1,5,0,0
101346,-95.2380952380952,4,2,1,70,0,0
101435,-95.2380952380952,4,2,1,5,0,0
101525,-95.2380952380952,4,2,1,70,0,0
101882,-95.2380952380952,4,2,1,80,0,0
101971,-95.2380952380952,4,2,1,5,0,0
102060,-95.2380952380952,4,2,1,80,0,0
103668,-95.2380952380952,4,2,94,55,0,0
114739,-133.333333333333,4,2,94,55,0,0
115006,-133.333333333333,4,2,94,5,0,0
115096,-117.647058823529,4,2,3,55,0,0
116792,-117.647058823529,4,2,3,5,0,0
116882,-117.647058823529,4,2,3,55,0,0
120810,-105.263157894737,4,2,3,55,0,0
121747,-105.263157894737,4,2,3,40,0,0
121881,-105.263157894737,4,2,3,55,0,0
122819,-105.263157894737,4,2,3,40,0,0
122953,-105.263157894737,4,2,3,55,0,0
123668,-95.2380952380952,4,2,3,60,0,0
125096,-95.2380952380952,4,2,4,60,0,0
126168,-95.2380952380952,4,2,2,55,0,0
126525,-71.4285714285714,4,2,1,80,0,1
126792,-71.4285714285714,4,2,1,5,0,1
126882,-71.4285714285714,4,2,1,80,0,1
127685,-71.4285714285714,4,2,1,5,0,1
127775,-71.4285714285714,4,2,1,80,0,1
127864,-71.4285714285714,4,2,1,5,0,1
127953,-71.4285714285714,4,2,1,80,0,1
128757,-71.4285714285714,4,2,1,5,0,1
128846,-71.4285714285714,4,2,1,80,0,1
128935,-71.4285714285714,4,2,1,5,0,1
129025,-71.4285714285714,4,2,1,80,0,1
129114,-71.4285714285714,4,2,1,5,0,1
129203,-71.4285714285714,4,2,1,80,0,1
129292,-71.4285714285714,4,2,1,5,0,1
129382,-71.4285714285714,4,2,1,80,0,1
131435,-71.4285714285714,4,2,1,5,0,1
131525,-71.4285714285714,4,2,1,80,0,1
131792,-71.4285714285714,4,2,1,5,0,1
131882,-71.4285714285714,4,2,1,80,0,1
132685,-71.4285714285714,4,2,1,5,0,1
132775,-71.4285714285714,4,2,1,80,0,1
132864,-71.4285714285714,4,2,1,5,0,1
132953,-71.4285714285714,4,2,1,80,0,1
134828,-71.4285714285714,4,2,1,5,0,1
134918,-71.4285714285714,4,2,1,80,0,1
135007,-71.4285714285714,4,2,1,5,0,1
135096,-71.4285714285714,4,2,1,80,0,1
135363,-71.4285714285714,4,2,1,5,0,1
135453,-71.4285714285714,4,2,1,80,0,1
136257,-71.4285714285714,4,2,1,5,0,1
136346,-71.4285714285714,4,2,1,80,0,1
136614,-71.4285714285714,4,2,1,5,0,1
136703,-71.4285714285714,4,2,1,80,0,1
137328,-71.4285714285714,4,2,1,5,0,1
137418,-71.4285714285714,4,2,1,80,0,1
139025,-71.4285714285714,4,2,1,80,0,1
139114,-71.4285714285714,4,2,1,5,0,1
139203,-71.4285714285714,4,2,1,80,0,1
139470,-71.4285714285714,4,2,1,5,0,1
139560,-71.4285714285714,4,2,1,80,0,1
139828,-71.4285714285714,4,2,1,5,0,1
139918,-71.4285714285714,4,2,1,80,0,1
140007,-71.4285714285714,4,2,1,5,0,1
140096,-71.4285714285714,4,2,1,80,0,1
141614,-71.4285714285714,4,2,1,5,0,1
141703,-71.4285714285714,4,2,1,80,0,1
142149,-71.4285714285714,4,2,1,5,0,1
142239,-71.4285714285714,4,2,1,80,0,1
142507,-71.4285714285714,4,2,1,5,0,1
142596,-71.4285714285714,4,2,1,80,0,1
143220,-71.4285714285714,4,2,1,5,0,1
143310,-71.4285714285714,4,2,1,80,0,1
143577,-71.4285714285714,4,2,1,5,0,1
143668,-71.4285714285714,4,2,1,80,0,1
144292,-71.4285714285714,4,2,1,5,0,1
144382,-71.4285714285714,4,2,1,80,0,1
144649,-71.4285714285714,4,2,1,5,0,1
144739,-71.4285714285714,4,2,1,80,0,1
145006,-71.4285714285714,4,2,1,5,0,1
145096,-71.4285714285714,4,2,1,80,0,1
145899,-71.4285714285714,4,2,1,5,0,1
145989,-71.4285714285714,4,2,1,80,0,1
146078,-71.4285714285714,4,2,1,5,0,1
146168,-71.4285714285714,4,2,1,80,0,1
148578,-71.4285714285714,4,2,1,5,0,1
148668,-71.4285714285714,4,2,1,80,0,1
149292,-71.4285714285714,4,2,1,5,0,1
149382,-100,4,2,1,65,0,0
149471,-100,4,2,1,5,0,0
149560,-100,4,2,1,65,0,0
149828,-100,4,2,1,5,0,0
149918,-100,4,2,1,65,0,0
150542,-100,4,2,1,5,0,0
150632,-100,4,2,1,65,0,0
150899,-100,4,2,1,5,0,0
150989,-100,4,2,1,65,0,0
152328,-100,4,2,1,5,0,0
152418,-100,4,2,1,65,0,0
152685,-100,4,2,1,5,0,0
152775,-100,4,2,1,65,0,0
153399,-100,4,2,1,5,0,0
153489,-100,4,2,1,65,0,0
153578,-100,4,2,1,5,0,0
153668,-100,4,2,1,65,0,0
157953,-100,4,2,1,50,0,0

[Colours]
Combo1 : 252,197,220
Combo2 : 247,157,157
Combo3 : 243,208,182
Combo4 : 243,242,186
Combo5 : 150,241,186
Combo6 : 140,220,247
Combo7 : 199,188,243

[HitObjects]
156,324,96,5,8,2:1:0:0:
156,324,811,6,0,P|148:288|139:253,1,72.2500013780594,2|2,3:2|2:0,2:0:0:0:
244,344,1168,2,0,P|236:308|227:273,1,72.2500013780594,2|2,3:2|2:0,2:0:0:0:
328,364,1525,2,0,P|360:324|416:328,1,108.375002067089,10|0,2:0|2:0,2:0:0:0:
432,316,1882,6,0,P|436:294|452:276,1,36.1250006890297,2|0,2:0|2:0,2:0:0:0:
500,232,2060,1,2,3:2:0:0:
336,136,2239,6,0,P|358:140|376:156,1,36.1250006890297,2|0,2:0|2:0,2:0:0:0:
420,204,2417,1,2,2:0:0:0:
276,264,2596,6,0,L|255:143,1,108.375002067089,2|0,3:2|2:0,2:0:0:0:
276,80,2953,1,8,2:0:0:0:
208,32,3132,2,0,P|199:48|197:66,1,36.1250006890297,0|0,2:0|2:0,2:0:0:0:
174,142,3310,6,0,P|146:166|168:136,1,108.375002067089,2|0,2:0|2:0,2:0:0:0:
88,84,3668,6,0,P|95:48|104:13,1,72.2500013780594,2|2,3:2|2:0,2:0:0:0:
0,104,4025,2,0,P|7:68|16:33,1,72.2500013780594,2|2,3:2|2:0,2:0:0:0:
56,164,4382,2,0,B|47:207|47:207|33:219|33:219|24:264,1,108.375002067089,10|0,2:0|2:0,2:0:0:0:
40,276,4739,6,0,P|55:266|73:264,1,36.1250006890297,2|0,2:0|2:0,2:0:0:0:
112,352,4918,6,0,P|96:342|78:340,1,36.1250006890297,2|0,3:2|2:0,2:0:0:0:
172,296,5096,6,0,P|196:344|188:376,1,72.2500013780594,2|2,2:0|2:0,2:0:0:0:
212,372,5364,1,2,2:0:0:0:
212,372,5453,2,0,L|333:351,1,108.375002067089,2|0,3:2|2:0,2:0:0:0:
396,336,5810,1,10,2:0:0:0:
312,272,5989,1,2,3:2:0:0:
428,232,6168,1,0,2:0:0:0:
428,232,6257,1,0,2:0:0:0:
428,232,6346,2,0,P|431:249|435:266,2,24.0833337926865,0|0|0,3:2|2:0|2:0,2:0:0:0:
356,176,6525,6,0,P|320:183|285:192,1,72.2500013780594,2|2,2:0|2:0,2:0:0:0:
376,88,6882,2,0,P|340:95|305:104,1,72.2500013780594,2|2,3:2|2:0,2:0:0:0:
224,8,7239,2,0,P|260:15|295:24,1,72.2500013780594,10|0,2:0|3:2,2:0:0:0:
228,140,7596,6,0,P|224:118|208:100,1,36.1250006890297,2|0,2:0|2:0,2:0:0:0:
160,56,7774,1,2,3:2:0:0:
56,200,7953,6,0,P|78:196|96:180,1,36.1250006890297,2|0,2:0|2:0,2:0:0:0:
140,132,8131,1,2,2:0:0:0:
36,124,8310,1,2,3:2:0:0:
36,124,8489,1,0,2:0:0:0:
4,264,8668,2,0,P|52:288|108:268,1,108.375002067089,10|0,2:0|2:0,2:0:0:0:
164,224,9025,1,2,3:2:0:0:
180,356,9203,1,0,2:0:0:0:
176,339,9292,1,0,2:0:0:0:
172,322,9381,5,0,3:2:0:0:
88,364,9560,1,2,2:0:0:0:
164,224,9739,1,2,3:2:0:0:
240,276,9918,1,2,2:0:0:0:
193,145,10096,5,10,2:0:0:0:
164,224,10275,1,10,2:0:0:0:
221,65,10453,1,2,2:0:0:0:
164,224,10632,1,2,3:2:0:0:
20,84,10810,6,0,P|68:56|104:68,1,72.2500013780594,2|2,2:0|2:0,2:0:0:0:
193,145,11168,1,2,3:2:0:0:
68,176,11346,1,2,2:0:0:0:
72,159,11435,1,2,2:0:0:0:
76,142,11525,6,0,P|93:144|108:154,1,36.1250006890297,10|2,3:2|2:0,2:0:0:0:
164,224,11703,2,0,P|147:226|132:236,1,36.1250006890297,2|2,2:0|2:0,2:0:0:0:
32,272,11882,2,0,P|49:274|64:284,1,36.1250006890297,10|2,3:2|2:0,2:0:0:0:
120,354,12060,2,0,P|103:356|88:366,1,36.1250006890297,2|2,2:0|2:0,2:0:0:0:
188,300,12239,6,0,P|197:338|207:386,1,85,6|0,3:2|2:0,2:0:0:0:
312,244,12596,2,0,P|303:282|293:330,1,85,2|0,3:2|2:0,2:0:0:0:
172,212,12953,2,0,B|263:235|241:140|335:165,1,170,10|2,2:0|2:0,2:0:0:0:
312,244,13489,1,2,3:2:0:0:
220,108,13668,6,0,P|276:80|316:84,1,85,2|0,2:0|2:0,2:0:0:0:
396,128,14025,1,2,3:2:0:0:
344,16,14203,1,2,2:0:0:0:
404,144,14382,2,0,P|445:134|486:125,1,85,10|0,2:0|2:0,2:0:0:0:
504,208,14739,1,2,3:2:0:0:
328,184,14918,1,2,2:0:0:0:
324,201,15007,1,2,2:0:0:0:
320,224,15096,6,0,B|268:213|268:213|248:224|248:224|193:214,1,127.5,2|0,3:2|2:0,2:0:0:0:
180,224,15453,2,0,P|184:244|189:265,3,42.5,0|0|2|0,3:2|2:0|2:0|2:0,2:0:0:0:
212,344,15810,1,10,2:0:0:0:
212,344,15989,1,2,2:0:0:0:
104,264,16168,6,0,P|79:268|60:286,1,42.5,2|0,2:0|2:0,2:0:0:0:
0,184,16346,6,0,P|24:188|44:206,1,42.5,2|0,3:2|2:0,2:0:0:0:
192,140,16525,5,2,2:0:0:0:
168,136,16614,1,2,2:0:0:0:
146,140,16703,1,2,2:0:0:0:
128,151,16792,1,2,2:0:0:0:
112,167,16882,2,0,P|102:125|92:84,1,85,2|2,3:2|2:0,2:0:0:0:
104,68,17150,1,2,2:0:0:0:
104,68,17239,1,10,2:0:0:0:
192,140,17418,1,2,3:2:0:0:
200,16,17596,6,0,P|215:58|190:22,1,127.5,2|0,2:0|2:0,2:0:0:0:
274,118,17953,6,0,P|315:112|351:89,1,85,6|0,3:2|2:0,2:0:0:0:
462,138,18310,2,0,P|441:135|423:123,3,42.5,2|0|0|0,3:2|2:0|2:0|2:0,2:0:0:0:
362,178,18668,2,0,P|371:216|381:264,1,85,10|0,2:0|3:2,2:0:0:0:
448,344,19025,2,0,P|452:323|457:302,3,42.5,2|0|2|0,2:0|2:0|3:2|2:0,2:0:0:0:
366,346,19382,6,0,B|321:339|302:296|302:296|270:331|220:322,1,170,2|2,2:0|3:2,2:0:0:0:
238,242,19918,1,2,2:0:0:0:
142,318,20096,2,0,P|132:276|122:235,1,85,10|0,2:0|2:0,2:0:0:0:
182,178,20453,1,2,3:2:0:0:
50,190,20632,1,2,2:0:0:0:
46,173,20721,1,2,2:0:0:0:
42,150,20810,6,0,B|133:173|111:78|205:103,1,170,2|0,3:2|3:2,2:0:0:0:
254,50,21346,1,2,2:0:0:0:
182,178,21525,1,10,2:0:0:0:
178,18,21703,1,2,2:0:0:0:
262,194,21882,6,0,P|279:182|300:179,1,42.5,2|0,2:0|2:0,2:0:0:0:
374,98,22060,6,0,P|356:86|335:83,1,42.5,2|0,3:2|2:0,2:0:0:0:
374,222,22239,6,0,P|378:201|383:180,3,42.5,2|0|0|0,2:0|2:0|2:0|2:0,2:0:0:0:
454,118,22596,2,0,P|459:138|463:159,3,42.5,2|0|0|0,3:2|2:0|2:0|2:0,2:0:0:0:
402,306,22953,5,10,3:2:0:0:
376,310,23042,1,2,2:0:0:0:
350,308,23131,1,2,2:0:0:0:
327,297,23220,1,2,2:0:0:0:
307,280,23310,1,2,3:2:0:0:
289,262,23399,1,2,2:0:0:0:
266,249,23488,1,2,2:0:0:0:
241,245,23577,1,2,2:0:0:0:
215,247,23668,6,0,P|207:278|200:310,1,63.7500024318696,14|0,1:2|2:0,2:0:0:0:
120,304,24025,2,0,P|112:335|105:367,1,63.7500024318696,2|10,1:2|2:0,2:0:0:0:
28,380,24382,1,8,1:2:0:0:
72,236,24739,6,0,P|108:220|144:228,1,63.7500024318696,0|0,1:2|2:0,2:0:0:0:
60,152,25096,2,0,P|24:136|-12:144,1,63.7500024318696,0|0,1:2|2:0,2:0:0:0:
100,80,25453,2,0,P|136:64|172:72,1,63.7500024318696,0|8,1:2|2:0,2:0:0:0:
200,180,25810,2,0,P|228:116|284:136,1,127.500004863739,10|2,1:2|1:2,2:0:0:0:
340,224,26346,1,0,2:0:0:0:
340,224,26435,1,0,2:0:0:0:
340,224,26525,6,0,P|309:216|278:209,1,63.7500024318696,10|0,1:2|2:0,2:0:0:0:
360,140,26882,2,0,P|391:132|422:125,1,63.7500024318696,2|10,1:2|2:0,2:0:0:0:
420,252,27239,1,8,1:2:0:0:
420,252,27596,6,0,P|447:237|479:238,1,63.7500024318696,8|0,1:2|2:0,2:0:0:0:
424,336,27953,2,0,P|392:337|365:323,1,63.7500024318696,0|8,1:2|2:0,2:0:0:0:
332,244,28310,1,8,1:2:0:0:
284,352,28489,1,8,2:0:0:0:
284,352,28578,1,8,2:0:0:0:
284,352,28668,2,0,P|268:296|204:300,1,127.500004863739,10|10,1:2|1:2,2:0:0:0:
88,384,29203,1,0,2:0:0:0:
88,384,29293,1,0,2:0:0:0:
88,384,29382,6,0,P|79:338|64:280,1,101.999996887207,10|2,1:2|2:0,2:0:0:0:
160,160,29739,2,0,P|150:201|140:260,1,101.999996887207,2|10,1:2|2:0,2:0:0:0:
76,144,30096,1,10,1:2:0:0:
242,173,30275,2,0,P|238:188|236:208,2,33.9999989624024,8|8|8,2:0|2:0|2:0,2:0:0:0:
208,96,30453,2,0,P|280:100|312:128,1,101.999996887207,10|2,1:2|2:0,2:0:0:0:
460,144,30810,6,0,P|388:148|356:176,1,101.999996887207,2|10,1:2|2:0,2:0:0:0:
372,188,31078,1,0,2:0:0:0:
372,188,31168,1,10,1:2:0:0:
376,68,31346,2,0,P|391:63|420:60,2,33.9999989624024,8|8|8,2:0|2:0|2:0,2:0:0:0:
302,116,31525,2,0,P|293:70|280:16,1,101.999996887207,8|0,1:2|2:0,2:0:0:0:
216,96,31882,1,0,1:2:0:0:
300,232,32060,1,8,2:0:0:0:
283,236,32149,1,8,2:0:0:0:
266,240,32238,5,10,1:2:0:0:
164,164,32418,1,10,2:0:0:0:
88,266,32596,1,2,1:2:0:0:
190,342,32775,1,10,2:0:0:0:
80,180,32953,5,10,1:2:0:0:
266,240,33132,1,0,2:0:0:0:
105,351,33310,1,10,1:2:0:0:
98,321,33399,1,8,2:0:0:0:
94,293,33488,1,10,2:0:0:0:
88,266,33578,1,8,2:0:0:0:
88,266,34025,6,0,P|111:259|142:252,1,50.9999984436036,4|0,2:0|2:0,2:0:0:0:
340,344,34382,6,0,P|297:323|268:330,2,62.3333352355958,2|2|2,2:0|2:0|2:0,2:0:0:0:
384,272,34739,6,0,P|384:245|373:222,1,50.9999984436036,2|0,2:0|2:0,2:0:0:0:
456,136,34918,6,0,P|443:158|445:184,1,50.9999984436036,2|0,2:0|2:0,2:0:0:0:
256,248,35096,6,0,B|217:197|233:135|299:139|309:177|298:199,1,165.749992412568,6|0,3:2|2:0,2:0:0:0:
252,264,35453,1,2,2:0:0:0:
152,192,35632,1,2,3:2:0:0:
240,84,35810,2,0,P|168:56|120:80,1,110.499994941712,10|0,2:0|2:0,2:0:0:0:
28,196,36168,2,0,L|148:175,1,110.499994941712,2|2,3:2|2:0,2:0:0:0:
152,192,36435,1,2,2:0:0:0:
152,192,36525,2,0,P|158:218|163:245,1,55.2499974708558,2|0,2:0|2:0,2:0:0:0:
60,316,36703,6,0,B|48:281|48:281|95:267|124:310|122:353|82:380,1,165.749992412568,2|0,3:2|2:0,2:0:0:0:
176,384,37060,1,2,2:0:0:0:
163,246,37239,1,10,2:0:0:0:
324,292,37418,1,2,2:0:0:0:
220,312,37596,1,10,2:0:0:0:
352,208,37775,1,10,2:0:0:0:
480,352,37953,6,0,P|412:272|476:244,1,165.749992412568,2|0,3:2|2:0,2:0:0:0:
428,172,38310,1,2,2:0:0:0:
508,276,38489,1,2,3:2:0:0:
508,76,38668,2,0,P|482:70|455:65,1,55.2499974708558,10|0,2:0|2:0,2:0:0:0:
372,72,38846,1,2,2:0:0:0:
428,172,39025,6,0,P|405:156|378:153,1,55.2499974708558,2|0,3:2|2:0,2:0:0:0:
248,128,39203,6,0,P|270:112|297:109,1,55.2499974708558,0|0,2:0|2:0,2:0:0:0:
376,232,39382,1,2,2:0:0:0:
232,120,39560,1,2,3:2:0:0:
180,300,39739,2,0,P|206:293|234:288,1,55.2499974708558,0|0,2:0|2:0,2:0:0:0:
168,284,39918,2,0,P|195:277|223:272,1,55.2499974708558,2|0,2:0|2:0,2:0:0:0:
100,212,40096,5,10,2:0:0:0:
84,300,40275,1,2,2:0:0:0:
32,164,40453,1,2,2:0:0:0:
176,180,40632,1,2,2:0:0:0:
51,379,40810,6,0,P|0:288|48:228,1,165.749992412568,2|0,3:2|2:0,2:0:0:0:
100,212,41168,1,2,2:0:0:0:
144,352,41346,1,2,3:2:0:0:
280,261,41525,2,0,P|226:252|179:279,1,110.499994941712,10|0,2:0|2:0,2:0:0:0:
312,341,41882,2,0,L|420:321,1,110.499994941712,2|2,3:2|2:0,2:0:0:0:
432,305,42150,1,2,2:0:0:0:
432,305,42239,2,0,P|436:277|443:250,1,55.2499974708558,2|0,2:0|2:0,2:0:0:0:
340,165,42418,6,0,B|364:183|355:219|355:219|427:180|379:117,1,165.749992412568,2|0,3:2|2:0,2:0:0:0:
328,85,42775,1,2,2:0:0:0:
116,172,42953,5,10,2:0:0:0:
276,212,43132,1,2,2:0:0:0:
104,184,43310,1,10,2:0:0:0:
284,232,43489,1,10,2:0:0:0:
4,68,43668,6,0,B|88:32|72:119|155:86|163:81|163:81|132:88|106:63,1,220.999989883423,2|0,3:2|2:0,2:0:0:0:
32,144,44203,1,2,3:2:0:0:
218,18,44382,2,0,P|243:72|235:124,1,110.499994941712,10|0,2:0|2:0,2:0:0:0:
56,236,44739,6,0,P|78:220|105:217,1,55.2499974708558,6|0,3:2|2:0,2:0:0:0:
244,268,44918,6,0,B|180:236|184:188|184:188|208:208|240:204,1,165.749992412568,2|0,2:0|2:0,2:0:0:0:
236,121,45275,1,2,2:0:0:0:
140,292,45453,1,6,3:2:0:0:
320,208,45632,1,2,2:0:0:0:
168,44,45810,2,0,B|155:75|156:104|156:104|131:123|131:123|135:163|117:195,1,165.749992412568,10|0,2:0|2:0,2:0:0:0:
128,212,46168,1,10,2:0:0:0:
80,60,46346,1,2,2:0:0:0:
152,308,46525,6,0,P|224:280|272:304,1,110.499994941712,6|0,3:2|2:0,2:0:0:0:
268,276,46793,1,2,2:0:0:0:
268,276,46882,1,2,2:0:0:0:
332,176,47060,1,2,3:2:0:0:
312,348,47239,2,0,P|371:334|433:322,1,110.499994941712,10|0,2:0|2:0,2:0:0:0:
440,148,47596,2,0,P|388:140|349:178,1,110.499994941712,2|2,3:2|2:0,2:0:0:0:
332,176,47864,1,2,2:0:0:0:
332,176,47953,2,0,P|328:148|321:121,1,55.2499974708558,2|0,2:0|2:0,2:0:0:0:
204,128,48132,6,0,B|184:128|169:140|169:140|155:93|198:64|241:66|268:106,1,165.749992412568,2|0,3:2|2:0,2:0:0:0:
316,44,48489,1,0,2:0:0:0:
248,196,48668,1,10,2:0:0:0:
140,12,48846,1,2,2:0:0:0:
249,86,49025,1,10,2:0:0:0:
112,204,49203,1,2,2:0:0:0:
12,20,49382,5,2,3:2:0:0:
164,96,49560,1,2,2:0:0:0:
36,240,49739,2,0,P|25:185|12:132,1,110.499994941712,2|0,2:0|3:2,2:0:0:0:
140,12,50096,5,10,2:0:0:0:
192,176,50275,1,2,2:0:0:0:
368,24,50453,2,0,P|314:11|260:0,1,110.499994941712,2|2,3:2|2:0,2:0:0:0:
248,20,50721,1,0,2:0:0:0:
248,20,50810,6,0,P|254:46|258:74,1,55.2499974708558,0|0,2:0|2:0,2:0:0:0:
272,152,50989,1,2,3:2:0:0:
436,72,51168,2,0,P|376:108|328:92,1,110.499994941712,2|0,2:0|2:0,2:0:0:0:
500,192,51525,2,0,P|474:185|446:180,1,55.2499974708558,8|0,2:0|2:0,2:0:0:0:
512,176,51704,2,0,P|485:169|457:164,1,55.2499974708558,8|0,2:0|2:0,2:0:0:0:
400,292,51882,2,0,P|428:272|480:280,2,73.6666632944744,2|2|2,2:0|2:0|2:0,2:0:0:0:
280,312,52239,6,0,B|241:261|257:199|323:203|333:241|322:263,1,165.749992412568,2|0,3:2|2:0,2:0:0:0:
276,328,52596,1,2,2:0:0:0:
188,220,52775,1,2,3:2:0:0:
92,344,52953,2,0,P|136:304|184:304,1,110.499994941712,8|0,2:0|2:0,2:0:0:0:
104,192,53310,2,0,B|72:176|84:144|84:144|116:156|108:192,1,110.499994941712,2|2,3:2|2:0,2:0:0:0:
96,212,53578,1,2,2:0:0:0:
96,212,53667,2,0,P|68:215|41:222,1,55.2499974708558,2|0,2:0|2:0,2:0:0:0:
56,68,53846,6,0,B|171:38|143:158|262:126,1,220.999989883423,2|2,3:2|2:0,2:0:0:0:
344,20,54382,5,10,2:0:0:0:
228,52,54560,1,2,2:0:0:0:
416,148,54739,1,10,2:0:0:0:
332,4,54918,1,10,2:0:0:0:
244,220,55096,5,0,3:2:0:0:
244,220,55453,2,0,P|220:213|195:209,1,42.5,2|0,2:0|2:0,2:0:0:0:
251,236,55632,2,0,P|225:229|197:224,1,55.2499974708558,2|0,2:0|2:0,2:0:0:0:
136,280,55810,1,10,2:0:0:0:
240,340,55989,1,2,3:2:0:0:
120,204,56168,6,0,P|96:208|76:226,1,42.5,6|0,3:2|2:0,2:0:0:0:
0,340,56346,6,0,B|37:319|71:349|71:349|85:342|85:342|123:375|161:356,1,170,2|2,2:0|2:0,2:0:0:0:
168,380,56793,1,2,2:0:0:0:
168,380,56882,1,6,3:2:0:0:
81,218,57060,1,2,2:0:0:0:
240,340,57239,5,10,2:0:0:0:
266,344,57328,1,2,2:0:0:0:
292,342,57417,1,2,2:0:0:0:
315,331,57506,1,2,2:0:0:0:
335,314,57596,2,0,P|331:293|324:272,3,42.5,10|2|2|2,2:0|2:0|2:0|2:0,2:0:0:0:
424,176,57953,6,0,P|417:203|411:232,1,46.7500014266968,2|0,3:2|2:0,2:0:0:0:
508,152,58132,2,0,P|502:174|497:197,1,46.7500014266968,2|0,3:2|2:0,2:0:0:0:
352,112,58489,5,2,2:0:0:0:
456,60,58668,1,10,2:0:0:0:
344,132,58846,1,2,2:0:0:0:
260,12,59025,6,0,P|283:17|306:22,1,46.7500014266968,2|0,3:2|2:0,2:0:0:0:
208,80,59204,2,0,P|231:85|254:90,1,46.7500014266968,2|0,3:2|2:0,2:0:0:0:
256,172,59382,1,2,2:0:0:0:
344,132,59560,1,2,2:0:0:0:
176,4,59739,6,0,P|185:45|196:98,1,93.5000028533936,0|0,3:2|2:0,2:0:0:0:
176,212,60096,1,8,2:0:0:0:
104,88,60275,2,0,P|80:92|60:110,1,46.7500014266968,0|0,3:2|2:0,2:0:0:0:
32,180,60453,1,2,2:0:0:0:
112,72,60632,2,0,P|88:76|68:94,1,46.7500014266968,2|0,3:2|2:0,2:0:0:0:
32,196,60810,5,2,2:0:0:0:
112,164,60989,1,2,2:0:0:0:
184,296,61168,1,0,2:0:0:0:
44,280,61346,1,0,3:2:0:0:
195,212,61525,6,0,B|270:209|243:283|319:280,1,140.25000428009,8|0,2:0|2:0,2:0:0:0:
323,264,61882,1,2,3:2:0:0:
275,148,62060,1,10,2:0:0:0:
428,160,62239,5,2,2:0:0:0:
352,188,62417,1,2,3:2:0:0:
496,208,62596,1,2,3:2:0:0:
364,108,62775,1,10,2:0:0:0:
323,264,62953,1,10,2:0:0:0:
183,220,63132,2,0,P|187:196|205:176,1,46.7500014266968,0|0,3:2|2:0,2:0:0:0:
275,148,63310,1,2,2:0:0:0:
156,116,63489,2,0,P|174:101|197:98,1,46.7500014266968,2|0,3:2|2:0,2:0:0:0:
92,188,63668,5,2,2:0:0:0:
82,158,63757,1,2,2:0:0:0:
73,128,63846,2,0,P|55:113|32:110,1,46.7500014266968,2|2,3:2|2:0,2:0:0:0:
94,6,64025,2,0,P|99:29|104:52,1,46.7500014266968,2|2,3:2|2:0,2:0:0:0:
156,116,64203,5,10,2:0:0:0:
276,44,64382,1,10,2:0:0:0:
196,44,64560,1,2,2:0:0:0:
316,116,64739,1,2,2:0:0:0:
196,188,64918,1,2,3:2:0:0:
236,116,65096,5,2,2:0:0:0:
240,260,65275,1,2,2:0:0:0:
316,116,65453,2,0,P|364:116|400:148,1,93.5000028533936,0|0,3:2|2:0,2:0:0:0:
280,188,65810,1,8,2:0:0:0:
392,284,65989,2,0,P|440:284|476:252,1,93.5000028533936,0|2,3:2|2:0,2:0:0:0:
356,212,66346,1,2,3:2:0:0:
252,328,66525,6,0,B|323:340|323:340|342:363|342:363|417:379,1,170,6|0,3:2|2:0,2:0:0:0:
272,244,67060,1,0,2:0:0:0:
272,244,67150,1,0,2:0:0:0:
272,244,67239,2,0,P|232:240|192:264,1,85,8|0,2:0|2:0,2:0:0:0:
144,324,67596,1,2,3:2:0:0:
104,256,67775,1,2,2:0:0:0:
192,120,67953,5,2,2:0:0:0:
152,188,68132,1,2,2:0:0:0:
44,72,68310,1,2,2:0:0:0:
76,148,68489,1,2,2:0:0:0:
196,32,68668,2,0,P|152:40|120:76,1,85,10|0,2:0|2:0,2:0:0:0:
68,168,69025,1,2,2:0:0:0:
44,72,69203,1,2,2:0:0:0:
0,248,69382,6,0,P|48:248|72:268,1,72.2500013780594,2|0,3:2|2:0,2:0:0:0:
0,264,69739,2,0,P|48:264|72:284,1,72.2500013780594,2|0,3:2|2:0,2:0:0:0:
160,176,70096,6,0,P|152:140|143:105,1,72.2500013780594,2|0,2:0|2:0,2:0:0:0:
159,113,70364,6,0,P|168:148|176:183,1,72.2500013780594,2|0,2:0|2:0,2:0:0:0:
192,192,70632,6,0,P|188:174|183:156,1,36.1250006890297,2|0,2:0|2:0,2:0:0:0:
140,28,70810,6,0,P|188:28|212:48,1,72.2500013780594,2|0,2:0|2:0,2:0:0:0:
252,108,71168,1,2,2:0:0:0:
200,208,71346,1,2,2:0:0:0:
200,208,71435,1,2,2:0:0:0:
200,208,71525,6,0,P|236:216|271:225,1,72.2500013780594,2|0,2:0|2:0,2:0:0:0:
262,208,71793,6,0,P|227:199|192:192,1,72.2500013780594,2|0,2:0|2:0,2:0:0:0:
184,176,72061,6,0,P|202:180|220:185,1,36.1250006890297,2|0,2:0|2:0,2:0:0:0:
353,241,72239,6,0,P|357:206|340:176,1,72.2500013780594,2|2,2:0|2:0,2:0:0:0:
368,232,72596,2,0,P|372:196|354:166,1,72.2500013780594,2|2,2:0|2:0,2:0:0:0:
201,64,72953,6,0,P|236:55|272:48,1,72.2500013780594,2|2,2:0|2:0,2:0:0:0:
210,48,73221,6,0,P|245:39|280:32,1,72.2500013780594,2|2,2:0|2:0,2:0:0:0:
220,32,73489,6,0,P|237:27|255:23,1,36.1250006890297,2|2,2:0|2:0,2:0:0:0:
136,116,73668,6,0,P|118:85|120:48,1,72.2500013780594,2|0,2:0|2:0,2:0:0:0:
124,128,74025,2,0,P|106:97|108:60,1,72.2500013780594,2|0,2:0|2:0,2:0:0:0:
122,212,74382,6,0,P|87:203|51:195,1,72.2500013780594,2|0,2:0|2:0,2:0:0:0:
60,211,74650,6,0,P|96:220|131:229,1,72.2500013780594,2|0,2:0|2:0,2:0:0:0:
139,244,74918,6,0,P|121:239|104:236,1,36.1250006890297,2|0,2:0|2:0,2:0:0:0:
20,360,75096,6,0,P|17:320|37:286,1,80.7499978437424,10|0,3:2|2:0,2:0:0:0:
176,360,75453,2,0,P|136:362|102:342,1,80.7499978437424,2|8,3:2|2:0,2:0:0:0:
240,304,75810,6,0,P|260:338|258:378,1,80.7499978437424,10|8,2:0|2:0,2:0:0:0:
272,364,76078,6,0,P|274:324|254:289,1,80.7499978437424,2|0,2:0|2:0,2:0:0:0:
266,277,76346,6,0,P|279:300|278:328,1,40.3749989218712,2|0,2:0|2:0,2:0:0:0:
212,216,76525,6,0,P|246:195|286:197,1,80.7499978437424,2|8,2:0|2:0,2:0:0:0:
344,252,76882,1,10,2:0:0:0:
444,184,77060,1,10,2:0:0:0:
444,184,77150,1,10,2:0:0:0:
444,184,77239,2,0,P|435:219|424:264,1,80.7499978437424,10|0,2:0|2:0,2:0:0:0:
440,284,77507,1,2,2:0:0:0:
440,284,77596,1,0,2:0:0:0:
364,148,77775,1,10,2:0:0:0:
364,148,77864,1,8,2:0:0:0:
364,148,77953,6,0,P|324:138|285:130,1,80.7499978437424,8|0,2:0|2:0,2:0:0:0:
164,208,78310,1,0,2:0:0:0:
200,132,78489,1,8,2:0:0:0:
248,264,78668,2,0,B|267:248|255:228|255:228|235:239|245:264,1,80.7499978437424,8|0,2:0|2:0,2:0:0:0:
92,280,79025,6,0,P|115:279|135:290,1,46.7500014266968,6|0,3:2|2:0,2:0:0:0:
24,360,79203,6,0,L|0:222,1,140.25000428009,2|0,2:0|2:0,2:0:0:0:
12,204,79560,1,2,2:0:0:0:
168,176,79739,1,6,3:2:0:0:
92,280,79918,1,2,2:0:0:0:
116,112,80096,2,0,P|180:92|220:112,1,93.5000028533936,10|0,2:0|2:0,2:0:0:0:
200,324,80453,22,0,B|227:287|191:263|191:263|186:257|186:257|183:265|183:265|159:296|200:324,1,152.999995330811,8|0,2:0|2:0,2:0:0:0:
208,344,80810,6,0,B|306:325|306:325|320:280|280:260,1,172.125000656605,6|0,3:2|2:0,2:0:0:0:
240,196,81168,1,2,2:0:0:0:
380,252,81346,1,2,3:2:0:0:
348,76,81525,2,0,P|333:131|323:187,1,114.750000437737,10|0,2:0|2:0,2:0:0:0:
96,144,81882,2,0,L|228:120,1,114.750000437737,2|2,3:2|2:0,2:0:0:0:
228,139,82149,1,2,2:0:0:0:
228,139,82239,2,0,P|234:167|240:197,1,57.3750002188683,2|0,2:0|2:0,2:0:0:0:
124,304,82418,6,0,B|85:254|101:192|167:196|178:234|166:256,1,172.125000656605,2|0,3:2|2:0,2:0:0:0:
204,324,82775,1,2,2:0:0:0:
76,372,82953,1,10,2:0:0:0:
264,384,83132,1,2,2:0:0:0:
124,304,83310,1,10,2:0:0:0:
316,228,83489,1,10,2:0:0:0:
60,240,83668,6,0,B|38:115|38:115|88:160,1,172.125000656605,2|2,3:2|2:0,2:0:0:0:
136,192,84025,2,0,P|152:124|124:84,1,114.750000437737,2|0,2:0|3:2,2:0:0:0:
16,40,84382,1,10,2:0:0:0:
16,40,84471,2,0,P|44:34|74:28,1,57.3750002188683,2|0,2:0|2:0,2:0:0:0:
224,0,84739,6,0,P|195:4|173:21,1,57.3750002188683,2|0,3:2|2:0,2:0:0:0:
260,128,84918,6,0,P|255:99|238:77,1,57.3750002188683,0|0,2:0|2:0,2:0:0:0:
368,0,85096,6,0,P|353:55|343:111,1,114.750000437737,2|0,2:0|3:2,2:0:0:0:
500,20,85453,1,2,2:0:0:0:
500,20,85542,2,0,P|471:25|443:31,1,57.3750002188683,2|0,2:0|2:0,2:0:0:0:
432,164,85810,6,0,P|462:113|436:167,1,172.125000656605,8|0,2:0|2:0,2:0:0:0:
468,248,86168,2,0,B|432:260|396:238|396:238|382:245|382:245|344:216|306:231,1,172.125000656605,2|0,2:0|2:0,2:0:0:0:
184,244,86525,6,0,B|240:276|240:276|220:396,1,172.125000656605,2|0,3:2|2:0,2:0:0:0:
144,368,86882,1,2,2:0:0:0:
192,228,87060,1,2,3:2:0:0:
56,352,87239,2,0,P|45:295|30:240,1,114.750000437737,10|0,2:0|2:0,2:0:0:0:
224,136,87596,2,0,L|92:163,1,114.750000437737,2|2,3:2|2:0,2:0:0:0:
96,148,87863,1,2,2:0:0:0:
96,148,87953,2,0,P|92:120|86:90,1,57.3750002188683,2|0,2:0|2:0,2:0:0:0:
188,64,88132,6,0,B|206:40|243:49|243:49|202:-15|151:18,1,172.125000656605,2|0,3:2|2:0,2:0:0:0:
72,16,88489,1,2,2:0:0:0:
224,136,88668,5,10,2:0:0:0:
28,88,88846,1,2,2:0:0:0:
224,156,89025,1,10,2:0:0:0:
16,104,89203,1,10,2:0:0:0:
276,72,89382,6,0,B|395:40|366:165|490:133,1,229.500000875473,2|0,3:2|2:0,2:0:0:0:
416,24,89918,1,2,3:2:0:0:
304,156,90096,2,0,P|247:166|192:181,1,114.750000437737,10|0,2:0|2:0,2:0:0:0:
344,280,90453,6,0,P|362:258|365:230,1,57.3750002188683,6|0,3:2|2:0,2:0:0:0:
328,360,90632,6,0,B|377:369|409:334|409:334|429:377|485:386,1,172.125000656605,2|0,2:0|2:0,2:0:0:0:
484,300,90989,1,2,2:0:0:0:
344,280,91168,1,6,3:2:0:0:
508,151,91346,1,2,2:0:0:0:
276,220,91525,2,0,P|256:164|332:96,1,172.125000656605,10|0,2:0|2:0,2:0:0:0:
344,80,91882,1,10,2:0:0:0:
404,220,92060,1,2,2:0:0:0:
388,8,92239,6,0,P|316:0|276:28,1,114.750000437737,6|0,3:2|2:0,2:0:0:0:
268,16,92507,1,2,2:0:0:0:
268,16,92596,1,2,2:0:0:0:
336,173,92775,1,2,3:2:0:0:
164,144,92953,2,0,P|203:104|260:100,1,114.750000437737,10|0,2:0|2:0,2:0:0:0:
348,280,93311,2,0,L|235:257,1,114.750000437737,2|2,3:2|2:0,2:0:0:0:
228,240,93577,1,2,2:0:0:0:
228,240,93667,6,0,P|232:211|237:183,1,57.3750002188683,2|0,2:0|2:0,2:0:0:0:
172,308,93846,2,0,P|177:336|180:364,1,57.3750002188683,2|0,3:2|3:2,2:0:0:0:
60,272,94025,2,0,P|82:254|110:251,1,57.3750002188683,0|0,2:0|2:0,2:0:0:0:
56,352,94203,2,0,P|27:348|5:331,1,57.3750002188683,0|0,2:0|2:0,2:0:0:0:
172,308,94382,5,10,2:0:0:0:
60,272,94560,1,2,2:0:0:0:
192,92,94739,1,10,2:0:0:0:
228,240,94918,1,10,2:0:0:0:
12,88,95096,6,0,B|83:74|83:74|110:88|110:88|185:74,1,172.125000656605,2|2,3:2|2:0,2:0:0:0:
232,16,95453,1,2,2:0:0:0:
288,180,95632,1,0,3:2:0:0:
412,44,95810,2,0,P|373:4|316:0,1,114.750000437737,10|0,2:0|2:0,2:0:0:0:
376,180,96168,1,0,3:2:0:0:
508,4,96346,1,2,2:0:0:0:
508,4,96435,1,0,2:0:0:0:
508,4,96525,6,0,P|502:32|499:60,1,57.3750002188683,0|0,2:0|2:0,2:0:0:0:
420,100,96703,2,0,P|416:71|411:43,1,57.3750002188683,2|0,3:2|2:0,2:0:0:0:
492,144,96882,2,0,P|476:199|466:255,1,114.750000437737,2|2,2:0|2:0,2:0:0:0:
328,308,97239,2,0,P|350:290|378:287,1,57.3750002188683,10|0,2:0|2:0,2:0:0:0:
336,292,97418,2,0,P|358:274|386:271,1,57.3750002188683,10|0,2:0|2:0,2:0:0:0:
272,372,97596,2,0,P|234:365|196:360,2,76.5000002918244,2|2|2,2:0|2:0|2:0,2:0:0:0:
212,204,97953,6,0,B|200:166|200:166|250:152|281:197|279:244|236:273,1,172.125000656605,2|0,3:2|2:0,2:0:0:0:
188,284,98310,1,2,2:0:0:0:
136,116,98489,1,2,3:2:0:0:
32,276,98668,2,0,P|71:236|128:232,1,114.750000437737,10|0,2:0|2:0,2:0:0:0:
56,88,99025,2,0,B|24:72|36:40|36:40|68:52|60:88,1,114.750000437737,2|2,3:2|2:0,2:0:0:0:
56,112,99293,1,2,2:0:0:0:
56,112,99382,2,0,P|25:115|-4:123,1,57.3750002188683,2|0,2:0|2:0,2:0:0:0:
136,28,99560,6,0,B|255:-4|226:121|350:89,1,229.500000875473,2|2,3:2|2:0,2:0:0:0:
424,0,100096,5,10,2:0:0:0:
372,160,100275,1,2,2:0:0:0:
512,16,100453,1,10,2:0:0:0:
508,220,100632,1,10,2:0:0:0:
300,32,100810,6,0,P|319:15|344:13,1,44.6249986381531,2|0,3:2|2:0,2:0:0:0:
424,94,100989,2,0,P|404:77|379:75,1,44.6249986381531,2|0,2:0|2:0,2:0:0:0:
272,128,101168,2,0,P|291:111|316:109,1,44.6249986381531,2|0,2:0|2:0,2:0:0:0:
409,179,101347,2,0,P|389:162|364:160,1,44.6249986381531,2|0,2:0|2:0,2:0:0:0:
220,196,101525,1,10,2:0:0:0:
364,240,101703,1,2,3:2:0:0:
192,316,101882,6,0,P|182:291|184:267,1,44.6249986381531,6|0,3:2|0:0,0:0:0:0:
184,116,102060,6,0,B|144:96|109:126|109:126|94:119|94:119|54:153|15:133,1,178.499994552612,2|2,2:0|2:0,2:0:0:0:
8,152,102507,1,2,2:0:0:0:
8,152,102596,1,6,3:2:0:0:
72,308,102775,1,2,2:0:0:0:
184,116,102953,5,10,2:0:0:0:
152,116,103042,1,2,2:0:0:0:
120,128,103131,1,2,2:0:0:0:
96,152,103220,1,2,2:0:0:0:
88,184,103310,2,0,P|90:206|94:228,1,44.6249986381531,10|2,2:0|2:0,2:0:0:0:
168,320,103489,2,0,P|170:298|174:276,1,44.6249986381531,2|2,2:0|2:0,2:0:0:0:
40,384,103668,5,14,3:2:0:0:
368,323,114739,6,0,B|399:316|407:342|407:342|380:350|368:323,1,95.6250036478044,2|0,2:0|2:0,2:0:0:0:
352,308,115096,5,10,1:2:0:0:
352,308,115453,2,0,P|345:271|336:237,1,72.2500013780594,10|2,1:2|2:0,2:0:0:0:
312,164,115810,1,10,1:2:0:0:
312,164,116168,1,10,1:2:0:0:
404,192,116346,1,2,2:0:0:0:
316,80,116525,6,0,P|276:86|232:136,1,108.375002067089,10|0,1:2|2:0,2:0:0:0:
212,144,116882,1,10,1:2:0:0:
100,64,117060,1,2,2:0:0:0:
180,64,117239,1,10,1:2:0:0:
180,64,117596,1,10,1:2:0:0:
108,148,117775,1,2,2:0:0:0:
44,8,117953,6,0,P|27:29|24:80,1,72.2500013780594,10|2,1:2|2:0,2:0:0:0:
120,164,118310,1,10,1:2:0:0:
120,164,118489,2,0,P|118:128|97:99,1,72.2500013780594,2|10,2:0|1:2,2:0:0:0:
72,240,118846,5,2,2:0:0:0:
208,160,119025,1,10,1:2:0:0:
208,160,119203,2,0,P|228:189|230:224,1,72.2500013780594,2|10,2:0|1:2,2:0:0:0:
188,292,119560,1,2,2:0:0:0:
188,292,119739,1,10,1:2:0:0:
312,224,119918,1,2,2:0:0:0:
196,144,120096,5,10,1:2:0:0:
108,304,120275,1,2,2:0:0:0:
124,180,120453,1,10,1:2:0:0:
200,380,120810,5,10,1:2:0:0:
200,380,120989,2,0,P|241:368|284:361,1,80.7499978437424,2|2,2:0|1:2,2:0:0:0:
320,272,121346,1,10,2:0:0:0:
232,208,121525,1,10,1:2:0:0:
384,184,121703,2,8,P|379:198|377:213,4,20.1874994609356,10|8|8|8|10,2:0|2:0|2:0|2:0|1:2,2:0:0:0:
296,136,122060,1,2,2:0:0:0:
224,223,122239,5,2,1:2:0:0:
160,120,122418,1,10,2:0:0:0:
300,156,122596,1,10,1:2:0:0:
136,220,122775,2,8,P|133:210|129:200,4,20.1874994609356,10|8|8|8|10,2:0|2:0|2:0|2:0|1:2,2:0:0:0:
84,92,123132,1,2,2:0:0:0:
45,208,123310,1,2,1:2:0:0:
18,35,123489,1,10,2:0:0:0:
18,35,123578,1,8,2:0:0:0:
18,35,123668,6,0,P|152:39|170:94,1,178.499994552612,10|0,1:2|1:2,2:0:0:0:
84,92,124203,1,8,2:0:0:0:
244,68,124382,1,10,1:2:0:0:
244,68,124739,1,8,1:2:0:0:
208,236,124918,1,8,2:0:0:0:
372,180,125096,5,8,2:0:0:0:
372,180,126168,6,0,P|374:169|378:158,7,22.3124993190766,2|2|2|2|2|2|2|2,1:2|2:0|2:0|2:0|2:0|2:0|2:0|2:0,2:0:0:0:
356,196,126525,6,0,L|179:166,1,178.499994552612,6|0,3:2|2:0,2:0:0:0:
128,108,126882,1,2,2:0:0:0:
188,248,127060,1,2,3:2:0:0:
288,72,127239,2,0,P|216:36|164:56,1,118.999996368408,10|0,2:0|2:0,2:0:0:0:
68,172,127596,2,0,P|48:147|44:117,1,59.4999981842042,2|0,3:2|2:0,2:0:0:0:
59,190,127774,2,0,P|39:165|35:135,1,59.4999981842042,2|0,2:0|2:0,2:0:0:0:
104,24,127953,5,2,2:0:0:0:
196,168,128132,1,0,3:2:0:0:
24,44,128310,1,2,2:0:0:0:
256,0,128489,1,2,2:0:0:0:
209,225,128668,6,0,P|203:195|195:167,1,59.4999981842042,10|0,2:0|2:0,2:0:0:0:
296,100,128846,2,0,P|288:128|281:164,1,59.4999981842042,2|0,2:0|2:0,2:0:0:0:
304,296,129025,6,0,P|298:266|290:238,1,59.4999981842042,10|0,2:0|2:0,2:0:0:0:
393,171,129203,2,0,P|385:199|378:235,1,59.4999981842042,10|0,2:0|2:0,2:0:0:0:
268,372,129382,6,0,P|326:377|373:344,1,118.999996368408,2|0,3:2|2:0,2:0:0:0:
456,252,129739,1,2,2:0:0:0:
440,384,129918,1,0,3:2:0:0:
304,296,130096,2,0,P|332:236|400:240,1,118.999996368408,10|0,2:0|2:0,2:0:0:0:
224,296,130453,2,0,P|172:283|108:270,1,118.999996368408,2|10,3:2|2:0,2:0:0:0:
28,104,130810,5,2,2:0:0:0:
72,196,130989,1,0,3:2:0:0:
96,44,131168,2,0,P|60:8|56:92,1,178.499994552612,2|0,2:0|2:0,2:0:0:0:
168,92,131525,2,0,B|259:68|237:163|331:138,1,178.499994552612,10|0,2:0|2:0,2:0:0:0:
308,64,131882,1,10,2:0:0:0:
256,216,132060,1,0,2:0:0:0:
468,116,132239,5,2,3:2:0:0:
308,48,132418,1,2,2:0:0:0:
324,272,132596,2,0,P|349:252|379:248,1,59.4999981842042,2|0,2:0|2:0,2:0:0:0:
432,196,132775,2,0,P|407:176|377:172,1,59.4999981842042,2|0,3:2|2:0,2:0:0:0:
380,332,132953,2,0,P|438:337|485:304,1,118.999996368408,10|0,2:0|2:0,2:0:0:0:
432,196,133310,1,2,3:2:0:0:
324,272,133489,1,8,2:0:0:0:
484,124,133668,6,0,P|517:171|512:229,1,118.999996368408,2|2,2:0|3:2,2:0:0:0:
344,184,134025,1,2,2:0:0:0:
424,60,134203,1,2,2:0:0:0:
268,208,134382,2,0,P|216:195|152:182,1,118.999996368408,10|0,2:0|2:0,2:0:0:0:
291,54,134739,2,0,P|271:79|267:109,1,59.4999981842042,10|0,2:0|2:0,2:0:0:0:
300,72,134918,2,0,P|280:97|276:127,1,59.4999981842042,10|0,2:0|2:0,2:0:0:0:
152,44,135096,6,0,B|189:32|189:32|203:82|158:113|111:111|82:68,1,178.499994552612,2|0,3:2|2:0,2:0:0:0:
76,12,135453,2,0,P|28:48|20:104,1,118.999996368408,2|0,2:0|3:2,2:0:0:0:
100,284,135810,2,0,P|88:225|73:167,1,118.999996368408,10|0,2:0|2:0,2:0:0:0:
312,288,136168,6,0,P|287:268|257:264,1,59.4999981842042,2|0,3:2|2:0,2:0:0:0:
184,272,136346,1,10,2:0:0:0:
320,120,136525,6,0,P|288:122|263:140,1,59.4999981842042,2|0,2:0|2:0,2:0:0:0:
216,197,136703,1,10,2:0:0:0:
392,260,136882,2,0,P|404:201|419:143,1,118.999996368408,2|0,3:2|2:0,2:0:0:0:
237,22,137239,6,0,P|267:32|287:55,1,59.4999981842042,10|0,2:0|2:0,2:0:0:0:
320,120,137417,1,8,2:0:0:0:
136,204,137596,1,8,2:0:0:0:
216,96,137775,1,2,2:0:0:0:
80,268,137953,6,0,P|48:200|76:148,1,118.999996368408,2|2,3:2|2:0,2:0:0:0:
140,328,138310,2,0,P|197:313|255:301,1,118.999996368408,2|0,2:0|3:2,2:0:0:0:
392,224,138668,2,0,B|320:210|320:210|293:224|293:224|218:210,1,178.499994552612,10|2,2:0|2:0,2:0:0:0:
174,151,139025,2,0,P|198:134|227:133,1,59.4999981842042,2|0,3:2|2:0,2:0:0:0:
432,148,139203,6,0,B|476:90|404:51|404:51|408:84|389:106,1,178.499994552612,2|0,2:0|2:0,2:0:0:0:
324,60,139560,1,2,3:2:0:0:
392,224,139739,2,0,P|367:204|337:200,1,59.4999981842042,2|0,2:0|2:0,2:0:0:0:
284,300,139918,2,0,P|309:280|339:276,1,59.4999981842042,2|0,2:0|2:0,2:0:0:0:
260,208,140096,1,8,2:0:0:0:
340,356,140275,1,2,2:0:0:0:
176,320,140453,1,10,2:0:0:0:
340,199,140632,1,10,2:0:0:0:
156,332,140810,6,0,P|143:273|128:216,1,118.999996368408,2|0,3:2|2:0,2:0:0:0:
80,76,141168,2,0,P|64:133|52:191,1,118.999996368408,2|0,2:0|3:2,2:0:0:0:
164,64,141525,2,0,P|158:35|139:12,1,59.4999981842042,10|0,2:0|2:0,2:0:0:0:
168,148,141703,2,0,P|212:132|248:68,1,118.999996368408,0|0,2:0|3:2,2:0:0:0:
332,160,142060,2,0,P|303:166|280:185,1,59.4999981842042,10|0,2:0|2:0,2:0:0:0:
280,264,142239,5,0,2:0:0:0:
392,100,142418,2,0,P|410:122|416:151,1,59.4999981842042,2|0,3:2|2:0,2:0:0:0:
360,248,142596,2,0,P|417:232|475:220,1,118.999996368408,2|0,2:0|2:0,2:0:0:0:
396,356,142953,2,0,B|324:342|324:342|297:356|297:356|222:342,1,178.499994552612,10|0,2:0|2:0,2:0:0:0:
184,272,143310,2,0,P|115:267|140:344,1,178.499994552612,2|0,2:0|2:0,2:0:0:0:
132,356,143668,6,0,P|93:258|196:258,1,237.999992736817,2|0,3:2|2:0,2:0:0:0:
64,180,144203,2,0,P|86:161|115:155,1,59.4999981842042,2|0,3:2|2:0,2:0:0:0:
248,196,144382,2,0,B|234:122|234:122|248:95|248:95|234:23,1,178.499994552612,10|0,2:0|2:0,2:0:0:0:
248,8,144739,2,0,B|262:80|262:80|248:107|248:107|261:180,1,178.499994552612,2|0,3:2|2:0,2:0:0:0:
324,300,145096,6,0,P|336:241|352:184,1,118.999996368408,2|0,2:0|3:2,2:0:0:0:
200,348,145453,2,0,P|187:289|171:232,1,118.999996368408,2|0,2:0|2:0,2:0:0:0:
336,380,145810,2,0,P|364:374|387:355,1,59.4999981842042,10|0,2:0|2:0,2:0:0:0:
468,228,145989,2,0,P|439:233|416:252,1,59.4999981842042,2|0,2:0|2:0,2:0:0:0:
468,356,146168,1,10,2:0:0:0:
336,240,146346,1,10,2:0:0:0:
512,152,146525,6,0,P|454:135|396:124,1,118.999996368408,2|0,3:2|2:0,2:0:0:0:
204,184,146882,2,0,P|261:167|319:156,1,118.999996368408,2|0,2:0|3:2,2:0:0:0:
512,132,147239,2,0,P|454:115|396:104,1,118.999996368408,10|0,2:0|2:0,2:0:0:0:
252,256,147596,1,2,3:2:0:0:
336,48,147775,1,10,2:0:0:0:
144,252,147953,6,0,P|116:201|132:144,1,118.999996368408,2|8,3:2|2:0,2:0:0:0:
256,80,148310,2,0,B|152:64|152:64|192:72|208:116,1,178.499994552612,2|0,3:2|0:0,0:0:0:0:
200,188,148668,1,10,2:0:0:0:
76,80,148846,1,2,2:0:0:0:
208,208,149025,6,0,B|232:257|189:285|189:285|160:242|202:206,1,178.499994552612,10|0,2:0|2:0,2:0:0:0:
288,184,149382,6,0,P|296:209|302:241,1,42.5,6|0,3:2|2:0,2:0:0:0:
320,300,149560,1,0,2:0:0:0:
416,240,149739,2,0,P|408:265|402:297,1,42.5,0|0,3:2|2:0,2:0:0:0:
384,356,149917,1,2,2:0:0:0:
496,252,150096,2,0,P|492:196|448:164,1,85,8|0,2:0|2:0,2:0:0:0:
360,128,150453,2,0,P|385:120|417:114,1,42.5,2|0,2:0|2:0,2:0:0:0:
476,96,150631,1,0,3:2:0:0:
296,184,150810,6,0,P|279:164|274:138,1,42.5,0|0,2:0|2:0,2:0:0:0:
288,72,150989,1,2,2:0:0:0:
196,176,151168,1,2,3:2:0:0:
152,108,151346,1,2,2:0:0:0:
140,236,151525,1,10,2:0:0:0:
196,176,151703,1,2,2:0:0:0:
140,256,151882,1,2,2:0:0:0:
92,168,152060,1,2,2:0:0:0:
80,352,152239,6,0,P|105:344|137:338,1,42.5,2|0,3:2|2:0,2:0:0:0:
196,320,152417,1,2,2:0:0:0:
352,280,152596,2,0,P|327:272|295:266,1,42.5,2|0,3:2|2:0,2:0:0:0:
236,248,152774,1,2,2:0:0:0:
408,344,152953,2,0,P|436:304|432:260,1,85,10|2,2:0|2:0,2:0:0:0:
352,180,153310,6,0,P|376:184|396:202,1,42.5,2|0,2:0|2:0,2:0:0:0:
512,180,153489,6,0,P|487:184|468:202,1,42.5,2|0,3:2|2:0,2:0:0:0:
360,92,153668,5,2,2:0:0:0:
432,28,153846,1,2,2:0:0:0:
500,92,154025,1,2,3:2:0:0:
432,8,154203,1,2,2:0:0:0:
432,132,154382,1,10,2:0:0:0:
344,5,154560,1,0,3:2:0:0:
268,164,154739,2,0,P|259:120|248:78,1,85,2|2,2:0|3:2,2:0:0:0:
310,237,155096,6,0,P|269:248|228:240,1,85,2|0,3:2|2:0,2:0:0:0:
108,164,155453,1,0,3:2:0:0:
228,240,155632,1,2,2:0:0:0:
228,92,155810,1,8,2:0:0:0:
148,236,155989,1,0,3:2:0:0:
268,164,156168,1,2,2:0:0:0:
148,92,156346,1,0,3:2:0:0:
228,240,156525,6,0,P|272:248|320:232,1,85,0|2,2:0|2:0,2:0:0:0:
360,88,156882,1,2,3:2:0:0:
268,164,157060,1,2,2:0:0:0:
396,236,157239,2,0,P|405:192|416:150,1,85,10|0,2:0|2:0,2:0:0:0:
272,76,157596,1,2,3:2:0:0:
396,8,157775,1,2,2:0:0:0:
312,236,157953,5,2,2:0:0:0:
312,236,158489,5,2,2:0:0:0:
312,236,159025,5,2,2:0:0:0:
256,192,159114,12,2,161168,2:0:0:0:
