osu file format v14

[General]
AudioFilename: audio.mp3
AudioLeadIn: 0
PreviewTime: -1
Countdown: 0
SampleSet: Soft
StackLeniency: 0
Mode: 0
LetterboxInBreaks: 0
WidescreenStoryboard: 0

[Editor]
Bookmarks: 1121,12549,23978,35406,46835,58263,69692,81120,92549,103978,115406,125406,126835,138263,149692,158263,158799,159335
DistanceSpacing: 0.5
BeatDivisor: 4
GridSize: 16
TimelineZoom: 2.799999

[Metadata]
Title:Marble Soda
TitleUnicode:Marble Soda
Artist:Shawn Wasabi
ArtistUnicode:Shawn Wasabi
Creator:WillCookie
Version:marble soda
Source:
Tags:
BeatmapID:2055107
BeatmapSetID:981944

[Difficulty]
HPDrainRate:7
CircleSize:4
OverallDifficulty:9
ApproachRate:9.6
SliderMultiplier:3
SliderTickRate:1

[Events]
//Background and Video events
//Break Periods
2,69892,74897
//Storyboard Layer 0 (Background)
//Storyboard Layer 1 (Fail)
//Storyboard Layer 2 (Pass)
//Storyboard Layer 3 (Foreground)
//Storyboard Sound Samples

[TimingPoints]
1121,357.142857142857,4,2,0,100,1,0
35406,-66.6666666666667,4,2,0,100,0,0
80763,-125,4,2,0,100,0,0
81120,-66.6666666666667,4,2,0,100,0,0
103978,714.285714285714,4,2,0,100,1,0
103978,-200,4,2,0,100,0,0
115406,357.142857142857,4,2,0,100,1,0
115406,-133.333333333333,4,2,0,100,0,0
125406,-100,4,2,0,100,0,0
126834,-50,4,2,0,100,0,1
149692,-100,4,2,0,100,0,0

[HitObjects]
38,273,1121,6,0,P|96:216|192:190,1,150
309,263,1478,2,0,P|385:232|435:164,1,150
288,93,1835,6,0,L|322:84,1,18.75
210,88,2013,1,0,0:0:0:0:
368,150,2192,1,0,0:0:0:0:
111,293,2370,5,0,0:0:0:0:
111,293,2549,1,0,0:0:0:0:
111,293,2728,1,0,0:0:0:0:
408,320,2906,5,0,0:0:0:0:
408,320,3085,1,0,0:0:0:0:
260,89,3263,6,0,L|255:57,1,18.75
337,223,3442,1,0,0:0:0:0:
169,150,3620,1,0,0:0:0:0:
343,349,3799,1,0,0:0:0:0:
94,262,3978,5,0,0:0:0:0:
112,324,4156,1,0,0:0:0:0:
387,32,4335,5,0,0:0:0:0:
369,94,4513,1,0,0:0:0:0:
294,311,4692,6,0,L|321:304,1,18.75
294,311,4870,1,0,0:0:0:0:
133,211,5049,5,0,0:0:0:0:
394,167,5228,5,0,0:0:0:0:
172,53,5406,6,0,L|184:130,1,75
266,166,5585,1,0,0:0:0:0:
293,251,5674,1,0,0:0:0:0:
374,298,5763,1,0,0:0:0:0:
458,157,5942,6,0,L|552:144,1,75
472,228,6120,6,0,L|499:231,1,18.75
294,133,6299,1,0,0:0:0:0:
403,95,6478,5,0,0:0:0:0:
386,184,6567,1,0,0:0:0:0:
302,223,6656,1,0,0:0:0:0:
285,312,6745,1,0,0:0:0:0:
201,351,6835,6,0,L|177:242,1,75
367,349,7013,1,0,0:0:0:0:
184,277,7192,6,0,L|205:171,1,75
367,349,7370,1,0,0:0:0:0:
110,55,7549,6,0,L|86:35,1,18.75
226,135,7728,1,0,0:0:0:0:
90,158,7906,5,0,0:0:0:0:
461,189,8085,1,0,0:0:0:0:
318,104,8263,6,0,L|494:60,1,150
30,291,8620,6,0,L|208:271,1,150
90,357,8978,6,0,L|113:359,1,18.75
270,328,9156,1,0,0:0:0:0:
23,219,9335,1,0,0:0:0:0:
423,45,9513,6,0,L|494:74,1,75
492,73,9692,5,0,0:0:0:0:
392,274,9870,5,0,0:0:0:0:
137,41,10049,5,0,0:0:0:0:
279,357,10228,5,0,0:0:0:0:
428,36,10406,5,0,0:0:0:0:
107,202,10585,5,0,0:0:0:0:
450,342,10763,5,0,0:0:0:0:
452,142,10942,1,0,0:0:0:0:
375,211,11120,2,0,L|336:125,1,75
344,142,11299,2,0,L|254:197,1,75
280,181,11478,2,0,L|241:95,1,75
249,112,11657,2,0,L|159:167,1,75
179,73,11835,5,0,0:0:0:0:
138,135,11924,1,0,0:0:0:0:
126,208,12013,1,0,0:0:0:0:
145,280,12102,1,0,0:0:0:0:
192,338,12192,5,0,0:0:0:0:
188,263,12281,1,0,0:0:0:0:
214,194,12370,1,0,0:0:0:0:
267,141,12459,1,0,0:0:0:0:
336,114,12549,6,0,L|356:225,1,75
228,10,12728,2,0,L|204:113,1,75
44,198,12906,5,0,0:0:0:0:
118,177,12995,1,0,0:0:0:0:
199,257,13085,6,0,L|261:262,3,37.5
270,282,13263,5,0,0:0:0:0:
252,46,13442,1,0,0:0:0:0:
403,300,13620,5,0,0:0:0:0:
385,23,13799,1,0,0:0:0:0:
270,282,13978,5,0,0:0:0:0:
252,46,14157,1,0,0:0:0:0:
148,312,14335,6,0,L|152:353,2,37.5
119,26,14513,2,0,L|116:-11,2,37.5
66,264,14692,6,0,L|37:284,1,18.75
335,320,14870,2,0,L|306:340,1,18.75
246,84,15049,5,0,0:0:0:0:
468,359,15228,1,0,0:0:0:0:
449,248,15317,1,0,0:0:0:0:
431,137,15406,2,0,L|226:168,1,150
143,28,15763,5,0,0:0:0:0:
193,52,15853,1,0,0:0:0:0:
139,62,15942,1,0,0:0:0:0:
189,86,16032,1,0,0:0:0:0:
135,96,16120,5,0,0:0:0:0:
122,151,16210,1,0,0:0:0:0:
153,198,16299,5,0,0:0:0:0:
166,253,16389,1,0,0:0:0:0:
141,303,16478,6,0,L|233:313,1,75
143,28,16656,2,0,L|235:38,1,75
285,379,16835,6,0,L|378:368,3,75
410,43,17192,6,0,L|366:156,1,75
358,175,17370,1,0,0:0:0:0:
334,239,17460,1,0,0:0:0:0:
313,302,17549,2,0,L|190:289,1,75
383,277,17728,2,0,L|301:305,1,75
177,245,17906,6,0,L|181:206,2,37.5
454,175,18085,2,0,L|458:136,2,37.5
251,84,18263,6,0,P|166:47|69:66,1,150
286,191,18620,6,0,L|183:146,1,75
366,349,18799,2,0,L|342:262,1,75
227,359,18978,6,0,L|235:328,1,18.75
288,20,19156,1,0,0:0:0:0:
64,256,19335,5,0,0:0:0:0:
160,208,19424,1,0,0:0:0:0:
256,256,19513,1,0,0:0:0:0:
352,208,19602,1,0,0:0:0:0:
256,160,19692,6,0,P|245:88|325:77,1,150
132,115,20049,6,0,L|80:36,2,75
386,177,20406,6,0,L|380:207,1,18.75
159,238,20585,2,0,P|182:320|194:336,1,75
262,240,20763,5,0,0:0:0:0:
277,143,20853,1,0,0:0:0:0:
363,188,20942,1,0,0:0:0:0:
378,91,21032,1,0,0:0:0:0:
277,143,21120,6,0,L|155:104,1,75
333,262,21299,2,0,L|211:223,1,75
136,240,21478,6,0,L|97:361,1,75
445,10,21657,2,0,L|405:132,1,75
384,352,21835,6,0,L|368:336,1,18.75
384,352,22013,6,0,L|320:288,1,75
189,342,22192,5,0,0:0:0:0:
385,169,22370,5,0,0:0:0:0:
96,32,22549,6,0,L|187:32,1,75
48,224,22728,6,0,L|139:224,1,75
256,32,22906,6,0,L|347:32,1,75
146,313,23085,6,0,L|237:313,1,75
494,11,23263,5,0,0:0:0:0:
420,78,23352,1,0,0:0:0:0:
346,146,23441,1,0,0:0:0:0:
272,213,23530,1,0,0:0:0:0:
203,143,23620,5,0,0:0:0:0:
186,216,23709,1,0,0:0:0:0:
169,289,23798,1,0,0:0:0:0:
152,362,23887,1,0,0:0:0:0:
78,318,23978,5,0,0:0:0:0:
326,97,26120,5,0,0:0:0:0:
79,212,26835,6,0,L|104:215,1,18.75
194,139,27192,5,0,0:0:0:0:
474,146,27370,1,0,0:0:0:0:
237,326,28799,5,0,0:0:0:0:
287,268,28888,1,0,0:0:0:0:
270,172,28978,2,0,L|305:177,1,18.75
119,32,29335,6,0,L|389:53,1,225
397,104,29692,6,0,L|401:135,1,18.75
82,221,30228,6,0,L|86:252,1,18.75
247,164,30406,6,0,L|251:195,1,18.75
411,271,30585,6,0,L|417:318,4,37.5
82,221,31299,6,0,L|86:252,1,18.75
247,164,31477,6,0,L|251:195,1,18.75
411,271,31656,6,0,L|417:318,4,37.5
230,351,32013,5,0,0:0:0:0:
401,104,32192,1,0,0:0:0:0:
82,221,32370,6,0,L|113:217,1,18.75
99,147,32460,2,0,L|130:143,1,18.75
116,73,32549,2,0,L|147:69,1,18.75
82,221,32728,6,0,L|113:217,1,18.75
82,221,33085,6,0,L|113:217,1,18.75
397,178,33263,6,0,L|428:174,1,18.75
233,308,33620,6,0,L|264:304,1,18.75
251,222,33710,2,0,L|282:218,1,18.75
269,136,33799,2,0,L|300:132,1,18.75
287,50,33888,2,0,L|318:46,1,18.75
97,335,34335,6,0,L|360:317,1,225
252,229,34692,5,0,0:0:0:0:
455,216,34811,5,0,0:0:0:0:
342,46,34930,5,0,0:0:0:0:
32,64,35049,6,0,L|32:16,1,37.5
480,128,35228,6,0,L|480:80,1,37.5
48,192,35406,6,0,L|96:144,1,56.2500021457673
144,96,35942,6,0,L|192:48,1,56.2500021457673
296,349,36120,1,0,0:0:0:0:
240,0,36478,6,0,L|288:-48,1,56.2500021457673
210,257,36656,1,0,0:0:0:0:
314,215,36745,1,0,0:0:0:0:
419,174,36834,1,0,0:0:0:0:
210,257,37013,2,0,L|417:346,1,225.000008583069
46,109,37370,6,0,L|166:53,1,112.500004291535
215,132,37549,6,0,L|202:182,1,28.1250010728836
391,146,37728,6,0,P|396:98|365:31,1,112.500004291535
215,132,37906,6,0,L|202:182,1,28.1250010728836
399,292,38085,6,0,L|386:342,1,28.1250010728836
48,192,38263,6,0,L|112:192,1,56.2500021457673
192,192,38799,6,0,L|256:192,1,56.2500021457673
94,28,38978,2,0,L|121:8,1,28.1250010728836
336,192,39335,6,0,L|400:192,1,56.2500021457673
188,322,39513,2,0,L|252:322,1,56.2500021457673
480,192,39870,6,0,L|544:192,1,56.2500021457673
432,304,40049,5,0,0:0:0:0:
320,240,40168,5,0,0:0:0:0:
208,304,40287,5,0,0:0:0:0:
96,240,40406,6,0,P|154:158|197:18,1,225.000008583069
339,131,40763,6,0,L|403:137,7,56.2500021457673
448,192,41120,6,0,L|400:240,1,56.2500021457673
172,228,41299,1,0,0:0:0:0:
374,48,41478,1,0,0:0:0:0:
352,288,41656,6,0,L|304:336,1,56.2500021457673
206,43,41835,2,0,L|201:73,1,28.1250010728836
256,384,42192,6,0,L|208:432,1,56.2500021457673
96,32,42370,1,0,0:0:0:0:
128,128,42460,1,0,0:0:0:0:
160,224,42549,1,0,0:0:0:0:
352,288,42728,6,0,L|304:336,1,56.2500021457673
373,82,42906,1,0,0:0:0:0:
373,82,43085,1,0,0:0:0:0:
162,126,43263,6,0,L|154:95,1,28.1250010728836
302,173,43442,2,0,P|262:214|190:232,1,112.500004291535
162,126,43620,6,0,L|154:95,1,28.1250010728836
291,317,43799,1,0,0:0:0:0:
0,384,43978,6,0,L|64:384,1,56.2500021457673
512,384,44513,6,0,L|448:384,1,56.2500021457673
256,192,44692,2,0,L|288:192,1,28.1250010728836
86,157,45049,6,0,B|105:190|105:190|132:-12,1,225.000008583069
210,242,45406,1,0,0:0:0:0:
152,381,45585,1,0,0:0:0:0:
370,188,45763,6,0,B|353:158|353:158|312:371,1,225.000008583069
128,235,46120,5,0,0:0:0:0:
429,103,46299,1,0,0:0:0:0:
128,235,46478,6,0,L|223:194,1,56.2500021457673
96,32,46835,6,0,L|144:80,1,56.2500021457673
103,193,47013,5,0,0:0:0:0:
166,209,47103,1,0,0:0:0:0:
194,289,47192,1,0,0:0:0:0:
208,32,47370,6,0,L|256:80,1,56.2500021457673
316,308,47549,6,0,L|301:262,1,28.1250010728836
386,228,47728,2,0,L|405:90,1,112.500004291535
320,32,47906,6,0,L|368:80,1,56.2500021457673
155,158,48085,6,0,L|163:189,1,28.1250010728836
197,206,48174,2,0,L|205:237,1,28.1250010728836
239,254,48263,2,0,L|247:285,1,28.1250010728836
432,32,48442,6,0,L|480:80,1,56.2500021457673
393,261,48620,6,0,P|446:183|455:123,1,112.500004291535
279,287,48799,1,0,0:0:0:0:
294,105,48978,5,0,0:0:0:0:
316,355,49156,5,0,0:0:0:0:
202,183,49335,5,0,0:0:0:0:
40,242,49513,5,0,0:0:0:0:
96,352,49692,6,0,L|144:304,1,56.2500021457673
43,142,49870,1,0,0:0:0:0:
357,53,50049,5,0,0:0:0:0:
208,352,50227,6,0,L|256:304,1,56.2500021457673
211,109,50406,2,0,L|246:94,1,28.1250010728836
320,352,50763,6,0,L|368:304,1,56.2500021457673
321,111,50942,1,0,0:0:0:0:
488,79,51120,1,0,0:0:0:0:
432,352,51299,6,0,L|480:304,1,56.2500021457673
327,28,51478,6,0,P|295:77|237:111,3,112.500004291535
179,137,51835,6,0,L|183:181,1,28.1250010728836
374,198,52013,2,0,L|378:242,1,28.1250010728836
132,60,52192,6,0,L|64:100,7,56.2500021457673
48,144,52549,6,0,L|112:160,1,56.2500021457673
186,353,52906,5,0,0:0:0:0:
176,176,53085,6,0,L|240:160,1,56.2500021457673
223,44,53263,6,0,L|237:95,1,28.1250010728836
289,321,53442,1,0,0:0:0:0:
304,144,53620,6,0,L|368:160,1,56.2500021457673
410,379,53799,6,0,L|377:367,1,28.1250010728836
397,305,53888,2,0,L|361:305,1,28.1250010728836
360,239,53978,2,0,L|327:251,1,28.1250010728836
432,176,54156,6,0,L|496:160,1,56.2500021457673
326,23,54335,6,0,P|400:40|477:28,1,112.500004291535
214,56,54513,1,0,0:0:0:0:
99,209,54692,6,0,L|106:172,1,28.1250010728836
239,249,54870,2,0,P|188:322|150:343,1,112.500004291535
99,209,55049,6,0,L|135:151,7,56.2500021457673
117,106,55406,5,0,0:0:0:0:
214,309,55763,5,0,0:0:0:0:
228,209,55942,1,0,0:0:0:0:
350,329,56120,6,0,L|383:324,1,28.1250010728836
316,37,56299,5,0,0:0:0:0:
155,189,56478,6,0,L|302:209,1,112.500004291535
239,109,56656,2,0,B|536:150|536:150|336:253,1,450.000017166138
225,282,57192,6,0,P|243:357|291:272,1,225.000008583069
129,95,57549,6,0,L|176:84,1,28.1250010728836
129,95,57906,6,0,L|176:84,1,28.1250010728836
21,293,58263,6,0,L|174:248,1,112.500004291535
262,292,58442,2,0,L|415:247,1,112.500004291535
103,115,58799,5,0,0:0:0:0:
150,67,58888,1,0,0:0:0:0:
219,102,58978,6,0,P|301:111|347:83,1,112.500004291535
407,202,59156,2,0,P|454:252|470:321,1,112.500004291535
388,356,59335,5,0,0:0:0:0:
459,97,59513,1,0,0:0:0:0:
256,319,59692,6,0,P|231:242|283:97,1,225.000008583069
88,197,60049,6,0,L|235:9,1,225.000008583069
308,268,60406,1,0,0:0:0:0:
345,17,60585,2,0,P|387:164|452:242,1,225.000008583069
345,17,60942,6,0,P|309:89|303:156,1,112.500004291535
410,117,61120,5,0,0:0:0:0:
272,262,61299,1,0,0:0:0:0:
60,240,61478,2,0,B|179:364|179:364|178:308,1,225.000008583069
101,128,61835,6,0,L|106:97,1,28.1250010728836
425,160,62013,1,0,0:0:0:0:
210,249,62192,5,0,0:0:0:0:
293,12,62370,2,0,L|304:50,1,28.1250010728836
363,347,62728,5,0,0:0:0:0:
141,75,62906,5,0,0:0:0:0:
352,143,63085,2,0,L|325:135,1,28.1250010728836
95,239,63263,6,0,P|106:306|144:370,1,112.500004291535
261,161,63442,2,0,P|257:233|238:297,1,112.500004291535
307,132,63620,6,0,P|303:204|284:268,1,112.500004291535
64,194,63799,2,0,P|75:261|113:325,1,112.500004291535
339,339,63978,5,0,0:0:0:0:
206,191,64156,5,0,0:0:0:0:
279,2,64335,6,0,B|303:93|303:93|330:-41,1,225.000008583069
405,135,64692,6,0,L|419:104,1,28.1250010728836
115,160,64870,1,0,0:0:0:0:
339,238,65049,1,0,0:0:0:0:
234,112,65228,1,0,0:0:0:0:
234,237,65406,5,0,0:0:0:0:
316,27,65585,1,0,0:0:0:0:
369,324,65763,6,0,P|297:335|135:291,1,225.000008583069
377,96,66120,1,0,0:0:0:0:
369,324,66299,6,0,P|297:335|135:291,1,225.000008583069
369,324,66656,6,0,P|293:308|249:274,1,112.500004291535
377,232,66835,6,0,P|339:109|254:46,2,225.000008583069
454,45,67370,1,0,0:0:0:0:
261,169,67549,2,0,P|125:139|39:49,1,225.000008583069
305,91,67906,5,0,0:0:0:0:
256,192,67995,12,0,69692,0:0:0:0:
123,42,75406,6,0,L|106:75,1,28.1250010728836
450,72,75942,6,0,L|466:95,1,28.1250010728836
411,151,76120,2,0,L|427:174,1,28.1250010728836
311,122,76299,6,0,L|275:71,3,56.2500021457673
255,126,76478,1,0,0:0:0:0:
206,333,77013,6,0,L|185:306,1,28.1250010728836
298,341,77191,2,0,L|277:314,1,28.1250010728836
208,115,77370,6,0,L|189:180,3,56.2500021457673
248,154,77549,1,0,0:0:0:0:
153,293,77728,1,0,0:0:0:0:
359,109,77906,1,0,0:0:0:0:
73,201,78085,6,0,L|80:237,1,28.1250010728836
117,142,78174,2,0,L|113:171,1,28.1250010728836
176,98,78263,2,0,L|160:132,1,28.1250010728836
221,357,78799,6,0,L|234:328,1,28.1250010728836
387,8,78978,2,0,L|381:38,1,28.1250010728836
372,138,79156,1,0,0:0:0:0:
108,174,79335,6,0,P|99:120|139:54,1,112.500004291535
203,118,79513,6,0,P|220:250|163:353,2,225.000008583069
341,230,80049,2,0,P|321:102|261:2,1,225.000008583069
477,217,80406,6,0,L|453:199,1,28.1250010728836
132,227,80763,6,0,B|155:132|155:132|172:162,1,120
303,324,81120,6,0,L|330:264,1,56.2500021457673
214,201,81299,1,0,0:0:0:0:
414,80,81478,1,0,0:0:0:0:
303,324,81656,6,0,L|330:264,1,56.2500021457673
285,102,81835,2,0,L|281:67,1,28.1250010728836
303,324,82192,6,0,L|330:264,1,56.2500021457673
190,236,82370,2,0,L|185:206,1,28.1250010728836
190,236,82460,2,0,L|185:206,1,28.1250010728836
190,236,82549,2,0,L|185:206,1,28.1250010728836
262,49,82728,2,0,P|367:108|427:248,1,225.000008583069
210,115,83085,6,0,L|124:189,1,112.500004291535
312,177,83263,1,0,0:0:0:0:
210,115,83442,6,0,L|124:189,1,112.500004291535
240,235,83620,2,0,P|245:321|374:374,1,225.000008583069
287,55,83978,6,0,L|322:104,1,56.2500021457673
175,177,84335,2,0,L|171:103,1,56.2500021457673
287,55,84513,6,0,L|322:104,1,56.2500021457673
266,228,84692,2,0,L|392:238,1,112.500004291535
263,317,84870,1,0,0:0:0:0:
84,224,85049,5,0,0:0:0:0:
118,153,85228,5,0,0:0:0:0:
270,134,85406,6,0,L|260:70,1,56.2500021457673
371,242,85585,1,0,0:0:0:0:
134,5,85763,1,0,0:0:0:0:
149,12,85853,1,0,0:0:0:0:
190,309,86120,5,0,0:0:0:0:
464,62,86478,5,0,0:0:0:0:
84,240,86835,6,0,L|69:178,1,56.2500021457673
171,330,87192,6,0,P|190:273|178:206,1,112.500004291535
84,240,87370,6,0,L|69:178,1,56.2500021457673
305,153,87549,2,0,L|276:144,1,28.1250010728836
84,240,87906,6,0,L|69:178,1,56.2500021457673
217,52,88085,2,0,L|268:65,1,28.1250010728836
326,75,88174,2,0,L|377:88,1,28.1250010728836
436,99,88263,2,0,L|487:112,1,28.1250010728836
298,166,88442,2,0,L|427:368,1,225.000008583069
97,263,88799,6,0,L|223:287,1,112.500004291535
131,164,88978,6,0,P|365:126|432:55,1,337.500012874604
501,21,89335,2,0,P|499:282|443:357,1,337.500012874604
355,314,89692,6,0,L|332:231,1,56.2500021457673
167,177,89870,1,0,0:0:0:0:
144,256,90049,1,0,0:0:0:0:
355,314,90228,6,0,L|332:231,1,56.2500021457673
87,190,90406,2,0,L|65:215,1,28.1250010728836
228,92,90763,6,0,L|330:31,1,112.500004291535
325,134,90942,2,0,B|163:202|190:366|190:366|227:291|302:254,1,450.000017166138
135,188,91478,6,0,P|191:73|290:6,1,225.000008583069
417,208,91835,6,0,L|408:162,1,28.1250010728836
411,180,92192,6,0,L|420:226,1,28.1250010728836
69,321,92549,6,0,L|35:162,1,112.500004291535
145,109,92728,2,0,L|299:159,1,112.500004291535
290,281,92906,2,0,L|169:389,1,112.500004291535
142,220,93085,5,0,0:0:0:0:
441,21,93263,2,0,L|455:49,1,28.1250010728836
363,326,93620,5,0,0:0:0:0:
281,77,93799,2,0,L|274:106,1,28.1250010728836
345,126,93888,2,0,L|357:168,1,28.1250010728836
296,195,93978,2,0,L|289:238,1,28.1250010728836
469,213,94156,6,0,P|461:124|432:69,1,112.500004291535
390,26,94335,6,0,L|336:57,1,56.2500021457673
408,309,94513,1,0,0:0:0:0:
130,84,94692,5,0,0:0:0:0:
278,225,94870,5,0,0:0:0:0:
47,5,95049,5,0,0:0:0:0:
374,310,95228,5,0,0:0:0:0:
65,237,95406,6,0,L|92:173,1,56.2500021457673
255,91,95585,1,0,0:0:0:0:
274,133,95674,1,0,0:0:0:0:
350,147,95763,5,0,0:0:0:0:
265,335,95942,6,0,L|246:266,1,56.2500021457673
410,218,96120,2,0,L|421:188,1,28.1250010728836
342,319,96299,5,0,0:0:0:0:
326,21,96478,1,0,0:0:0:0:
155,207,96656,6,0,L|101:232,1,37.5000014305115
239,51,96835,1,0,0:0:0:0:
155,207,97013,6,0,L|101:232,1,37.5000014305115
241,122,97192,1,0,0:0:0:0:
245,177,97281,1,0,0:0:0:0:
298,191,97370,1,0,0:0:0:0:
311,249,97460,1,0,0:0:0:0:
372,269,97549,6,0,L|375:217,1,28.1250010728836
190,331,97728,6,0,L|161:306,1,28.1250010728836
419,127,97906,6,0,L|341:72,7,56.2500021457673
325,73,98263,6,0,L|312:150,1,56.2500021457673
123,206,98442,1,0,0:0:0:0:
354,279,98620,1,0,0:0:0:0:
96,29,98799,6,0,L|108:90,1,56.2500021457673
379,193,98978,2,0,L|369:159,1,28.1250010728836
241,337,99335,6,0,L|226:272,1,56.2500021457673
332,88,99513,1,0,0:0:0:0:
310,136,99603,1,0,0:0:0:0:
260,60,99692,1,0,0:0:0:0:
446,120,99870,6,0,P|386:244|385:356,1,225.000008583069
265,137,100228,1,0,0:0:0:0:
72,308,100406,6,0,L|50:344,1,28.1250010728836
225,28,100585,1,0,0:0:0:0:
385,257,100763,2,0,L|410:159,7,56.2500021457673
389,159,101120,5,0,0:0:0:0:
170,362,101299,5,0,0:0:0:0:
119,103,101478,5,0,0:0:0:0:
225,257,101656,5,0,0:0:0:0:
247,143,101835,6,0,L|257:182,1,28.1250010728836
309,375,102013,1,0,0:0:0:0:
363,24,102192,6,0,L|348:137,1,112.500004291535
154,138,102370,2,0,P|263:264|406:306,2,225.000008583069
382,214,102906,5,0,0:0:0:0:
96,291,103085,1,0,0:0:0:0:
470,59,103263,6,0,L|461:96,1,28.1250010728836
73,355,103620,6,0,L|64:392,1,28.1250010728836
14,132,103978,6,0,B|163:75|244:198|244:198|325:321|475:264,1,525
31,338,106835,6,0,P|130:308|150:249,1,150
483,116,107906,6,0,B|432:118|390:89|390:89|355:96|355:96|313:67|263:69,1,225
382,341,109692,6,0,B|235:80|235:80|135:133|16:121,1,525
416,17,112549,6,0,P|403:93|438:180,1,150
98,335,113620,6,0,L|266:140,1,225
126,113,115406,5,0,0:0:0:0:
354,251,115763,5,0,0:0:0:0:
62,186,116120,5,0,0:0:0:0:
428,207,116478,5,0,0:0:0:0:
124,253,116835,5,0,0:0:0:0:
399,137,117192,5,0,0:0:0:0:
189,338,117549,5,0,0:0:0:0:
205,38,117906,5,0,0:0:0:0:
367,57,118085,1,0,0:0:0:0:
88,123,118263,5,0,0:0:0:0:
429,157,118442,1,0,0:0:0:0:
298,197,118620,1,0,0:0:0:0:
298,197,118799,1,0,0:0:0:0:
460,268,118978,5,0,0:0:0:0:
108,244,119156,1,0,0:0:0:0:
273,315,119335,5,0,0:0:0:0:
273,315,119513,1,0,0:0:0:0:
189,253,119692,5,0,0:0:0:0:
322,72,119870,1,0,0:0:0:0:
331,266,120049,5,0,0:0:0:0:
489,49,120228,1,0,0:0:0:0:
147,61,120406,6,0,L|224:169,2,112.500004291535
354,310,121120,6,0,L|376:306,1,14.0625005364418
354,310,121656,6,0,L|376:306,1,14.0625005364418
375,101,121834,2,0,L|397:97,1,14.0625005364418
271,256,122013,6,0,L|303:249,4,28.1250010728836
127,331,122728,6,0,L|149:327,1,14.0625005364418
157,57,122906,2,0,L|179:53,1,14.0625005364418
217,223,123085,6,0,L|250:217,4,28.1250010728836
208,91,123799,6,0,L|228:88,1,14.0625005364418
288,121,123889,2,0,L|268:124,1,14.0625005364418
208,91,123978,2,0,L|228:88,1,14.0625005364418
288,121,124513,6,0,L|268:124,1,14.0625005364418
200,288,124692,2,0,L|180:291,1,14.0625005364418
402,71,125049,6,0,L|382:74,1,14.0625005364418
272,356,125228,2,0,L|252:359,1,14.0625005364418
256,192,125406,5,0,0:0:0:0:
256,192,125763,5,0,0:0:0:0:
256,192,126120,5,0,0:0:0:0:
63,291,126478,6,0,L|50:242,1,37.5
127,228,126567,2,0,L|122:177,1,37.5
200,177,126656,2,0,L|204:126,1,37.5
280,139,126745,2,0,L|293:90,1,37.5
365,115,126834,6,0,L|392:228,7,75
344,229,127191,5,0,0:0:0:0:
243,360,127370,1,0,0:0:0:0:
212,81,127548,2,0,P|118:133|29:327,1,300
359,66,127906,5,0,0:0:0:0:
390,337,128084,1,0,0:0:0:0:
110,76,128263,5,0,0:0:0:0:
268,177,128441,1,0,0:0:0:0:
457,16,128620,5,0,0:0:0:0:
405,308,128798,1,0,0:0:0:0:
121,285,128977,6,0,L|150:190,3,75
223,227,129156,2,0,L|200:120,3,75
297,172,129334,2,0,L|323:55,3,75
401,110,129513,2,0,L|381:14,3,75
479,81,129691,5,0,0:0:0:0:
473,130,129780,1,0,0:0:0:0:
452,175,129869,1,0,0:0:0:0:
419,212,129958,1,0,0:0:0:0:
348,208,130048,5,0,0:0:0:0:
318,247,130137,1,0,0:0:0:0:
277,276,130226,1,0,0:0:0:0:
230,292,130315,1,0,0:0:0:0:
159,271,130406,6,0,L|123:98,1,150
267,193,130584,2,0,L|308:8,1,150
229,173,130763,6,0,L|265:14,1,150
421,243,130941,2,0,L|382:74,1,150
290,316,131120,5,0,0:0:0:0:
388,17,131298,1,0,0:0:0:0:
126,361,131477,5,0,0:0:0:0:
437,127,131656,1,0,0:0:0:0:
203,304,131834,6,0,L|177:166,5,100
184,205,132191,2,0,L|249:53,5,100
223,113,132548,6,0,P|343:217|512:229,1,300
338,80,132906,2,0,P|490:68|601:-39,1,300
363,296,133263,6,0,L|354:357,1,37.5
217,311,133441,1,0,0:0:0:0:
504,271,133620,1,0,0:0:0:0:
139,66,133798,6,0,L|137:111,1,37.5
340,114,133977,5,0,0:0:0:0:
288,273,134156,1,0,0:0:0:0:
219,12,134334,1,0,0:0:0:0:
126,324,134513,5,0,0:0:0:0:
361,8,134691,1,0,0:0:0:0:
432,328,134870,6,0,L|282:260,1,150
133,73,135048,2,0,L|125:33,1,37.5
390,203,135227,2,0,L|382:163,1,37.5
137,298,135406,6,0,L|128:213,7,75
166,186,135763,5,0,0:0:0:0:
410,340,135941,5,0,0:0:0:0:
328,11,136120,6,0,L|328:48,1,37.5
244,357,136298,5,0,0:0:0:0:
431,42,136477,5,0,0:0:0:0:
481,375,136656,6,0,L|481:338,1,37.5
207,13,136834,5,0,0:0:0:0:
123,338,137013,6,0,L|123:301,1,37.5
328,14,137191,5,0,0:0:0:0:
307,371,137370,1,0,0:0:0:0:
228,95,137548,6,0,L|129:109,3,75
203,176,137727,2,0,L|290:186,3,75
224,253,137906,6,0,L|129:268,7,75
205,329,138263,5,0,0:0:0:0:
379,9,138441,2,0,L|44:93,1,300
488,332,138798,1,0,0:0:0:0:
480,47,138977,5,0,0:0:0:0:
461,108,139066,1,0,0:0:0:0:
428,163,139155,1,0,0:0:0:0:
383,208,139244,1,0,0:0:0:0:
328,241,139334,1,0,0:0:0:0:
266,258,139423,1,0,0:0:0:0:
202,260,139512,1,0,0:0:0:0:
139,246,139601,1,0,0:0:0:0:
168,194,139691,6,0,B|183:133|183:133|229:394,1,300
346,17,140048,5,0,0:0:0:0:
297,261,140227,1,0,0:0:0:0:
229,82,140406,6,0,L|267:91,1,37.5
443,122,140584,1,0,0:0:0:0:
35,166,140763,2,0,L|45:208,1,37.5
401,20,140941,2,0,L|394:64,1,37.5
187,330,141120,6,0,L|170:200,5,100
232,244,141477,1,0,0:0:0:0:
375,369,141656,1,0,0:0:0:0:
365,84,141834,5,0,0:0:0:0:
290,331,142013,1,0,0:0:0:0:
194,31,142191,6,0,L|213:144,23,75
287,82,143263,6,0,L|266:203,15,75
349,190,143977,6,0,L|365:323,11,100
411,316,144691,6,0,L|454:326,1,37.5
208,272,144870,1,0,0:0:0:0:
509,223,145048,1,0,0:0:0:0:
56,134,145227,2,0,L|44:189,1,37.5
339,19,145584,6,0,L|363:106,1,75
158,213,146120,6,0,P|195:287|185:185,1,300
265,6,146477,2,0,P|361:193|316:308,1,300
46,324,146834,6,0,L|19:245,47,75
63,209,148977,6,0,L|75:150,1,37.5
491,348,149156,1,0,0:0:0:0:
63,209,149334,6,0,L|75:150,1,37.5
480,24,149691,5,0,0:0:0:0:
355,260,149870,5,0,0:0:0:0:
43,349,150048,5,0,0:0:0:0:
161,80,150227,6,0,L|215:88,4,37.5
102,204,150584,5,0,0:0:0:0:
299,90,150763,1,0,0:0:0:0:
253,325,150941,6,0,L|409:348,1,150
318,178,151298,1,0,0:0:0:0:
456,123,151477,6,0,L|449:155,2,18.75
206,209,151656,2,0,L|213:237,2,18.75
293,24,151834,6,0,L|321:46,1,18.75
220,113,152013,5,0,0:0:0:0:
445,53,152191,5,0,0:0:0:0:
71,21,152370,5,0,0:0:0:0:
366,2,152548,5,0,0:0:0:0:
355,43,152726,1,0,0:0:0:0:
372,101,152905,5,0,0:0:0:0:
361,142,153083,1,0,0:0:0:0:
309,184,153262,5,0,0:0:0:0:
298,225,153440,1,0,0:0:0:0:
287,267,153619,1,0,0:0:0:0:
277,308,153797,1,0,0:0:0:0:
161,51,153977,5,0,0:0:0:0:
152,125,154155,1,0,0:0:0:0:
143,199,154334,1,0,0:0:0:0:
134,274,154512,1,0,0:0:0:0:
402,233,154691,5,0,0:0:0:0:
412,312,154870,1,0,0:0:0:0:
247,215,155048,5,0,0:0:0:0:
266,120,155227,1,0,0:0:0:0:
143,335,155406,6,0,L|78:270,1,75
369,49,155941,6,0,L|434:114,1,75
143,335,156477,6,0,L|78:270,1,75
230,208,157013,5,0,0:0:0:0:
296,119,157191,5,0,0:0:0:0:
346,184,157370,1,0,0:0:0:0:
267,127,157548,1,0,0:0:0:0:
294,240,157906,5,0,0:0:0:0:
267,127,158084,1,0,0:0:0:0:
165,291,158263,5,0,0:0:0:0:
448,184,158798,5,0,0:0:0:0:
85,37,159334,5,0,0:0:0:0:
