osu file format v14

[General]
AudioFilename: audio.mp3
AudioLeadIn: 0
PreviewTime: -1
Countdown: 0
SampleSet: Soft
StackLeniency: 0
Mode: 0
LetterboxInBreaks: 0
WidescreenStoryboard: 1

[Editor]
Bookmarks: 1121,12549,23978,35406,46835,58263,69692,81120,92549,103978,115406,125406,126835,138263,149692,158263,158799,159335
DistanceSpacing: 0.5
BeatDivisor: 4
GridSize: 16
TimelineZoom: 2.799999

[Metadata]
Title:Marble Soda
TitleUnicode:Marble Soda
Artist:Shawn Wasabi
ArtistUnicode:Shawn Wasabi
Creator:WillCookie
Version:kiai only
Source:
Tags:
BeatmapID:2056091
BeatmapSetID:981944

[Difficulty]
HPDrainRate:7
CircleSize:4
OverallDifficulty:9
ApproachRate:9.6
SliderMultiplier:3
SliderTickRate:1

[Events]
//Background and Video events
//Break Periods
//Storyboard Layer 0 (Background)
//Storyboard Layer 1 (Fail)
//Storyboard Layer 2 (Pass)
//Storyboard Layer 3 (Foreground)
//Storyboard Sound Samples

[TimingPoints]
1121,357.142857142857,4,2,0,100,1,0
35406,-66.6666666666667,4,2,0,100,0,0
115406,-133.333333333333,4,2,0,100,0,0
125406,-100,4,2,0,100,0,0
126835,-40,4,2,0,100,0,1
149692,-100,4,2,0,100,0,0

[HitObjects]
256,192,125406,5,0,0:0:0:0:
256,192,125763,5,0,0:0:0:0:
256,192,126120,5,0,0:0:0:0:
63,291,126478,6,0,L|50:242,1,37.5
127,228,126567,2,0,L|122:177,1,37.5
200,177,126656,2,0,L|204:126,1,37.5
280,139,126745,2,0,L|293:90,1,37.5
365,115,126835,6,0,L|418:231,7,93.75
309,197,127192,6,0,L|317:335,3,93.75
223,155,127370,2,0,L|199:288,3,93.75
112,197,127549,6,0,L|127:332,7,93.75
223,155,127906,6,0,L|199:288,3,93.75
309,197,128085,2,0,L|317:335,3,93.75
223,155,128263,6,0,L|199:288,3,93.75
309,197,128442,2,0,L|317:335,3,93.75
402,356,128620,6,0,L|428:220,3,93.75
397,175,128799,2,0,L|363:40,3,93.75
291,48,128978,2,0,L|202:-25,7,93.75
130,14,129335,5,0,0:0:0:0:
157,51,129379,1,0,0:0:0:0:
178,93,129424,1,0,0:0:0:0:
190,138,129468,1,0,0:0:0:0:
194,185,129513,1,0,0:0:0:0:
189,232,129558,1,0,0:0:0:0:
175,276,129602,1,0,0:0:0:0:
153,318,129647,1,0,0:0:0:0:
124,354,129692,6,0,L|76:142,1,187.5
203,189,129870,2,0,L|255:-8,1,187.5
332,90,130049,6,0,L|567:57,1,187.5
219,157,130228,2,0,L|461:180,1,187.5
127,260,130406,6,0,L|204:227,1,46.875
217,320,130495,1,0,0:0:0:0:
312,271,130585,1,0,0:0:0:0:
348,171,130674,1,0,0:0:0:0:
328,66,130763,5,0,0:0:0:0:
205,75,130853,1,0,0:0:0:0:
264,177,130942,6,0,L|195:169,1,46.875
135,161,131031,1,0,0:0:0:0:
187,256,131120,6,0,L|155:395,2,125
289,275,131299,2,0,L|309:407,2,125
385,230,131478,6,0,L|447:343,2,125
289,275,131656,2,0,L|309:407,2,125
187,256,131835,5,0,0:0:0:0:
153,179,131894,5,0,0:0:0:0:
119,103,131954,5,0,0:0:0:0:
85,27,132013,5,0,0:0:0:0:
150,75,132073,5,0,0:0:0:0:
218,124,132133,5,0,0:0:0:0:
285,174,132192,5,0,0:0:0:0:
355,128,132251,5,0,0:0:0:0:
424,81,132311,5,0,0:0:0:0:
492,35,132370,5,0,0:0:0:0:
456,106,132430,5,0,0:0:0:0:
420,181,132490,5,0,0:0:0:0:
382,256,132549,6,0,L|142:285,1,187.5
223,157,132728,2,0,L|47:283,1,187.5
382,256,132906,6,0,L|142:285,1,187.5
223,157,133085,2,0,L|47:283,1,187.5
372,156,133263,6,0,L|314:129,1,46.875
261,90,133353,1,0,0:0:0:0:
372,156,133442,5,0,0:0:0:0:
242,154,133532,1,0,0:0:0:0:
372,156,133620,5,0,0:0:0:0:
258,219,133710,1,0,0:0:0:0:
372,156,133799,6,0,L|344:213,1,46.875
304,267,133889,1,0,0:0:0:0:
372,156,133978,5,0,0:0:0:0:
365,375,134156,1,0,0:0:0:0:
227,6,134335,5,0,0:0:0:0:
275,304,134513,1,0,0:0:0:0:
473,41,134692,5,0,0:0:0:0:
435,44,134737,1,0,0:0:0:0:
412,366,134870,1,0,0:0:0:0:
57,3,135049,6,0,L|110:0,1,46.875
19,367,135228,2,0,L|72:364,1,46.875
185,60,135406,6,0,L|283:142,7,93.75
233,197,135763,5,0,0:0:0:0:
451,261,135942,1,0,0:0:0:0:
146,263,136120,6,0,L|196:253,1,46.875
475,191,136299,1,0,0:0:0:0:
74,156,136478,5,0,0:0:0:0:
484,331,136656,2,0,L|432:308,1,46.875
41,364,136835,5,0,0:0:0:0:
510,122,137013,2,0,L|461:148,1,46.875
8,80,137192,5,0,0:0:0:0:
512,31,137370,1,0,0:0:0:0:
25,360,137549,5,0,0:0:0:0:
71,318,137608,5,0,0:0:0:0:
118,277,137668,5,0,0:0:0:0:
165,236,137728,5,0,0:0:0:0:
138,179,137787,5,0,0:0:0:0:
111,123,137847,5,0,0:0:0:0:
84,66,137906,5,0,0:0:0:0:
166,22,137965,5,0,0:0:0:0:
259,13,138025,5,0,0:0:0:0:
348,42,138084,5,0,0:0:0:0:
418,103,138144,5,0,0:0:0:0:
459,186,138203,5,0,0:0:0:0:
464,279,138263,5,0,0:0:0:0:
287,369,138442,1,0,0:0:0:0:
297,15,138620,1,0,0:0:0:0:
474,377,138799,1,0,0:0:0:0:
96,310,138978,5,0,0:0:0:0:
57,224,139067,1,0,0:0:0:0:
143,186,139156,1,0,0:0:0:0:
181,271,139245,1,0,0:0:0:0:
96,310,139335,5,0,0:0:0:0:
88,215,139424,1,0,0:0:0:0:
182,209,139513,1,0,0:0:0:0:
189,302,139602,1,0,0:0:0:0:
96,310,139692,6,0,L|373:9,1,375
285,305,140049,1,0,0:0:0:0:
199,8,140228,1,0,0:0:0:0:
454,22,140406,5,0,0:0:0:0:
472,114,140495,1,0,0:0:0:0:
398,100,140585,5,0,0:0:0:0:
380,192,140674,1,0,0:0:0:0:
454,178,140763,5,0,0:0:0:0:
472,270,140852,1,0,0:0:0:0:
398,256,140942,5,0,0:0:0:0:
380,348,141031,1,0,0:0:0:0:
309,329,141120,6,0,L|287:111,5,125
230,246,141478,5,0,0:0:0:0:
367,2,141656,1,0,0:0:0:0:
25,331,141835,6,0,L|75:307,1,46.875
508,104,142013,1,0,0:0:0:0:
35,4,142192,6,0,L|14:117,23,93.75
90,71,143263,5,0,0:0:0:0:
72,162,143307,1,0,0:0:0:0:
95,252,143352,1,0,0:0:0:0:
153,325,143396,1,0,0:0:0:0:
237,366,143441,1,0,0:0:0:0:
330,369,143486,1,0,0:0:0:0:
415,332,143530,1,0,0:0:0:0:
478,263,143575,1,0,0:0:0:0:
506,175,143620,5,0,0:0:0:0:
412,177,143664,1,0,0:0:0:0:
318,179,143709,1,0,0:0:0:0:
224,181,143753,1,0,0:0:0:0:
131,183,143798,5,0,0:0:0:0:
213,139,143843,1,0,0:0:0:0:
296,94,143888,1,0,0:0:0:0:
378,50,143932,1,0,0:0:0:0:
461,5,143977,5,0,0:0:0:0:
462,129,144037,5,0,0:0:0:0:
400,236,144097,5,0,0:0:0:0:
292,295,144156,5,0,0:0:0:0:
169,291,144216,5,0,0:0:0:0:
64,225,144275,5,0,0:0:0:0:
9,114,144335,5,0,0:0:0:0:
102,33,144394,5,0,0:0:0:0:
222,3,144454,5,0,0:0:0:0:
343,31,144513,5,0,0:0:0:0:
437,111,144573,5,0,0:0:0:0:
485,226,144632,5,0,0:0:0:0:
474,349,144692,6,0,L|459:262,11,62.5
397,269,145049,6,0,L|501:57,1,187.5
20,376,145228,2,0,L|57:124,1,187.5
397,269,145406,5,0,0:0:0:0:
20,376,145585,1,0,0:0:0:0:
479,100,145763,5,0,0:0:0:0:
47,190,145942,1,0,0:0:0:0:
484,266,146120,6,0,L|-16:18,1,375
265,261,146478,6,0,L|368:356,2,125
149,216,146656,2,0,L|-58:151,2,125
265,176,146835,5,0,0:0:0:0:
253,120,146879,1,0,0:0:0:0:
265,176,146924,1,0,0:0:0:0:
253,120,146968,1,0,0:0:0:0:
265,176,147013,1,0,0:0:0:0:
253,120,147057,1,0,0:0:0:0:
265,176,147103,1,0,0:0:0:0:
253,120,147147,1,0,0:0:0:0:
265,176,147192,1,0,0:0:0:0:
253,120,147236,1,0,0:0:0:0:
265,176,147281,1,0,0:0:0:0:
253,120,147325,1,0,0:0:0:0:
265,176,147370,1,0,0:0:0:0:
253,120,147414,1,0,0:0:0:0:
265,176,147460,1,0,0:0:0:0:
253,120,147504,1,0,0:0:0:0:
265,176,147549,5,0,0:0:0:0:
253,120,147593,1,0,0:0:0:0:
265,176,147638,1,0,0:0:0:0:
253,120,147682,1,0,0:0:0:0:
265,176,147727,1,0,0:0:0:0:
253,120,147771,1,0,0:0:0:0:
265,176,147817,1,0,0:0:0:0:
253,120,147861,1,0,0:0:0:0:
265,176,147906,1,0,0:0:0:0:
253,120,147950,1,0,0:0:0:0:
265,176,147995,1,0,0:0:0:0:
253,120,148039,1,0,0:0:0:0:
265,176,148084,1,0,0:0:0:0:
253,120,148128,1,0,0:0:0:0:
265,176,148174,1,0,0:0:0:0:
253,120,148218,1,0,0:0:0:0:
265,176,148263,5,0,0:0:0:0:
253,120,148307,1,0,0:0:0:0:
265,176,148352,1,0,0:0:0:0:
253,120,148396,1,0,0:0:0:0:
265,176,148441,1,0,0:0:0:0:
253,120,148485,1,0,0:0:0:0:
265,176,148531,1,0,0:0:0:0:
253,120,148575,1,0,0:0:0:0:
265,176,148620,1,0,0:0:0:0:
253,120,148664,1,0,0:0:0:0:
265,176,148709,1,0,0:0:0:0:
253,120,148753,1,0,0:0:0:0:
265,176,148798,1,0,0:0:0:0:
253,120,148842,1,0,0:0:0:0:
265,176,148888,1,0,0:0:0:0:
253,120,148932,1,0,0:0:0:0:
265,176,148978,5,0,0:0:0:0:
79,343,149156,1,0,0:0:0:0:
422,15,149335,2,0,P|480:219|332:373,1,375
0,0,149692,5,0,0:0:0:0:
256,192,149870,5,0,0:0:0:0:
512,384,150049,5,0,0:0:0:0:
