osu file format v14

[General]
AudioFilename: Marble Soda.mp3
AudioLeadIn: 0
PreviewTime: 34382
Countdown: 0
SampleSet: Normal
StackLeniency: 0.4
Mode: 1
LetterboxInBreaks: 0
WidescreenStoryboard: 1

[Editor]
DistanceSpacing: 1
BeatDivisor: 4
GridSize: 32
TimelineZoom: 2.2

[Metadata]
Title:Marble Soda
TitleUnicode:Marble Soda
Artist:Shawn Wasabi
ArtistUnicode:Shawn Wasabi
Creator:Stingy
Version:Oni Zero
Source:
Tags:wub bass trap melody pop nishizumi ayyri
BeatmapID:1265768
BeatmapSetID:598830

[Difficulty]
HPDrainRate:6
CircleSize:2
OverallDifficulty:5.5
ApproachRate:9
SliderMultiplier:1.4
SliderTickRate:1

[Events]
//Background and Video events
0,0,"FX15tNL.jpg",0,111
//Break Periods
//Storyboard Layer 0 (Background)
//Storyboard Layer 1 (Fail)
//Storyboard Layer 2 (Pass)
//Storyboard Layer 3 (Foreground)
//Storyboard Sound Samples

[TimingPoints]
811,357.142857142857,4,1,1,90,1,0
24025,-111.111111111111,4,1,1,65,0,0
29382,-111.111111111111,4,1,1,70,0,0
32239,-111.111111111111,4,1,1,75,0,0
34918,-105.263157894737,4,1,1,75,0,0
35096,-100,4,1,1,100,0,1
55096,-100,4,1,1,90,0,0
56168,-100,4,1,1,100,0,1
57953,-100,4,1,1,100,0,0
69382,-111.111111111111,4,1,1,90,0,0
80453,-105.263157894737,4,1,1,90,0,0
80810,-100,4,1,1,100,0,1
100810,-100,4,1,1,90,0,0
101882,-100,4,1,1,100,0,1
103668,-100,4,1,1,100,0,0
106525,-125,4,1,1,50,0,0
114739,-121.951219512195,4,1,1,50,0,0
115096,-119.047619047619,4,1,1,55,0,0
120810,-116.279069767442,4,1,1,55,0,0
122418,-113.636363636364,4,1,1,55,0,0
123489,-111.111111111111,4,1,1,60,0,0
126168,-98.0392156862745,4,1,1,65,0,0
126257,-96.1538461538461,4,1,1,65,0,0
126346,-94.3396226415094,4,1,1,70,0,0
126435,-92.5925925925926,4,1,1,70,0,0
126525,-90.9090909090909,4,1,1,100,0,1
149382,-100,4,1,1,90,0,0
157953,-100,4,1,1,30,0,0

[Colours]
Combo1 : 149,254,169
Combo2 : 251,174,207
Combo3 : 163,237,234

[HitObjects]
256,192,811,5,0,0:0:0:0:
256,192,989,1,8,0:0:0:0:
256,192,1168,1,0,0:0:0:0:
256,192,1525,1,8,0:0:0:0:
256,192,1882,1,8,0:0:0:0:
256,192,2060,1,0,0:0:0:0:
256,192,2418,1,8,0:0:0:0:
256,192,2507,1,8,0:0:0:0:
256,192,2596,1,0,0:0:0:0:
256,192,2953,1,8,0:0:0:0:
256,192,3132,1,8,0:0:0:0:
256,192,3310,1,0,0:0:0:0:
256,192,3400,1,8,0:0:0:0:
256,192,3489,1,8,0:0:0:0:
256,192,3668,1,0,0:0:0:0:
256,192,3846,1,8,0:0:0:0:
256,192,4025,1,0,0:0:0:0:
256,192,4382,1,8,0:0:0:0:
256,192,4739,1,8,0:0:0:0:
256,192,4828,1,0,0:0:0:0:
256,192,4918,1,8,0:0:0:0:
256,192,5096,1,0,0:0:0:0:
256,192,5275,1,8,0:0:0:0:
256,192,5364,1,8,0:0:0:0:
256,192,5453,1,0,0:0:0:0:
256,192,5810,1,8,0:0:0:0:
256,192,5989,1,0,0:0:0:0:
256,192,6168,1,8,0:0:0:0:
256,192,6257,1,8,0:0:0:0:
256,192,6346,1,0,0:0:0:0:
256,192,6525,1,0,0:0:0:0:
256,192,6703,1,8,0:0:0:0:
256,192,6882,1,0,0:0:0:0:
256,192,7239,1,8,0:0:0:0:
256,192,7418,1,0,0:0:0:0:
256,192,7775,1,0,0:0:0:0:
256,192,8132,1,8,0:0:0:0:
256,192,8310,1,0,0:0:0:0:
256,192,8400,1,8,0:0:0:0:
256,192,8489,1,0,0:0:0:0:
256,192,8668,1,8,0:0:0:0:
256,192,8846,1,8,0:0:0:0:
256,192,9025,1,0,0:0:0:0:
256,192,9114,1,8,0:0:0:0:
256,192,9203,1,8,0:0:0:0:
256,192,9293,1,8,0:0:0:0:
256,192,9382,1,0,0:0:0:0:
256,192,9560,1,8,0:0:0:0:
256,192,9739,1,0,0:0:0:0:
256,192,9918,1,8,0:0:0:0:
256,192,10096,1,0,0:0:0:0:
256,192,10275,1,0,0:0:0:0:
256,192,10453,1,8,0:0:0:0:
256,192,10632,1,0,0:0:0:0:
256,192,10810,1,8,0:0:0:0:
256,192,10989,1,0,0:0:0:0:
256,192,11168,1,0,0:0:0:0:
256,192,11346,1,8,0:0:0:0:
256,192,11435,1,8,0:0:0:0:
256,192,11525,1,0,0:0:0:0:
256,192,11614,1,8,0:0:0:0:
256,192,11703,1,0,0:0:0:0:
256,192,11882,1,8,0:0:0:0:
256,192,11971,1,0,0:0:0:0:
256,192,12060,1,8,0:0:0:0:
256,192,12150,1,8,0:0:0:0:
256,192,12239,1,0,0:0:0:0:
256,192,12418,1,8,0:0:0:0:
256,192,12596,1,0,0:0:0:0:
256,192,12953,1,8,0:0:0:0:
256,192,13132,1,0,0:0:0:0:
256,192,13310,1,8,0:0:0:0:
256,192,13489,1,0,0:0:0:0:
256,192,13668,1,0,0:0:0:0:
256,192,13757,1,8,0:0:0:0:
256,192,13846,1,8,0:0:0:0:
256,192,14025,1,0,0:0:0:0:
256,192,14203,1,0,0:0:0:0:
256,192,14382,1,8,0:0:0:0:
256,192,14739,1,0,0:0:0:0:
256,192,14918,1,8,0:0:0:0:
256,192,15007,1,8,0:0:0:0:
256,192,15096,1,0,0:0:0:0:
256,192,15275,1,8,0:0:0:0:
256,192,15453,1,0,0:0:0:0:
256,192,15543,1,8,0:0:0:0:
256,192,15632,1,8,0:0:0:0:
256,192,15721,1,8,0:0:0:0:
256,192,15810,1,8,0:0:0:0:
256,192,15989,1,0,0:0:0:0:
256,192,16168,1,8,0:0:0:0:
256,192,16346,1,0,0:0:0:0:
256,192,16525,1,0,0:0:0:0:
256,192,16614,1,8,0:0:0:0:
256,192,16703,1,8,0:0:0:0:
256,192,16793,1,0,0:0:0:0:
256,192,16882,1,0,0:0:0:0:
256,192,17060,1,0,0:0:0:0:
256,192,17150,1,0,0:0:0:0:
256,192,17239,1,8,0:0:0:0:
256,192,17418,1,0,0:0:0:0:
256,192,17596,1,8,0:0:0:0:
256,192,17685,1,8,0:0:0:0:
256,192,17775,1,0,0:0:0:0:
256,192,17953,1,4,0:0:0:0:
256,192,18310,1,0,0:0:0:0:
256,192,18400,1,8,0:0:0:0:
256,192,18489,1,8,0:0:0:0:
256,192,18578,1,8,0:0:0:0:
256,192,18668,1,8,0:0:0:0:
256,192,18846,1,0,0:0:0:0:
256,192,19025,1,8,0:0:0:0:
256,192,19114,1,8,0:0:0:0:
256,192,19203,1,0,0:0:0:0:
256,192,19293,1,8,0:0:0:0:
256,192,19382,1,0,0:0:0:0:
256,192,19560,1,8,0:0:0:0:
256,192,19739,1,0,0:0:0:0:
256,192,19918,1,0,0:0:0:0:
256,192,20096,1,8,0:0:0:0:
256,192,20275,1,8,0:0:0:0:
256,192,20453,1,0,0:0:0:0:
256,192,20632,1,8,0:0:0:0:
256,192,20721,1,8,0:0:0:0:
256,192,20810,1,0,0:0:0:0:
256,192,20989,1,8,0:0:0:0:
256,192,21168,1,0,0:0:0:0:
256,192,21346,1,0,0:0:0:0:
256,192,21525,1,8,0:0:0:0:
256,192,21703,1,0,0:0:0:0:
256,192,21882,1,8,0:0:0:0:
256,192,22060,1,0,0:0:0:0:
256,192,22239,1,0,0:0:0:0:
256,192,22418,1,8,0:0:0:0:
256,192,22507,1,8,0:0:0:0:
256,192,22596,1,0,0:0:0:0:
256,192,22685,1,8,0:0:0:0:
256,192,22775,1,8,0:0:0:0:
256,192,22953,1,0,0:0:0:0:
256,192,23043,1,8,0:0:0:0:
256,192,23132,1,8,0:0:0:0:
256,192,23221,1,8,0:0:0:0:
256,192,23310,1,0,0:0:0:0:
256,192,23400,1,8,0:0:0:0:
256,192,23489,1,0,0:0:0:0:
256,192,23578,1,0,0:0:0:0:
256,192,23668,1,8,0:0:0:0:
256,192,24025,1,8,0:0:0:0:
256,192,24203,1,0,0:0:0:0:
256,192,24382,1,8,0:0:0:0:
256,192,24739,1,8,0:0:0:0:
256,192,25096,1,8,0:0:0:0:
256,192,25275,1,0,0:0:0:0:
256,192,25453,1,8,0:0:0:0:
256,192,25632,1,0,0:0:0:0:
256,192,25810,1,8,0:0:0:0:
256,192,26168,1,8,0:0:0:0:
256,192,26346,1,8,0:0:0:0:
256,192,26435,1,8,0:0:0:0:
256,192,26525,1,8,0:0:0:0:
256,192,26882,1,8,0:0:0:0:
256,192,27060,1,0,0:0:0:0:
256,192,27239,1,8,0:0:0:0:
256,192,27596,1,8,0:0:0:0:
256,192,27953,1,8,0:0:0:0:
256,192,28132,1,0,0:0:0:0:
256,192,28310,1,8,0:0:0:0:
256,192,28400,1,8,0:0:0:0:
256,192,28489,1,0,0:0:0:0:
256,192,28578,1,0,0:0:0:0:
256,192,28668,1,8,0:0:0:0:
256,192,28846,1,0,0:0:0:0:
256,192,29025,1,8,0:0:0:0:
256,192,29114,1,0,0:0:0:0:
256,192,29203,1,0,0:0:0:0:
256,192,29293,1,0,0:0:0:0:
256,192,29382,5,8,0:0:0:0:
256,192,29918,1,8,0:0:0:0:
256,192,30096,1,8,0:0:0:0:
256,192,30275,1,0,0:0:0:0:
256,192,30364,1,0,0:0:0:0:
256,192,30453,1,8,0:0:0:0:
256,192,30989,1,8,0:0:0:0:
256,192,31168,1,8,0:0:0:0:
256,192,31346,1,0,0:0:0:0:
256,192,31435,1,0,0:0:0:0:
256,192,31525,1,8,0:0:0:0:
256,192,32060,1,0,0:0:0:0:
256,192,32150,1,0,0:0:0:0:
256,192,32239,1,8,0:0:0:0:
256,192,32418,1,8,0:0:0:0:
256,192,32596,1,0,0:0:0:0:
256,192,32775,1,8,0:0:0:0:
256,192,32953,1,8,0:0:0:0:
256,192,33132,1,0,0:0:0:0:
256,192,33310,1,8,0:0:0:0:
256,192,33400,1,8,0:0:0:0:
256,192,33489,1,8,0:0:0:0:
256,192,33578,1,8,0:0:0:0:
256,192,34025,1,12,0:0:0:0:
256,192,34382,1,0,0:0:0:0:
256,192,34501,1,0,0:0:0:0:
256,192,34620,1,8,0:0:0:0:
256,192,34739,1,8,0:0:0:0:
256,192,34918,1,8,0:0:0:0:
256,192,35096,1,4,0:0:0:0:
256,192,35453,1,8,0:0:0:0:
256,192,35632,1,0,0:0:0:0:
256,192,35810,1,8,0:0:0:0:
256,192,36168,1,0,0:0:0:0:
256,192,36346,1,0,0:0:0:0:
256,192,36435,1,0,0:0:0:0:
256,192,36525,1,0,0:0:0:0:
256,192,36703,1,0,0:0:0:0:
256,192,37060,1,0,0:0:0:0:
256,192,37239,1,8,0:0:0:0:
256,192,37418,1,0,0:0:0:0:
256,192,37596,1,8,0:0:0:0:
256,192,37775,1,8,0:0:0:0:
256,192,37953,1,0,0:0:0:0:
256,192,38310,1,8,0:0:0:0:
256,192,38489,1,0,0:0:0:0:
256,192,38668,1,8,0:0:0:0:
256,192,38846,1,8,0:0:0:0:
256,192,39025,1,0,0:0:0:0:
256,192,39203,1,8,0:0:0:0:
256,192,39560,1,0,0:0:0:0:
256,192,39739,1,8,0:0:0:0:
256,192,39858,1,8,0:0:0:0:
256,192,39977,1,8,0:0:0:0:
256,192,40096,1,8,0:0:0:0:
256,192,40275,1,0,0:0:0:0:
256,192,40453,1,8,0:0:0:0:
256,192,40632,1,8,0:0:0:0:
256,192,40810,1,0,0:0:0:0:
256,192,41168,1,8,0:0:0:0:
256,192,41346,1,0,0:0:0:0:
256,192,41525,1,8,0:0:0:0:
256,192,41882,1,0,0:0:0:0:
256,192,42060,1,0,0:0:0:0:
256,192,42150,1,0,0:0:0:0:
256,192,42239,1,0,0:0:0:0:
256,192,42418,1,0,0:0:0:0:
256,192,42775,1,8,0:0:0:0:
256,192,42953,1,8,0:0:0:0:
256,192,43310,1,8,0:0:0:0:
256,192,43489,1,8,0:0:0:0:
256,192,43668,1,0,0:0:0:0:
256,192,44203,1,0,0:0:0:0:
256,192,44382,1,8,0:0:0:0:
256,192,44739,1,8,0:0:0:0:
256,192,44918,1,8,0:0:0:0:
256,192,45275,1,0,0:0:0:0:
256,192,45364,1,8,0:0:0:0:
256,192,45453,1,0,0:0:0:0:
256,192,45632,1,8,0:0:0:0:
256,192,45810,1,8,0:0:0:0:
256,192,46168,1,8,0:0:0:0:
256,192,46346,1,8,0:0:0:0:
256,192,46525,1,4,0:0:0:0:
256,192,46703,1,8,0:0:0:0:
256,192,46793,1,0,0:0:0:0:
256,192,46882,1,0,0:0:0:0:
256,192,47060,1,0,0:0:0:0:
256,192,47239,1,8,0:0:0:0:
256,192,47596,1,8,0:0:0:0:
256,192,47775,1,0,0:0:0:0:
256,192,47864,1,0,0:0:0:0:
256,192,47953,1,0,0:0:0:0:
256,192,48132,1,0,0:0:0:0:
256,192,48310,1,8,0:0:0:0:
256,192,48668,1,8,0:0:0:0:
256,192,48846,1,0,0:0:0:0:
256,192,49025,1,8,0:0:0:0:
256,192,49203,1,0,0:0:0:0:
256,192,49382,1,0,0:0:0:0:
256,192,49560,1,8,0:0:0:0:
256,192,49739,1,8,0:0:0:0:
256,192,49918,1,0,0:0:0:0:
256,192,50096,1,8,0:0:0:0:
256,192,50275,1,8,0:0:0:0:
256,192,50453,1,0,0:0:0:0:
256,192,50632,1,0,0:0:0:0:
256,192,50989,1,0,0:0:0:0:
256,192,51168,1,8,0:0:0:0:
256,192,51525,1,8,0:0:0:0:
256,192,51703,1,8,0:0:0:0:
256,192,51793,1,8,0:0:0:0:
256,192,51882,1,0,0:0:0:0:
256,192,52001,1,0,0:0:0:0:
256,192,52120,1,0,0:0:0:0:
256,192,52239,1,0,0:0:0:0:
256,192,52596,1,8,0:0:0:0:
256,192,52775,1,0,0:0:0:0:
256,192,52953,1,8,0:0:0:0:
256,192,53310,1,0,0:0:0:0:
256,192,53489,1,0,0:0:0:0:
256,192,53578,1,0,0:0:0:0:
256,192,53668,1,0,0:0:0:0:
256,192,53846,1,0,0:0:0:0:
256,192,54025,1,8,0:0:0:0:
256,192,54382,1,8,0:0:0:0:
256,192,54560,1,8,0:0:0:0:
256,192,54650,1,0,0:0:0:0:
256,192,54739,1,0,0:0:0:0:
256,192,54918,1,8,0:0:0:0:
256,192,55096,1,0,0:0:0:0:
256,192,55810,1,8,0:0:0:0:
256,192,55989,1,0,0:0:0:0:
256,192,56168,1,0,0:0:0:0:
256,192,56346,1,8,0:0:0:0:
256,192,56703,1,0,0:0:0:0:
256,192,56793,1,8,0:0:0:0:
256,192,56882,1,0,0:0:0:0:
256,192,57060,1,8,0:0:0:0:
256,192,57239,1,0,0:0:0:0:
256,192,57596,1,8,0:0:0:0:
256,192,57775,1,8,0:0:0:0:
256,192,57864,1,8,0:0:0:0:
256,192,57953,1,0,0:0:0:0:
256,192,58132,1,0,0:0:0:0:
256,192,58489,1,0,0:0:0:0:
256,192,58668,1,8,0:0:0:0:
256,192,58846,1,0,0:0:0:0:
256,192,59025,1,0,0:0:0:0:
256,192,59203,1,0,0:0:0:0:
256,192,59382,1,8,0:0:0:0:
256,192,59560,1,8,0:0:0:0:
256,192,59739,1,0,0:0:0:0:
256,192,59918,1,0,0:0:0:0:
256,192,60096,1,8,0:0:0:0:
256,192,60275,1,0,0:0:0:0:
256,192,60453,1,8,0:0:0:0:
256,192,60632,1,0,0:0:0:0:
256,192,60810,1,0,0:0:0:0:
256,192,60989,1,8,0:0:0:0:
256,192,61346,1,0,0:0:0:0:
256,192,61525,1,8,0:0:0:0:
256,192,61882,1,0,0:0:0:0:
256,192,62060,1,8,0:0:0:0:
256,192,62239,1,0,0:0:0:0:
256,192,62418,1,0,0:0:0:0:
256,192,62596,1,0,0:0:0:0:
256,192,62775,1,8,0:0:0:0:
256,192,62953,1,8,0:0:0:0:
256,192,63132,1,0,0:0:0:0:
256,192,63310,1,8,0:0:0:0:
256,192,63489,1,0,0:0:0:0:
256,192,63668,1,0,0:0:0:0:
256,192,63757,1,8,0:0:0:0:
256,192,63846,1,8,0:0:0:0:
256,192,63935,1,0,0:0:0:0:
256,192,64025,1,0,0:0:0:0:
256,192,64203,1,0,0:0:0:0:
256,192,64382,1,8,0:0:0:0:
256,192,64560,1,8,0:0:0:0:
256,192,64739,1,0,0:0:0:0:
256,192,64918,1,0,0:0:0:0:
256,192,65096,1,8,0:0:0:0:
256,192,65275,1,8,0:0:0:0:
256,192,65453,1,0,0:0:0:0:
256,192,65632,1,8,0:0:0:0:
256,192,65989,1,0,0:0:0:0:
256,192,66168,1,8,0:0:0:0:
256,192,66346,1,0,0:0:0:0:
256,192,66525,1,4,0:0:0:0:
256,192,66703,12,0,69203,0:0:0:0:
256,192,69382,5,0,0:0:0:0:
256,192,69739,1,0,0:0:0:0:
256,192,70096,1,8,0:0:0:0:
256,192,70364,1,8,0:0:0:0:
256,192,70632,1,8,0:0:0:0:
256,192,70810,1,0,0:0:0:0:
256,192,71168,1,0,0:0:0:0:
256,192,71346,1,8,0:0:0:0:
256,192,71435,1,8,0:0:0:0:
256,192,71525,1,0,0:0:0:0:
256,192,71793,1,0,0:0:0:0:
256,192,72060,1,0,0:0:0:0:
256,192,72239,1,0,0:0:0:0:
256,192,72418,1,8,0:0:0:0:
256,192,72596,1,0,0:0:0:0:
256,192,72775,1,8,0:0:0:0:
256,192,72953,1,0,0:0:0:0:
256,192,73043,1,0,0:0:0:0:
256,192,73221,1,0,0:0:0:0:
256,192,73310,1,8,0:0:0:0:
256,192,73489,1,8,0:0:0:0:
256,192,73578,1,0,0:0:0:0:
256,192,73668,1,8,0:0:0:0:
256,192,74025,1,8,0:0:0:0:
256,192,74203,1,0,0:0:0:0:
256,192,74293,1,0,0:0:0:0:
256,192,74382,1,8,0:0:0:0:
256,192,74560,1,0,0:0:0:0:
256,192,74650,1,8,0:0:0:0:
256,192,74828,1,8,0:0:0:0:
256,192,74918,1,8,0:0:0:0:
256,192,75096,1,0,0:0:0:0:
256,192,75453,1,0,0:0:0:0:
256,192,75632,1,8,0:0:0:0:
256,192,75810,1,8,0:0:0:0:
256,192,75989,1,0,0:0:0:0:
256,192,76078,1,0,0:0:0:0:
256,192,76168,1,8,0:0:0:0:
256,192,76703,1,8,0:0:0:0:
256,192,76882,1,8,0:0:0:0:
256,192,77060,1,0,0:0:0:0:
256,192,77150,1,0,0:0:0:0:
256,192,77239,1,8,0:0:0:0:
256,192,77418,1,0,0:0:0:0:
256,192,77596,1,8,0:0:0:0:
256,192,77775,1,8,0:0:0:0:
256,192,77864,1,8,0:0:0:0:
256,192,77953,1,0,0:0:0:0:
256,192,78489,1,8,0:0:0:0:
256,192,78668,1,8,0:0:0:0:
256,192,79025,5,12,0:0:0:0:
256,192,79203,1,4,0:0:0:0:
256,192,79560,1,0,0:0:0:0:
256,192,79650,1,8,0:0:0:0:
256,192,79739,1,0,0:0:0:0:
256,192,79918,1,0,0:0:0:0:
256,192,80096,1,12,0:0:0:0:
256,192,80453,1,8,0:0:0:0:
256,192,80543,1,8,0:0:0:0:
256,192,80632,1,8,0:0:0:0:
256,192,80810,1,4,0:0:0:0:
256,192,80989,1,8,0:0:0:0:
256,192,81168,1,0,0:0:0:0:
256,192,81346,1,0,0:0:0:0:
256,192,81525,1,8,0:0:0:0:
256,192,81882,1,0,0:0:0:0:
256,192,82060,1,0,0:0:0:0:
256,192,82150,1,0,0:0:0:0:
256,192,82239,1,0,0:0:0:0:
256,192,82418,1,0,0:0:0:0:
256,192,82596,1,8,0:0:0:0:
256,192,82775,1,0,0:0:0:0:
256,192,82953,1,8,0:0:0:0:
256,192,83310,1,8,0:0:0:0:
256,192,83489,1,8,0:0:0:0:
256,192,83668,1,0,0:0:0:0:
256,192,83935,1,8,0:0:0:0:
256,192,84025,1,0,0:0:0:0:
256,192,84203,1,0,0:0:0:0:
256,192,84382,1,8,0:0:0:0:
256,192,84471,1,8,0:0:0:0:
256,192,84739,1,0,0:0:0:0:
256,192,84918,1,8,0:0:0:0:
256,192,85096,1,8,0:0:0:0:
256,192,85275,1,0,0:0:0:0:
256,192,85453,1,0,0:0:0:0:
256,192,85543,1,8,0:0:0:0:
256,192,85810,1,8,0:0:0:0:
256,192,86525,1,0,0:0:0:0:
256,192,86882,1,8,0:0:0:0:
256,192,87060,1,0,0:0:0:0:
256,192,87239,1,8,0:0:0:0:
256,192,87596,1,0,0:0:0:0:
256,192,87775,1,0,0:0:0:0:
256,192,87864,1,0,0:0:0:0:
256,192,87953,1,0,0:0:0:0:
256,192,88132,1,0,0:0:0:0:
256,192,88310,1,8,0:0:0:0:
256,192,88489,1,0,0:0:0:0:
256,192,88668,1,8,0:0:0:0:
256,192,89025,1,8,0:0:0:0:
256,192,89203,1,8,0:0:0:0:
256,192,89382,1,0,0:0:0:0:
256,192,89739,1,8,0:0:0:0:
256,192,89918,1,0,0:0:0:0:
256,192,90096,1,8,0:0:0:0:
256,192,90453,1,0,0:0:0:0:
256,192,90632,1,0,0:0:0:0:
256,192,90989,1,0,0:0:0:0:
256,192,91078,1,8,0:0:0:0:
256,192,91168,1,0,0:0:0:0:
256,192,91346,1,8,0:0:0:0:
256,192,91525,1,8,0:0:0:0:
256,192,91882,1,8,0:0:0:0:
256,192,92239,1,4,0:0:0:0:
256,192,92418,1,8,0:0:0:0:
256,192,92507,1,8,0:0:0:0:
256,192,92596,1,0,0:0:0:0:
256,192,92775,1,0,0:0:0:0:
256,192,92953,1,8,0:0:0:0:
256,192,93043,1,8,0:0:0:0:
256,192,93132,1,8,0:0:0:0:
256,192,93221,1,8,0:0:0:0:
256,192,93310,1,0,0:0:0:0:
256,192,93489,1,0,0:0:0:0:
256,192,93578,1,0,0:0:0:0:
256,192,93668,1,0,0:0:0:0:
256,192,93846,1,0,0:0:0:0:
256,192,94025,1,8,0:0:0:0:
256,192,94382,1,8,0:0:0:0:
256,192,94560,1,0,0:0:0:0:
256,192,94739,1,8,0:0:0:0:
256,192,94918,1,0,0:0:0:0:
256,192,95096,1,0,0:0:0:0:
256,192,95364,1,8,0:0:0:0:
256,192,95453,1,0,0:0:0:0:
256,192,95632,1,0,0:0:0:0:
256,192,95810,1,8,0:0:0:0:
256,192,96168,1,0,0:0:0:0:
256,192,96257,1,8,0:0:0:0:
256,192,96346,1,8,0:0:0:0:
256,192,96703,1,0,0:0:0:0:
256,192,96882,1,0,0:0:0:0:
256,192,97239,1,8,0:0:0:0:
256,192,97418,1,8,0:0:0:0:
256,192,97507,1,8,0:0:0:0:
256,192,97596,1,8,0:0:0:0:
256,192,97715,1,0,0:0:0:0:
256,192,97834,1,0,0:0:0:0:
256,192,97953,1,0,0:0:0:0:
256,192,98310,1,8,0:0:0:0:
256,192,98489,1,0,0:0:0:0:
256,192,98668,1,8,0:0:0:0:
256,192,99025,1,0,0:0:0:0:
256,192,99203,1,0,0:0:0:0:
256,192,99293,1,0,0:0:0:0:
256,192,99382,1,0,0:0:0:0:
256,192,99560,1,0,0:0:0:0:
256,192,99739,1,8,0:0:0:0:
256,192,99918,1,0,0:0:0:0:
256,192,100096,1,8,0:0:0:0:
256,192,100275,1,0,0:0:0:0:
256,192,100364,1,8,0:0:0:0:
256,192,100453,1,8,0:0:0:0:
256,192,100632,1,8,0:0:0:0:
256,192,100810,1,0,0:0:0:0:
256,192,100989,1,8,0:0:0:0:
256,192,101168,1,0,0:0:0:0:
256,192,101346,1,0,0:0:0:0:
256,192,101525,1,8,0:0:0:0:
256,192,101703,1,0,0:0:0:0:
256,192,101882,1,0,0:0:0:0:
256,192,102060,1,8,0:0:0:0:
256,192,102418,1,0,0:0:0:0:
256,192,102507,1,8,0:0:0:0:
256,192,102596,1,0,0:0:0:0:
256,192,102775,1,8,0:0:0:0:
256,192,102953,1,0,0:0:0:0:
256,192,103043,1,8,0:0:0:0:
256,192,103132,1,8,0:0:0:0:
256,192,103221,1,8,0:0:0:0:
256,192,103310,1,0,0:0:0:0:
256,192,103489,1,8,0:0:0:0:
256,192,103578,1,8,0:0:0:0:
256,192,103668,5,0,0:0:0:0:
256,192,106525,1,0,0:0:0:0:
256,192,107239,1,8,0:0:0:0:
256,192,107596,1,0,0:0:0:0:
256,192,108668,1,8,0:0:0:0:
256,192,109025,1,0,0:0:0:0:
256,192,109382,1,8,0:0:0:0:
256,192,112239,1,0,0:0:0:0:
256,192,112953,1,8,0:0:0:0:
256,192,113310,1,0,0:0:0:0:
256,192,114382,1,0,0:0:0:0:
256,192,114739,1,0,0:0:0:0:
256,192,115096,5,0,0:0:0:0:
256,192,115453,1,8,0:0:0:0:
256,192,115632,1,8,0:0:0:0:
256,192,115810,1,0,0:0:0:0:
256,192,116168,1,0,0:0:0:0:
256,192,116346,1,8,0:0:0:0:
256,192,116525,1,0,0:0:0:0:
256,192,116882,1,8,0:0:0:0:
256,192,117060,1,8,0:0:0:0:
256,192,117239,1,0,0:0:0:0:
256,192,117596,1,0,0:0:0:0:
256,192,117775,1,8,0:0:0:0:
256,192,117953,1,0,0:0:0:0:
256,192,118132,1,8,0:0:0:0:
256,192,118310,1,0,0:0:0:0:
256,192,118489,1,8,0:0:0:0:
256,192,118668,1,8,0:0:0:0:
256,192,118846,1,8,0:0:0:0:
256,192,119025,1,0,0:0:0:0:
256,192,119382,1,8,0:0:0:0:
256,192,119560,1,8,0:0:0:0:
256,192,119739,1,0,0:0:0:0:
256,192,119918,1,8,0:0:0:0:
256,192,120096,1,0,0:0:0:0:
256,192,120275,1,8,0:0:0:0:
256,192,120453,1,8,0:0:0:0:
256,192,120810,1,8,0:0:0:0:
256,192,120989,1,0,0:0:0:0:
256,192,121168,1,0,0:0:0:0:
256,192,121346,1,8,0:0:0:0:
256,192,121525,1,8,0:0:0:0:
256,192,121703,1,0,0:0:0:0:
256,192,121793,1,0,0:0:0:0:
256,192,121882,1,8,0:0:0:0:
256,192,122418,1,8,0:0:0:0:
256,192,122596,1,8,0:0:0:0:
256,192,122775,1,0,0:0:0:0:
256,192,122864,1,0,0:0:0:0:
256,192,122953,1,8,0:0:0:0:
256,192,123489,1,8,0:0:0:0:
256,192,123578,1,8,0:0:0:0:
256,192,123668,1,8,0:0:0:0:
256,192,124203,1,8,0:0:0:0:
256,192,124382,1,8,0:0:0:0:
256,192,124739,1,8,0:0:0:0:
256,192,124918,1,8,0:0:0:0:
256,192,126168,1,8,0:0:0:0:
256,192,126257,1,8,0:0:0:0:
256,192,126346,1,8,0:0:0:0:
256,192,126435,1,8,0:0:0:0:
256,192,126525,1,0,0:0:0:0:
256,192,126882,1,8,0:0:0:0:
256,192,127060,1,0,0:0:0:0:
256,192,127239,1,8,0:0:0:0:
256,192,127328,1,8,0:0:0:0:
256,192,127418,1,8,0:0:0:0:
256,192,127596,1,0,0:0:0:0:
256,192,127775,1,8,0:0:0:0:
256,192,127953,1,0,0:0:0:0:
256,192,128132,1,0,0:0:0:0:
256,192,128310,1,8,0:0:0:0:
256,192,128489,1,0,0:0:0:0:
256,192,128578,1,0,0:0:0:0:
256,192,128668,1,8,0:0:0:0:
256,192,128846,1,0,0:0:0:0:
256,192,129025,1,8,0:0:0:0:
256,192,129203,1,8,0:0:0:0:
256,192,129382,1,0,0:0:0:0:
256,192,129560,1,8,0:0:0:0:
256,192,129739,1,8,0:0:0:0:
256,192,129918,1,0,0:0:0:0:
256,192,130096,1,8,0:0:0:0:
256,192,130453,1,0,0:0:0:0:
256,192,130632,1,8,0:0:0:0:
256,192,130810,1,0,0:0:0:0:
256,192,130989,1,0,0:0:0:0:
256,192,131168,1,8,0:0:0:0:
256,192,131525,1,8,0:0:0:0:
256,192,131882,1,8,0:0:0:0:
256,192,132060,1,8,0:0:0:0:
256,192,132239,1,0,0:0:0:0:
256,192,132418,1,0,0:0:0:0:
256,192,132507,1,0,0:0:0:0:
256,192,132596,1,8,0:0:0:0:
256,192,132775,1,0,0:0:0:0:
256,192,132953,1,8,0:0:0:0:
256,192,133310,1,0,0:0:0:0:
256,192,133489,1,8,0:0:0:0:
256,192,133846,1,0,0:0:0:0:
256,192,134025,1,8,0:0:0:0:
256,192,134203,1,0,0:0:0:0:
256,192,134382,1,8,0:0:0:0:
256,192,134739,1,8,0:0:0:0:
256,192,134918,1,8,0:0:0:0:
256,192,135096,1,0,0:0:0:0:
256,192,135453,1,0,0:0:0:0:
256,192,135632,1,0,0:0:0:0:
256,192,135810,1,8,0:0:0:0:
256,192,136168,1,0,0:0:0:0:
256,192,136346,1,8,0:0:0:0:
256,192,136703,1,8,0:0:0:0:
256,192,136882,1,0,0:0:0:0:
256,192,137239,1,8,0:0:0:0:
256,192,137418,1,8,0:0:0:0:
256,192,137596,1,8,0:0:0:0:
256,192,137685,1,8,0:0:0:0:
256,192,137775,1,8,0:0:0:0:
256,192,137953,1,4,0:0:0:0:
256,192,138132,1,8,0:0:0:0:
256,192,138310,1,0,0:0:0:0:
256,192,138489,1,0,0:0:0:0:
256,192,138668,1,8,0:0:0:0:
256,192,139025,1,0,0:0:0:0:
256,192,139203,1,8,0:0:0:0:
256,192,139560,1,0,0:0:0:0:
256,192,139739,1,0,0:0:0:0:
256,192,139918,1,8,0:0:0:0:
256,192,140096,1,8,0:0:0:0:
256,192,140453,1,8,0:0:0:0:
256,192,140632,1,8,0:0:0:0:
256,192,140810,1,0,0:0:0:0:
256,192,140900,1,8,0:0:0:0:
256,192,140989,1,8,0:0:0:0:
256,192,141078,1,8,0:0:0:0:
256,192,141168,1,0,0:0:0:0:
256,192,141346,1,0,0:0:0:0:
256,192,141525,1,8,0:0:0:0:
256,192,141882,1,0,0:0:0:0:
256,192,142060,1,8,0:0:0:0:
256,192,142239,1,8,0:0:0:0:
256,192,142328,1,8,0:0:0:0:
256,192,142418,1,0,0:0:0:0:
256,192,142596,1,8,0:0:0:0:
256,192,142715,1,8,0:0:0:0:
256,192,142834,1,8,0:0:0:0:
256,192,142953,1,8,0:0:0:0:
256,192,143310,1,0,0:0:0:0:
256,192,143489,1,0,0:0:0:0:
256,192,143668,1,0,0:0:0:0:
256,192,143846,1,8,0:0:0:0:
256,192,144203,1,0,0:0:0:0:
256,192,144382,1,8,0:0:0:0:
256,192,144739,1,0,0:0:0:0:
256,192,144918,1,8,0:0:0:0:
256,192,145275,1,0,0:0:0:0:
256,192,145810,1,8,0:0:0:0:
256,192,145989,1,0,0:0:0:0:
256,192,146078,1,0,0:0:0:0:
256,192,146168,1,8,0:0:0:0:
256,192,146346,1,8,0:0:0:0:
256,192,146525,1,0,0:0:0:0:
256,192,146614,1,0,0:0:0:0:
256,192,146703,1,0,0:0:0:0:
256,192,146882,1,8,0:0:0:0:
256,192,147060,1,0,0:0:0:0:
256,192,147239,1,8,0:0:0:0:
256,192,147328,1,8,0:0:0:0:
256,192,147418,1,8,0:0:0:0:
256,192,147507,1,8,0:0:0:0:
256,192,147596,1,0,0:0:0:0:
256,192,147775,1,8,0:0:0:0:
256,192,148132,1,8,0:0:0:0:
256,192,148310,1,0,0:0:0:0:
256,192,148668,1,8,0:0:0:0:
256,192,148846,1,0,0:0:0:0:
256,192,149025,1,8,0:0:0:0:
256,192,149382,5,0,0:0:0:0:
256,192,149560,1,8,0:0:0:0:
256,192,149739,1,0,0:0:0:0:
256,192,149918,1,0,0:0:0:0:
256,192,150007,1,0,0:0:0:0:
256,192,150096,1,8,0:0:0:0:
256,192,150275,1,8,0:0:0:0:
256,192,150453,1,8,0:0:0:0:
256,192,150632,1,0,0:0:0:0:
256,192,150810,1,8,0:0:0:0:
256,192,150989,1,8,0:0:0:0:
256,192,151168,1,0,0:0:0:0:
256,192,151346,1,8,0:0:0:0:
256,192,151435,1,8,0:0:0:0:
256,192,151525,1,8,0:0:0:0:
256,192,151703,1,8,0:0:0:0:
256,192,151882,1,8,0:0:0:0:
256,192,152060,1,8,0:0:0:0:
256,192,152239,1,0,0:0:0:0:
256,192,152418,1,8,0:0:0:0:
256,192,152596,1,0,0:0:0:0:
256,192,152685,1,8,0:0:0:0:
256,192,152775,1,8,0:0:0:0:
256,192,152864,1,8,0:0:0:0:
256,192,152953,1,8,0:0:0:0:
256,192,153132,1,8,0:0:0:0:
256,192,153310,1,0,0:0:0:0:
256,192,153400,1,8,0:0:0:0:
256,192,153489,1,0,0:0:0:0:
256,192,153578,1,8,0:0:0:0:
256,192,153668,1,0,0:0:0:0:
256,192,153846,1,8,0:0:0:0:
256,192,154025,1,0,0:0:0:0:
256,192,154203,1,8,0:0:0:0:
256,192,154382,1,8,0:0:0:0:
256,192,154560,1,0,0:0:0:0:
256,192,154739,1,8,0:0:0:0:
256,192,154918,1,0,0:0:0:0:
256,192,155096,1,0,0:0:0:0:
256,192,155275,1,8,0:0:0:0:
256,192,155453,1,0,0:0:0:0:
256,192,155543,1,8,0:0:0:0:
256,192,155632,1,8,0:0:0:0:
256,192,155721,1,8,0:0:0:0:
256,192,155810,1,8,0:0:0:0:
256,192,155989,1,0,0:0:0:0:
256,192,156168,1,8,0:0:0:0:
256,192,156346,1,0,0:0:0:0:
256,192,156435,1,8,0:0:0:0:
256,192,156525,1,8,0:0:0:0:
256,192,156703,1,8,0:0:0:0:
256,192,156882,1,0,0:0:0:0:
256,192,157060,1,0,0:0:0:0:
256,192,157239,1,8,0:0:0:0:
256,192,157418,1,8,0:0:0:0:
256,192,157596,1,0,0:0:0:0:
256,192,157775,1,8,0:0:0:0:
256,192,157953,1,0,0:0:0:0:
256,192,158489,1,0,0:0:0:0:
256,192,159025,1,0,0:0:0:0:
256,192,159203,12,0,161168,0:0:0:0:
