osu file format v14

[General]
AudioFilename: Marble Soda.mp3
AudioLeadIn: 0
PreviewTime: 67852
Countdown: 0
SampleSet: Normal
StackLeniency: 0.7
Mode: 0
LetterboxInBreaks: 0
WidescreenStoryboard: 0

[Editor]
Bookmarks: 12227,23656,35084,40798,67048,69370,103656,126513,149370
DistanceSpacing: 1.5
BeatDivisor: 4
GridSize: 32
TimelineZoom: 3.999999

[Metadata]
Title:Marble Soda
TitleUnicode:Marble Soda
Artist:Shawn Wasabi
ArtistUnicode:Shawn Wasabi
Creator:Shroom
Version:LOLYOU
Source:
Tags:
BeatmapID:730731
BeatmapSetID:329592

[Difficulty]
HPDrainRate:5
CircleSize:4.1
OverallDifficulty:8
ApproachRate:9.6
SliderMultiplier:2.3
SliderTickRate:1

[Events]
//Background and Video events
0,0,"marble soda bg.jpg",0,0
//Break Periods
2,23776,26015
2,103867,112443
//Storyboard Layer 0 (Background)
//Storyboard Layer 1 (Fail)
//Storyboard Layer 2 (Pass)
//Storyboard Layer 3 (Foreground)
//Storyboard Sound Samples

[TimingPoints]
810,357.142857142857,4,1,0,75,1,0
810,-100,4,1,0,75,0,0
3667,-100,4,1,0,75,0,0
4202,-100,4,1,0,75,0,0
10809,-153.846153846153,4,1,0,75,0,0
11167,-133.333333333333,4,1,0,75,0,0
12238,-100,4,1,0,75,0,0
12595,-111.111111111111,4,1,0,75,0,0
14381,-133.333333333333,4,1,0,75,0,0
14559,-100,4,1,0,75,0,0
17952,-111.111111111111,4,1,0,75,0,0
18131,-100,4,1,0,75,0,0
21524,-100,4,1,0,75,0,0
21881,-100,4,1,0,75,0,0
26881,-133.333333333333,4,1,0,75,0,0
30084,-100,4,1,0,75,0,0
31602,-100,4,1,0,75,0,0
33577,-166.666666666667,4,1,0,75,0,0
34024,-100,4,1,0,75,0,0
34738,-166.666666666667,4,1,0,75,0,0
34827,-166.666666666667,4,1,0,5,0,0
34917,-166.666666666667,4,1,0,75,0,0
35006,-166.666666666667,4,1,0,5,0,0
35095,-100,4,1,0,75,0,0
35452,-100,4,1,0,75,0,0
37238,-200,4,1,0,75,0,0
37908,-111.111111111111,4,1,0,75,0,0
38399,-100,4,1,0,75,0,0
39024,-181.818181818181,4,1,0,75,0,0
39381,-100,4,1,0,75,0,0
40452,-100,4,1,0,75,0,0
40720,-100,4,1,0,75,0,0
41479,-100,4,1,0,75,0,0
41970,-100,4,1,0,75,0,0
42417,-99.9999999999999,4,1,0,75,0,0
42595,-100,4,1,0,75,0,0
43667,-100,4,1,0,75,0,0
44292,-100,4,1,0,75,0,0
44917,-100,4,1,0,75,0,0
45363,-100,4,1,0,75,0,0
45809,-111.111111111111,4,1,0,75,0,0
46256,-125,4,1,0,75,0,0
46881,-166.666666666667,4,1,0,75,0,0
52238,-125,4,1,0,75,0,0
56345,-100,4,1,0,75,0,0
56702,-125,4,1,0,75,0,0
61524,-111.111111111111,4,1,0,75,0,0
61792,-125,4,1,0,75,0,0
62952,-99.9999999999999,4,1,0,75,0,0
63309,-125,4,1,0,75,0,0
66524,-142.857142857143,4,1,0,75,0,0
67595,-166.666666666666,4,1,0,75,0,0
70095,-125,4,1,0,75,0,0
70274,-125,4,3,0,5,0,0
70363,-125,4,1,0,75,0,0
70542,-125,4,3,0,5,0,0
70631,-125,4,1,0,75,0,0
70899,-166.666666666666,4,1,0,75,0,0
71167,-166.666666666666,4,1,0,75,0,0
71524,-166.666666666666,4,1,0,75,0,0
71702,-166.666666666666,4,2,0,5,0,0
71792,-133.333333333333,4,1,0,75,0,0
71970,-117.647058823529,4,3,0,5,0,0
72059,-117.647058823529,4,1,0,75,0,0
72417,-117.647058823529,4,1,0,75,0,0
73042,-90.9090909090909,4,1,0,75,0,0
73209,-100,4,1,0,75,0,0
73399,-100,4,3,0,5,0,0
73488,-100,4,1,0,75,0,0
73577,-100,4,1,0,75,0,0
73667,-125,4,1,0,75,0,0
73845,-125,4,1,0,75,0,0
74381,-166.666666666667,4,1,0,75,0,0
75809,-125,4,1,0,75,0,0
75988,-125,4,3,0,5,0,0
76077,-125,4,1,0,75,0,0
76256,-125,4,3,0,5,0,0
76345,-125,4,1,0,75,0,0
76881,-166.666666666667,4,1,0,75,0,0
77238,-166.666666666667,4,1,0,75,0,0
77417,-166.666666666667,4,3,0,5,0,0
77506,-125,4,1,0,75,0,0
77684,-125,4,3,0,5,0,0
77774,-125,4,1,0,75,0,0
79013,-100,4,1,0,75,0,0
79202,-125,4,1,0,75,0,0
79738,-76.9230769230769,4,1,0,75,0,0
80095,-125,4,1,0,75,0,0
80452,-125,4,1,0,75,0,0
80542,-125,4,3,0,5,0,0
80631,-125,4,1,0,75,0,0
80720,-125,4,3,0,5,0,0
80809,-125,4,1,0,75,0,0
84024,-166.666666666667,4,1,0,75,0,0
84292,-125,4,1,0,75,0,0
87193,-125,4,1,0,75,0,0
89381,-100,4,1,0,75,0,0
89917,-142.857142857143,4,1,0,75,0,0
90631,-111.111111111111,4,1,0,75,0,0
91524,-83.3333333333333,4,1,0,75,0,0
91881,-111.111111111111,4,1,0,75,0,0
92059,-125,4,1,0,75,0,0
95095,-100,4,1,0,75,0,0
95363,-125,4,1,0,75,0,0
95452,-166.666666666667,4,1,0,75,0,0
95720,-125,4,1,0,75,0,0
96881,-125,4,1,0,75,0,0
97059,-125,4,1,0,75,0,0
97238,-99.9999999999999,4,1,0,75,0,0
97417,-111.111111111111,4,1,0,75,0,0
97595,-99.9999999999999,4,1,0,75,0,0
97863,-111.111111111111,4,1,0,75,0,0
97952,-100,4,1,0,75,0,0
98220,-125,4,1,0,75,0,0
98667,-100,4,1,0,75,0,0
98934,-125,4,1,0,75,0,0
102059,-100,4,1,0,75,0,0
102417,-125,4,1,0,75,0,0
115006,-125,4,1,0,75,0,0
115809,-200,4,1,0,75,0,0
116881,-166.666666666667,4,1,0,75,0,0
124917,-166.666666666667,4,1,0,75,0,0
126156,-83.3333333333333,4,1,0,50,0,0
126479,-100,4,1,0,75,0,0
126513,-111.111111111111,4,1,0,75,0,0
129292,-100,4,1,0,75,0,0
130095,-111.111111111111,4,1,0,75,0,0
132238,-111.111111111111,4,1,0,75,0,0
132595,-125,4,1,0,75,0,0
132952,-100,4,1,0,75,0,0
133309,-125,4,1,0,75,0,0
134381,-111.111111111111,4,1,0,75,0,0
134649,-125,4,1,0,75,0,0
138667,-100,4,1,0,75,0,0
139024,-125,4,1,0,75,0,0
139201,-125,4,1,0,75,0,0
139559,-125,4,1,0,75,0,0
139738,-111.111111111111,4,1,0,75,0,0
140095,-166.666666666667,4,1,0,75,0,0
140274,-111.111111111111,4,1,0,75,0,0
140452,-166.666666666667,4,1,0,75,0,0
141524,-111.111111111111,4,1,0,75,0,0
141881,-166.666666666667,4,1,0,75,0,0
142952,-125,4,1,0,75,0,0
143042,-125,4,1,0,75,0,0
143488,-166.666666666667,4,1,0,75,0,0

[HitObjects]
285,192,810,5,0,0:0:0:0:
395,123,988,1,0,0:0:0:0:
381,295,1167,1,0,0:0:0:0:
290,29,1345,1,0,0:0:0:0:
261,315,1524,2,0,B|246:340|254:364|254:364|228:346|184:332,1,115
10,261,1881,5,0,0:0:0:0:
250,218,2059,1,0,0:0:0:0:
143,353,2238,1,0,0:0:0:0:
47,139,2417,1,0,0:0:0:0:
261,316,2595,2,0,B|309:312|336:288|336:288|325:274|305:271,1,115
81,333,2952,5,0,0:0:0:0:
164,71,3131,1,0,0:0:0:0:
274,198,3309,1,0,0:0:0:0:
3,129,3488,1,0,0:0:0:0:
280,125,3667,6,0,B|326:156|326:156|343:219,1,115
190,362,4024,2,0,B|144:330|144:330|128:273,1,115
341,213,4381,1,0,0:0:0:0:
364,311,4559,1,0,0:0:0:0:
128,273,4738,5,0,0:0:0:0:
105,175,4916,1,0,0:0:0:0:
346,86,5095,2,0,P|388:122|389:183,1,115
337,224,5363,1,0,0:0:0:0:
320,157,5452,2,0,L|426:107,1,115
196,302,5809,5,0,0:0:0:0:
40,176,5988,1,0,0:0:0:0:
346,86,6167,1,0,0:0:0:0:
338,137,6256,1,0,0:0:0:0:
337,188,6345,1,0,0:0:0:0:
351,237,6434,1,0,0:0:0:0:
373,284,6524,1,0,0:0:0:0:
448,158,6702,1,0,0:0:0:0:
335,384,6881,5,0,0:0:0:0:
255,236,7059,1,0,0:0:0:0:
346,86,7238,2,0,B|316:63|257:98|216:74,1,115
62,80,7595,5,0,0:0:0:0:
38,240,7774,1,0,0:0:0:0:
147,161,7952,1,0,0:0:0:0:
62,80,8131,1,0,0:0:0:0:
298,163,8309,5,0,0:0:0:0:
213,81,8488,1,0,0:0:0:0:
157,240,8667,1,0,0:0:0:0:
349,185,8845,1,0,0:0:0:0:
14,133,9024,1,0,0:0:0:0:
390,87,9202,1,0,0:0:0:0:
390,87,9292,1,0,0:0:0:0:
390,87,9381,5,0,0:0:0:0:
512,68,9559,1,0,0:0:0:0:
347,230,9738,1,0,0:0:0:0:
238,99,9917,1,0,0:0:0:0:
510,210,10095,1,0,0:0:0:0:
214,209,10274,1,0,0:0:0:0:
390,87,10452,5,0,0:0:0:0:
238,337,10631,1,0,0:0:0:0:
87,87,10809,2,0,P|105:29|121:-5,2,74.7499965782167
35,304,11345,1,0,0:0:0:0:
196,217,11524,1,0,0:0:0:0:
240,208,11613,1,0,0:0:0:0:
284,217,11702,1,0,0:0:0:0:
324,237,11792,1,0,0:0:0:0:
365,256,11881,1,0,0:0:0:0:
408,265,11970,1,0,0:0:0:0:
452,258,12059,1,0,0:0:0:0:
482,223,12149,1,0,0:0:0:0:
478,177,12238,2,0,B|468:133|504:107|504:107|450:77|450:77|488:48|479:-2,1,230
322,129,12774,5,0,0:0:0:0:
322,129,12863,1,0,0:0:0:0:
322,129,12952,1,0,0:0:0:0:
371,308,13131,1,0,0:0:0:0:
200,165,13309,1,0,0:0:0:0:
292,342,13488,1,0,0:0:0:0:
100,237,13667,1,0,0:0:0:0:
222,382,13845,1,0,0:0:0:0:
108,338,14024,5,0,0:0:0:0:
199,268,14202,1,0,0:0:0:0:
199,268,14381,2,0,P|214:229|228:166,1,86.2500032901765
255,33,14738,1,0,0:0:0:0:
295,200,14917,1,0,0:0:0:0:
304,237,15006,1,0,0:0:0:0:
318,272,15095,1,0,0:0:0:0:
472,337,15274,5,0,0:0:0:0:
443,181,15452,1,0,0:0:0:0:
404,175,15542,1,0,0:0:0:0:
371,196,15631,1,0,0:0:0:0:
353,230,15720,1,0,0:0:0:0:
358,268,15809,1,0,0:0:0:0:
107,140,15988,5,0,0:0:0:0:
346,181,16167,1,0,0:0:0:0:
174,245,16345,1,0,0:0:0:0:
263,86,16524,1,0,0:0:0:0:
260,124,16613,1,0,0:0:0:0:
276,158,16702,1,0,0:0:0:0:
308,179,16792,1,0,0:0:0:0:
346,181,16881,1,0,0:0:0:0:
405,25,17059,1,0,0:0:0:0:
349,183,17238,5,0,0:0:0:0:
265,53,17417,1,0,0:0:0:0:
487,147,17595,1,0,0:0:0:0:
394,241,17774,1,0,0:0:0:0:
263,279,17952,6,0,P|280:329|343:372,1,103.499996841431
104,277,18309,5,0,0:0:0:0:
98,238,18399,1,0,0:0:0:0:
84,202,18488,1,0,0:0:0:0:
63,169,18577,1,0,0:0:0:0:
37,140,18667,1,0,0:0:0:0:
119,44,18845,1,0,0:0:0:0:
248,71,19024,5,0,0:0:0:0:
274,100,19113,1,0,0:0:0:0:
295,133,19202,1,0,0:0:0:0:
309,169,19292,1,0,0:0:0:0:
315,208,19381,1,0,0:0:0:0:
369,341,19559,1,0,0:0:0:0:
422,252,19738,1,0,0:0:0:0:
277,334,19917,1,0,0:0:0:0:
59,196,20095,5,0,0:0:0:0:
176,272,20274,1,0,0:0:0:0:
284,188,20452,1,0,0:0:0:0:
261,217,20541,1,0,0:0:0:0:
253,254,20630,1,0,0:0:0:0:
258,291,20719,1,0,0:0:0:0:
279,323,20809,1,0,0:0:0:0:
353,271,20988,5,0,0:0:0:0:
442,78,21167,1,0,0:0:0:0:
483,289,21345,1,0,0:0:0:0:
326,134,21524,2,0,P|296:181|293:251,2,115
185,6,22059,1,0,0:0:0:0:
369,69,22238,1,0,0:0:0:0:
333,84,22327,1,0,0:0:0:0:
303,108,22417,1,0,0:0:0:0:
284,141,22506,1,0,0:0:0:0:
270,177,22595,5,0,0:0:0:0:
263,214,22684,1,0,0:0:0:0:
255,252,22774,1,0,0:0:0:0:
243,288,22863,1,0,0:0:0:0:
217,316,22952,5,0,0:0:0:0:
181,330,23042,1,0,0:0:0:0:
142,330,23131,1,0,0:0:0:0:
110,307,23220,1,0,0:0:0:0:
93,272,23309,2,0,L|82:193,3,57.5
136,151,26524,5,0,0:0:0:0:
292,211,26881,2,0,P|308:166|309:119,2,86.2500032901765
121,287,27595,2,0,L|154:375,1,86.2500032901765
238,98,27952,2,0,L|270:5,1,86.2500032901765
79,77,28309,1,0,0:0:0:0:
195,205,28488,1,0,0:0:0:0:
195,205,28577,1,0,0:0:0:0:
195,205,28667,1,0,0:0:0:0:
309,322,28845,1,0,0:0:0:0:
140,347,29024,5,0,0:0:0:0:
114,322,29113,1,0,0:0:0:0:
88,297,29202,1,0,0:0:0:0:
62,272,29292,1,0,0:0:0:0:
37,246,29381,1,0,0:0:0:0:
37,246,29917,5,0,0:0:0:0:
163,262,30095,2,0,L|210:269,8,28.75
415,159,30988,5,0,0:0:0:0:
341,169,31167,2,0,L|313:166,8,28.75
142,126,32059,5,0,0:0:0:0:
125,199,32149,1,0,0:0:0:0:
108,271,32238,1,0,0:0:0:0:
256,335,32417,1,0,0:0:0:0:
333,222,32774,5,0,0:0:0:0:
465,171,32952,1,0,0:0:0:0:
257,73,33309,5,0,0:0:0:0:
257,143,33399,1,0,0:0:0:0:
257,212,33488,1,0,0:0:0:0:
257,281,33577,2,0,B|230:321|230:321|217:357|251:368|275:366|285:354|294:328|279:309|262:313|250:326|256:346|256:349,1,172.499994735718
67,349,34381,5,0,0:0:0:0:
82,300,34500,5,0,0:0:0:0:
132,289,34619,5,0,0:0:0:0:
145,235,34738,6,0,L|180:220,1,35
164,135,34917,6,0,L|147:95,1,35
256,89,35095,6,0,B|247:129|271:174|271:174|223:209|223:209|245:246|233:293,1,230
32,179,35631,1,0,0:0:0:0:
114,268,35809,1,0,0:0:0:0:
148,70,36167,5,0,0:0:0:0:
114,268,36345,1,0,0:0:0:0:
176,236,36434,1,0,0:0:0:0:
239,204,36524,1,0,0:0:0:0:
32,179,36702,1,0,0:0:0:0:
239,204,36881,1,0,0:0:0:0:
42,70,37059,1,0,0:0:0:0:
351,80,37238,2,0,L|374:82,1,19.1666666666667
322,216,37417,6,0,L|340:228,1,19.1666666666667
223,311,37595,6,0,L|233:336,1,19.1666666666667
82,337,37774,6,0,L|78:360,1,19.1666666666667
186,232,37952,6,0,P|210:204|234:125,2,103.499996841431
125,287,38488,5,0,0:0:0:0:
262,53,38667,1,0,0:0:0:0:
61,101,38845,1,0,0:0:0:0:
329,226,39024,2,0,L|367:243,1,31.6250009651184
361,310,39202,2,0,L|395:326,1,31.6250009651184
438,267,39381,5,0,0:0:0:0:
470,86,39559,1,0,0:0:0:0:
377,202,39738,1,0,0:0:0:0:
410,0,39917,1,0,0:0:0:0:
401,55,40006,1,0,0:0:0:0:
393,110,40095,1,0,0:0:0:0:
312,14,40274,1,0,0:0:0:0:
479,211,40452,2,0,B|510:247|528:293|528:293|512:297|496:295,1,115
321,313,40809,6,0,B|277:319|232:350|232:350|224:334|211:321|211:321|230:313|253:297,1,172.5
396,254,41167,2,0,P|419:303|406:363,1,115
357,173,41524,2,0,B|310:138|250:138|250:138|203:177|201:239,1,230
105,104,42059,1,0,0:0:0:0:
104,173,42149,1,0,0:0:0:0:
107,241,42238,1,0,0:0:0:0:
268,41,42417,2,0,P|267:94|269:157,1,115
274,297,42774,5,0,0:0:0:0:
390,190,42952,1,0,0:0:0:0:
128,233,43131,1,0,0:0:0:0:
203,380,43309,1,0,0:0:0:0:
307,137,43488,1,0,0:0:0:0:
70,100,43667,2,0,P|17:148|137:126,1,345
86,171,44292,1,0,0:0:0:0:
86,171,44381,1,0,0:0:0:0:
256,192,44738,5,0,0:0:0:0:
452,42,44917,2,0,B|445:90|402:114|402:114|423:159|423:159|387:185|379:233,1,230
379,233,45363,1,0,0:0:0:0:
379,233,45452,1,0,0:0:0:0:
302,50,45631,1,0,0:0:0:0:
493,313,45809,2,0,B|510:268|510:268|494:238|494:238|538:206|477:208|512:119,1,206.999993682861
393,224,46345,2,0,P|385:258|363:325,1,92
290,334,46881,2,0,P|301:297|319:248,1,68.9999978942872
364,130,47238,1,0,0:0:0:0:
209,212,47595,6,0,P|205:248|189:278,1,68.9999978942872
120,293,47863,1,0,0:0:0:0:
136,223,47952,1,0,0:0:0:0:
443,263,48131,1,0,0:0:0:0:
213,344,48309,1,0,0:0:0:0:
59,167,48488,1,0,0:0:0:0:
157,40,48667,5,0,0:0:0:0:
209,212,48845,1,0,0:0:0:0:
70,339,49024,1,0,0:0:0:0:
186,208,49202,1,0,0:0:0:0:
289,271,49381,5,0,0:0:0:0:
307,149,49559,1,0,0:0:0:0:
325,27,49738,1,0,0:0:0:0:
432,334,50095,5,0,0:0:0:0:
465,153,50274,1,0,0:0:0:0:
325,27,50452,1,0,0:0:0:0:
336,72,50542,1,0,0:0:0:0:
333,117,50631,1,0,0:0:0:0:
321,160,50720,1,0,0:0:0:0:
306,203,50809,5,0,0:0:0:0:
282,242,50899,1,0,0:0:0:0:
268,285,50988,1,0,0:0:0:0:
280,328,51077,1,0,0:0:0:0:
323,338,51167,5,0,0:0:0:0:
357,309,51256,1,0,0:0:0:0:
355,265,51345,1,0,0:0:0:0:
319,242,51434,1,0,0:0:0:0:
282,242,51524,2,0,L|241:206,3,34.4999989471436
188,228,51881,2,0,L|125:183,2,45.9999985961915
203,136,52238,2,0,B|189:75|88:113|79:9,1,184
171,11,52774,1,0,0:0:0:0:
23,157,52952,1,0,0:0:0:0:
23,157,53309,5,0,0:0:0:0:
241,204,53488,1,0,0:0:0:0:
190,245,53577,1,0,0:0:0:0:
183,311,53667,1,0,0:0:0:0:
115,47,53845,1,0,0:0:0:0:
104,314,54024,1,0,0:0:0:0:
217,89,54202,1,0,0:0:0:0:
0,218,54381,1,0,0:0:0:0:
242,65,54559,1,0,0:0:0:0:
104,314,54738,1,0,0:0:0:0:
28,73,54917,1,0,0:0:0:0:
222,244,55095,1,0,0:0:0:0:
222,244,55452,5,0,0:0:0:0:
316,312,55631,1,0,0:0:0:0:
354,137,55809,1,0,0:0:0:0:
226,375,55988,1,0,0:0:0:0:
428,227,56167,1,0,0:0:0:0:
135,97,56345,2,0,B|148:140|98:164|98:164|146:195|146:195|94:222|104:269,1,230
173,264,56792,5,0,0:0:0:0:
173,264,56881,1,0,0:0:0:0:
247,26,57059,1,0,0:0:0:0:
53,181,57238,1,0,0:0:0:0:
68,216,57327,1,0,0:0:0:0:
69,254,57417,1,0,0:0:0:0:
61,291,57506,1,0,0:0:0:0:
58,329,57595,5,0,0:0:0:0:
83,357,57684,1,0,0:0:0:0:
121,351,57774,1,0,0:0:0:0:
146,322,57863,1,0,0:0:0:0:
132,286,57952,1,0,0:0:0:0:
15,109,58131,1,0,0:0:0:0:
132,286,58488,5,0,0:0:0:0:
225,130,58667,1,0,0:0:0:0:
306,290,58845,1,0,0:0:0:0:
131,284,59024,5,0,0:0:0:0:
376,329,59202,1,0,0:0:0:0:
300,96,59381,1,0,0:0:0:0:
132,286,59559,1,0,0:0:0:0:
376,84,59738,6,0,L|439:87,1,46
132,286,60095,5,0,0:0:0:0:
389,195,60274,2,0,L|448:196,1,46
466,256,60452,5,0,0:0:0:0:
209,165,60631,2,0,L|151:166,1,46
125,215,60809,5,0,0:0:0:0:
58,91,60988,1,0,0:0:0:0:
262,231,61167,1,0,0:0:0:0:
120,340,61345,1,0,0:0:0:0:
200,85,61524,2,0,P|207:142|203:213,1,103.499996841431
197,278,61881,5,0,0:0:0:0:
339,224,62059,1,0,0:0:0:0:
46,248,62238,1,0,0:0:0:0:
309,323,62417,1,0,0:0:0:0:
83,142,62595,1,0,0:0:0:0:
194,382,62774,1,0,0:0:0:0:
356,166,62952,2,0,P|286:102|146:111,1,230
83,142,63488,5,0,0:0:0:0:
203,304,63667,1,0,0:0:0:0:
203,265,63756,1,0,0:0:0:0:
223,232,63845,1,0,0:0:0:0:
213,194,63934,1,0,0:0:0:0:
235,162,64024,1,0,0:0:0:0:
224,125,64113,1,0,0:0:0:0:
244,92,64202,1,0,0:0:0:0:
231,57,64292,1,0,0:0:0:0:
261,38,64381,1,0,0:0:0:0:
136,98,64559,5,0,0:0:0:0:
334,135,64738,1,0,0:0:0:0:
137,198,64917,1,0,0:0:0:0:
261,38,65095,1,0,0:0:0:0:
417,192,65274,1,0,0:0:0:0:
417,192,65452,2,0,B|432:244|387:284|408:342,1,138
407,354,65809,1,0,0:0:0:0:
314,266,65988,2,0,P|308:323|311:368,1,92
219,329,66345,1,0,0:0:0:0:
219,329,66524,2,0,B|166:227|69:369|20:247,1,241.499992630005
92,226,67149,5,0,0:0:0:0:
92,226,67238,1,0,0:0:0:0:
0,323,67417,1,0,0:0:0:0:
201,109,67595,2,0,B|319:50|377:157|377:157|325:244|405:321,1,379.499988418579
463,225,68667,1,0,0:0:0:0:
321,195,69024,5,0,0:0:0:0:
336,322,69202,1,0,0:0:0:0:
449,86,69381,2,0,L|467:45,1,35
431,60,69738,2,0,L|449:19,1,35
268,50,70095,2,0,B|256:96|256:96|280:132,1,92
174,115,70363,2,0,B|194:157|194:157|239:176,1,92
140,232,70631,2,0,B|182:251|182:251|233:234,1,92
315,213,70988,1,0,0:0:0:0:
55,257,71167,6,0,P|68:188|65:166,1,68.9999978942872
73,138,71434,1,0,0:0:0:0:
73,138,71524,2,0,P|114:191|142:203,1,68.9999978942872
180,146,71792,2,0,P|207:177|259:196,1,86.2500032901765
286,127,72059,2,0,P|334:141|390:124,1,97.7500018644333
469,32,72417,5,0,0:0:0:0:
390,297,72595,1,0,0:0:0:0:
508,159,72774,1,0,0:0:0:0:
319,31,72952,1,0,0:0:0:0:
319,31,73042,2,0,L|248:45,1,63.2500019302369
165,81,73220,2,0,L|286:109,1,115
338,140,73488,2,0,L|257:155,1,57.5
171,183,73667,2,0,L|270:202,1,92
486,237,74024,2,0,L|377:225,1,92
268,295,74381,6,0,P|287:315|334:325,1,68.9999978942872
202,277,74649,2,0,P|205:319|219:346,1,68.9999978942872
148,230,74917,2,0,P|133:262|134:308,1,68.9999978942872
247,179,75274,1,0,0:0:0:0:
68,151,75452,2,0,P|71:200|83:241,1,68.9999978942872
244,334,75809,2,0,B|254:291|254:291|228:250,1,92
338,269,76077,2,0,B|318:228|318:228|271:213,1,92
367,160,76345,2,0,B|326:141|326:141|279:157,1,92
183,172,76702,1,0,0:0:0:0:
457,127,76881,6,0,P|444:196|446:214,1,68.9999978942872
439,246,77149,1,0,0:0:0:0:
439,246,77238,2,0,P|398:193|368:181,1,68.9999978942872
332,238,77506,2,0,P|274:241|227:278,1,92
389,334,77774,2,0,L|299:310,1,92
256,192,78042,12,0,79024,0:0:0:0:
159,75,79202,6,0,B|194:173|90:166|125:284,1,184
195,236,79649,1,0,0:0:0:0:
195,236,79738,2,0,L|44:170,1,149.499993156433
385,322,80095,2,0,P|403:271|457:199,1,138
412,149,80452,2,0,L|458:91,1,46
390,60,80631,2,0,L|433:0,1,46
323,248,80809,2,0,P|271:317|161:315,1,184
211,210,81345,1,0,0:0:0:0:
422,287,81524,1,0,0:0:0:0:
422,74,81881,5,0,0:0:0:0:
259,44,82059,1,0,0:0:0:0:
284,82,82149,1,0,0:0:0:0:
301,123,82238,2,0,P|320:182|329:241,1,92
326,294,82595,5,0,0:0:0:0:
213,149,82774,1,0,0:0:0:0:
156,321,82952,1,0,0:0:0:0:
326,294,83131,1,0,0:0:0:0:
119,115,83309,1,0,0:0:0:0:
75,381,83488,1,0,0:0:0:0:
326,294,83667,2,0,B|302:245|321:198|308:204|296:131,1,138
385,243,84024,2,0,P|399:286|401:357,1,103.499996841431
471,342,84381,2,0,P|470:298|460:251,1,61.3333333333333
251,166,84738,6,0,L|272:262,1,92
512,81,85095,2,0,L|490:-13,1,92
312,81,85452,6,0,L|324:125,1,46
177,9,85809,2,0,P|165:130|120:185,1,184
13,51,86345,1,0,0:0:0:0:
196,273,86524,2,0,B|227:305|252:327|252:327|243:343|241:362|241:362|225:344|204:333,1,138
112,335,86881,2,0,P|73:297|30:256,1,92
230,370,87238,6,0,B|249:358|279:354|279:354|308:323|308:323|340:319|357:303,1,138
413,282,87595,1,0,0:0:0:0:
407,104,87774,1,0,0:0:0:0:
414,172,87863,1,0,0:0:0:0:
420,240,87952,1,0,0:0:0:0:
244,41,88131,2,0,P|245:94|243:148,1,92
238,297,88488,5,0,0:0:0:0:
122,190,88667,1,0,0:0:0:0:
384,233,88845,1,0,0:0:0:0:
309,380,89024,1,0,0:0:0:0:
205,137,89202,1,0,0:0:0:0:
449,104,89381,2,0,P|458:233|375:128,1,345
434,174,90006,1,0,0:0:0:0:
434,174,90095,1,0,0:0:0:0:
256,232,90452,5,0,0:0:0:0:
60,42,90631,2,0,P|99:113|131:245,1,206.999993682861
131,237,91077,1,0,0:0:0:0:
131,237,91167,1,0,0:0:0:0:
210,50,91345,1,0,0:0:0:0:
19,313,91524,2,0,B|0:288|0:288|25:269|25:269|-14:250|-14:250|25:232|25:232|-23:209|-23:209|10:182|-2:142,1,275.999991577149
103,264,92059,2,0,P|115:321|125:355,1,92
232,383,92595,5,0,0:0:0:0:
298,299,92774,1,0,0:0:0:0:
404,307,92952,1,0,0:0:0:0:
195,271,93309,5,0,0:0:0:0:
345,212,93488,1,0,0:0:0:0:
399,189,93577,1,0,0:0:0:0:
453,167,93667,1,0,0:0:0:0:
223,123,93845,1,0,0:0:0:0:
298,344,94024,1,0,0:0:0:0:
453,167,94202,1,0,0:0:0:0:
355,40,94381,5,0,0:0:0:0:
159,288,94559,1,0,0:0:0:0:
442,339,94738,1,0,0:0:0:0:
326,208,94917,1,0,0:0:0:0:
339,334,95095,2,0,P|419:307|452:227,1,172.5
430,209,95452,2,0,L|413:137,1,68.9999978942872
293,24,95809,5,0,0:0:0:0:
293,24,95899,1,0,0:0:0:0:
293,24,95988,1,0,0:0:0:0:
166,97,96167,1,0,0:0:0:0:
385,82,96345,1,0,0:0:0:0:
372,125,96434,1,0,0:0:0:0:
376,170,96524,5,0,0:0:0:0:
395,211,96613,1,0,0:0:0:0:
413,252,96702,1,0,0:0:0:0:
404,297,96792,1,0,0:0:0:0:
377,333,96881,2,0,P|341:354|290:349,1,92
217,174,97238,2,0,L|305:259,1,115
192,281,97595,6,0,L|128:219,2,76.6666666666667
126,325,97952,2,0,L|-2:201,1,172.5
19,162,98309,1,0,0:0:0:0:
199,344,98488,1,0,0:0:0:0:
273,106,98667,2,0,P|186:89|98:122,1,172.5
64,139,99024,5,0,0:0:0:0:
333,19,99202,1,0,0:0:0:0:
371,76,99292,1,0,0:0:0:0:
408,133,99381,1,0,0:0:0:0:
496,258,99559,1,0,0:0:0:0:
428,69,99738,1,0,0:0:0:0:
397,291,99917,1,0,0:0:0:0:
283,114,100095,5,0,0:0:0:0:
483,164,100274,1,0,0:0:0:0:
114,223,100452,5,0,0:0:0:0:
154,23,100631,1,0,0:0:0:0:
233,182,100809,5,0,0:0:0:0:
207,305,100988,1,0,0:0:0:0:
140,94,101167,1,0,0:0:0:0:
260,57,101345,1,0,0:0:0:0:
114,223,101524,1,0,0:0:0:0:
13,132,101702,1,0,0:0:0:0:
233,182,101881,1,0,0:0:0:0:
344,370,102059,2,0,P|433:287|428:182,1,230
422,176,102506,6,0,L|451:134,1,46
279,319,102774,1,0,0:0:0:0:
372,154,102952,1,0,0:0:0:0:
403,98,103042,1,0,0:0:0:0:
380,39,103131,2,0,L|350:-8,1,46
271,204,103309,1,0,0:0:0:0:
302,260,103399,1,0,0:0:0:0:
279,319,103488,2,0,L|254:357,1,46
144,272,103667,1,0,0:0:0:0:
256,192,112952,12,0,115095,0:0:0:0:
387,101,115452,5,0,0:0:0:0:
304,63,115631,1,0,0:0:0:0:
317,153,115809,2,0,B|329:183|322:210|350:264,1,115
117,384,116345,1,0,0:0:0:0:
207,371,116523,2,0,B|237:358|264:365|318:337,1,115
136,208,117059,1,0,0:0:0:0:
353,142,117238,1,0,0:0:0:0:
353,142,117595,5,0,0:0:0:0:
250,91,117774,1,0,0:0:0:0:
404,26,117952,1,0,0:0:0:0:
427,195,118131,2,0,P|436:251|437:288,1,68.9999978942872
251,146,118488,5,0,0:0:0:0:
97,81,118667,1,0,0:0:0:0:
74,250,118845,2,0,B|109:282|109:282|125:318,1,68.9999978942872
251,203,119202,5,0,0:0:0:0:
405,138,119381,1,0,0:0:0:0:
428,307,119559,2,0,B|401:331|401:331|375:375,1,68.9999978942872
251,250,119917,5,0,0:0:0:0:
145,105,120095,1,0,0:0:0:0:
131,314,120274,1,0,0:0:0:0:
258,29,120452,1,0,0:0:0:0:
131,314,120809,5,0,0:0:0:0:
80,91,120988,1,0,0:0:0:0:
131,314,121167,1,0,0:0:0:0:
24,351,121345,1,0,0:0:0:0:
233,282,121524,5,0,0:0:0:0:
289,36,121703,1,0,0:0:0:0:
233,282,121882,1,0,0:0:0:0:
350,322,122060,1,0,0:0:0:0:
123,242,122238,5,0,0:0:0:0:
83,63,122417,1,0,0:0:0:0:
350,322,122595,5,0,0:0:0:0:
490,206,122774,1,0,0:0:0:0:
123,242,122952,1,0,0:0:0:0:
52,139,123131,1,0,0:0:0:0:
462,286,123309,1,0,0:0:0:0:
233,282,123488,1,0,0:0:0:0:
249,243,123577,1,0,0:0:0:0:
265,204,123667,1,0,0:0:0:0:
256,192,123756,12,0,125095,0:0:0:0:
67,188,125452,5,0,0:0:0:0:
208,158,125809,1,0,0:0:0:0:
57,136,126167,6,0,L|104:147,1,35
49,116,126256,6,0,L|96:137,1,35
45,96,126345,6,0,L|79:127,1,35
44,77,126434,6,0,L|66:121,1,35
35,46,126524,6,0,B|64:37|83:53|83:53|122:44|122:44|147:58|147:58|185:42|237:37,1,206.999993682861
377,47,127059,1,0,0:0:0:0:
116,171,127238,2,0,P|129:232|256:304,1,206.999993682861
383,312,127774,1,0,0:0:0:0:
214,49,127952,2,0,P|166:77|132:159,2,103.499996841431
317,97,128488,5,0,0:0:0:0:
329,167,128577,1,0,0:0:0:0:
390,200,128667,1,0,0:0:0:0:
418,98,128845,1,0,0:0:0:0:
242,260,129024,1,0,0:0:0:0:
367,12,129202,1,0,0:0:0:0:
179,136,129381,2,0,P|145:140|48:146,1,115
335,211,129738,2,0,P|369:215|469:217,1,115
58,12,130095,2,0,P|40:66|59:229,1,206.999993682861
149,283,130631,5,0,0:0:0:0:
130,95,130809,1,0,0:0:0:0:
57,328,130988,1,0,0:0:0:0:
31,95,131167,2,0,P|70:180|177:184,1,206.999993682861
298,162,131881,2,0,P|357:99|390:138,1,155.249995262146
446,81,132238,2,0,P|466:150|357:210,1,206.999993682861
261,262,132774,1,0,0:0:0:0:
512,237,132952,2,0,B|472:311|346:288|321:371,1,230
212,305,133488,5,0,0:0:0:0:
104,367,133667,1,0,0:0:0:0:
313,355,133845,1,0,0:0:0:0:
246,189,134024,1,0,0:0:0:0:
180,326,134202,1,0,0:0:0:0:
384,225,134381,2,0,B|398:198|384:164|384:164|405:138|405:138|390:109|405:78,1,155.249995262146
414,56,134738,1,0,0:0:0:0:
414,56,134917,5,0,0:0:0:0:
281,40,135095,1,0,0:0:0:0:
288,84,135184,1,0,0:0:0:0:
311,123,135274,1,0,0:0:0:0:
332,163,135363,1,0,0:0:0:0:
344,206,135452,1,0,0:0:0:0:
432,80,135631,1,0,0:0:0:0:
207,231,135809,1,0,0:0:0:0:
281,40,135988,5,0,0:0:0:0:
454,234,136167,1,0,0:0:0:0:
429,195,136256,1,0,0:0:0:0:
394,164,136345,2,0,L|346:136,1,46
274,255,136524,1,0,0:0:0:0:
299,294,136613,1,0,0:0:0:0:
334,325,136702,2,0,L|382:353,1,46
127,351,136881,1,0,0:0:0:0:
274,255,137059,1,0,0:0:0:0:
188,338,137238,5,0,0:0:0:0:
41,242,137417,1,0,0:0:0:0:
127,351,137595,1,0,0:0:0:0:
143,308,137684,1,0,0:0:0:0:
150,262,137774,1,0,0:0:0:0:
150,216,137863,1,0,0:0:0:0:
140,171,137952,1,0,0:0:0:0:
92,29,138131,1,0,0:0:0:0:
228,138,138309,1,0,0:0:0:0:
4,85,138488,1,0,0:0:0:0:
312,94,138667,6,0,P|345:95|420:57,2,115
107,215,139202,2,0,B|86:284|65:337|65:337|24:312|59:271,1,184
160,107,139738,2,0,P|159:52|189:-12,2,103.499996841431
189,234,140274,6,0,P|218:280|272:302,1,103.499996841431
292,191,140631,1,0,0:0:0:0:
321,74,140809,1,0,0:0:0:0:
350,39,140899,1,0,0:0:0:0:
395,34,140988,1,0,0:0:0:0:
426,66,141077,1,0,0:0:0:0:
427,111,141167,5,0,0:0:0:0:
395,124,141256,1,0,0:0:0:0:
364,138,141345,1,0,0:0:0:0:
335,157,141434,1,0,0:0:0:0:
308,178,141524,2,0,P|276:213|272:273,1,103.499996841431
324,315,141792,1,0,0:0:0:0:
339,245,141881,1,0,0:0:0:0:
140,295,142059,5,0,0:0:0:0:
172,196,142238,5,0,0:0:0:0:
202,96,142417,5,0,0:0:0:0:
352,246,142595,5,0,0:0:0:0:
165,215,142774,1,0,0:0:0:0:
48,45,142952,2,0,P|39:78|5:126,1,92
67,316,143309,2,0,P|76:282|113:230,1,92
6,214,143667,1,0,0:0:0:0:
233,42,143934,1,0,0:0:0:0:
168,316,144202,1,0,0:0:0:0:
72,42,144381,2,0,L|189:120,1,137.999995788574
297,188,144917,1,0,0:0:0:0:
478,110,145274,2,0,P|431:113|461:190,1,137.999995788574
363,22,145809,2,0,P|332:48|313:84,3,68.9999978942872
220,69,146524,5,0,0:0:0:0:
231,109,146881,1,0,0:0:0:0:
243,149,147238,1,0,0:0:0:0:
254,190,147595,5,0,0:0:0:0:
126,269,147774,1,0,0:0:0:0:
266,232,147952,1,0,0:0:0:0:
231,109,148131,1,0,0:0:0:0:
277,271,148309,2,0,B|291:306|283:345|283:345|303:336|331:315,1,103.499996841431
372,300,148667,5,0,0:0:0:0:
356,134,148845,1,0,0:0:0:0:
471,249,149024,1,0,0:0:0:0:
471,249,149202,1,0,0:0:0:0:
351,218,149381,5,0,0:0:0:0:
181,184,149559,1,0,0:0:0:0:
327,94,149738,1,0,0:0:0:0:
276,293,149917,5,0,0:0:0:0:
92,176,150095,1,0,0:0:0:0:
302,142,150274,1,0,0:0:0:0:
164,324,150452,5,0,0:0:0:0:
26,125,150630,1,0,0:0:0:0:
259,170,150809,1,0,0:0:0:0:
89,380,150988,5,0,0:0:0:0:
16,204,151167,1,0,0:0:0:0:
164,324,151345,5,0,0:0:0:0:
119,93,151524,1,0,0:0:0:0:
252,292,151702,5,0,0:0:0:0:
249,30,151881,1,0,0:0:0:0:
347,289,152059,5,0,0:0:0:0:
399,4,152238,1,0,0:0:0:0:
439,303,152417,5,0,0:0:0:0:
223,125,152596,1,0,0:0:0:0:
500,77,152774,1,0,0:0:0:0:
242,335,152952,5,0,0:0:0:0:
252,100,153131,1,0,0:0:0:0:
405,273,153309,1,0,0:0:0:0:
141,192,153488,5,0,0:0:0:0:
291,92,153666,1,0,0:0:0:0:
236,249,153845,1,0,0:0:0:0:
9,66,154024,5,0,0:0:0:0:
339,9,154202,1,0,0:0:0:0:
37,145,154381,5,0,0:0:0:0:
317,130,154559,1,0,0:0:0:0:
43,227,154738,5,0,0:0:0:0:
271,233,154917,1,0,0:0:0:0:
31,305,155095,5,0,0:0:0:0:
167,325,155274,1,0,0:0:0:0:
296,279,155452,1,0,0:0:0:0:
411,355,155631,1,0,0:0:0:0:
478,235,155809,5,0,0:0:0:0:
308,210,155988,1,0,0:0:0:0:
146,267,156166,1,0,0:0:0:0:
3,172,156345,1,0,0:0:0:0:
172,100,156524,5,0,0:0:0:0:
308,210,156702,1,0,0:0:0:0:
337,20,156881,1,0,0:0:0:0:
126,304,157059,1,0,0:0:0:0:
510,14,157238,1,0,0:0:0:0:
382,37,157595,5,0,0:0:0:0:
11,322,157774,1,0,0:0:0:0:
458,278,157952,1,0,0:0:0:0:
485,273,158488,1,0,0:0:0:0:
512,268,159024,1,0,0:0:0:0:
256,192,159113,12,0,161167,0:0:0:0:
