osu file format v14

[General]
AudioFilename: Shawn Wasabi Marble Soda (Mashup).mp3
AudioLeadIn: 0
PreviewTime: 57193
Countdown: 0
SampleSet: Soft
StackLeniency: 0.7
Mode: 3
LetterboxInBreaks: 0
SpecialStyle: 0
WidescreenStoryboard: 0

[Editor]
DistanceSpacing: 0.8
BeatDivisor: 3
GridSize: 32
TimelineZoom: 2.299999

[Metadata]
Title:Marble Soda
TitleUnicode:Marble Soda
Artist:Shawn Wasabi
ArtistUnicode:Shawn Wasabi
Creator:Hydria
Version:Normal
Source:
Tags:Chill Trap Mashup Pope Gadget
BeatmapID:967909
BeatmapSetID:451183

[Difficulty]
HPDrainRate:6.9
CircleSize:4
OverallDifficulty:7.1
ApproachRate:5
SliderMultiplier:1.4
SliderTickRate:1

[Events]
//Background and Video events
0,0,"dMhIUxP.jpg",0,0
//Break Periods
//Storyboard Layer 0 (Background)
//Storyboard Layer 1 (Fail)
//Storyboard Layer 2 (Pass)
//Storyboard Layer 3 (Foreground)
//Storyboard Sound Samples

[TimingPoints]
51,357.142857142857,4,2,1,40,1,0
125765,-100,4,2,1,40,0,1
148622,-100,4,2,1,40,0,0

[HitObjects]
192,192,51,5,0,1:1:0:0:
448,192,229,1,0,0:0:0:0:
192,192,408,1,0,1:1:0:0:
448,192,586,1,0,0:0:0:0:
320,192,765,128,8,943:0:0:0:0:
64,192,943,1,0,0:0:0:0:
192,192,1122,1,0,0:0:0:0:
448,192,1300,1,0,1:1:0:0:
192,192,1479,1,0,0:0:0:0:
448,192,1658,1,0,0:0:0:0:
192,192,1747,1,0,0:0:0:0:
320,192,1836,128,0,2015:1:1:0:0:
64,192,2015,1,0,0:0:0:0:
448,192,2193,1,8,0:0:0:0:
192,192,2372,1,0,0:0:0:0:
64,192,2550,1,0,0:0:0:0:
320,192,2729,1,0,0:0:0:0:
192,192,2908,1,0,1:1:0:0:
448,192,3086,1,0,0:0:0:0:
192,192,3265,1,0,1:1:0:0:
448,192,3443,1,0,0:0:0:0:
320,192,3622,128,8,3800:0:0:0:0:
64,192,3800,1,0,0:0:0:0:
192,192,3979,1,8,0:0:0:0:
192,192,4158,1,0,1:1:0:0:
320,192,4336,1,0,0:0:0:0:
192,192,4515,1,0,0:0:0:0:
320,192,4604,1,0,0:0:0:0:
448,192,4693,128,0,4872:1:1:0:0:
64,192,4872,1,0,0:0:0:0:
320,192,5050,1,8,0:0:0:0:
192,192,5229,1,0,1:1:0:0:
448,192,5408,1,0,0:0:0:0:
448,192,5586,1,0,1:1:0:0:
192,192,5765,1,0,0:0:0:0:
448,192,5943,1,0,0:0:0:0:
192,192,6122,1,0,1:1:0:0:
448,192,6300,1,0,0:0:0:0:
320,192,6479,128,8,6658:0:0:0:0:
64,192,6658,1,0,1:1:0:0:
192,192,6836,1,0,0:0:0:0:
448,192,7015,1,0,1:1:0:0:
192,192,7193,1,0,0:0:0:0:
448,192,7372,1,0,0:0:0:0:
320,192,7550,1,0,1:1:0:0:
64,192,7729,1,0,0:0:0:0:
448,192,7908,1,8,0:0:0:0:
320,192,8086,1,0,0:0:0:0:
64,192,8265,1,0,1:1:0:0:
448,192,8443,1,0,0:0:0:0:
320,192,8533,1,0,0:0:0:0:
192,192,8622,1,0,1:1:0:0:
448,192,8800,1,0,0:0:0:0:
320,192,8979,1,0,1:1:0:0:
64,192,9158,1,0,0:0:0:0:
192,192,9336,1,8,0:0:0:0:
320,192,9515,1,8,0:0:0:0:
448,192,9693,1,0,0:0:0:0:
64,192,9872,1,0,1:1:0:0:
320,192,10050,1,0,0:0:0:0:
192,192,10229,1,0,0:0:0:0:
64,192,10408,1,0,1:1:0:0:
320,192,10586,1,0,0:0:0:0:
448,192,10765,1,0,1:1:0:0:
320,192,10854,1,0,0:0:0:0:
192,192,10943,1,0,0:0:0:0:
64,192,11033,1,0,0:0:0:0:
448,192,11122,1,0,1:1:0:0:
320,192,11211,1,0,0:0:0:0:
192,192,11300,1,0,0:0:0:0:
64,192,11390,1,0,0:0:0:0:
320,192,11479,1,4,0:0:0:0:
320,192,11836,1,0,1:1:0:0:
192,192,12193,128,8,12550:0:0:0:0:
64,192,12550,1,0,0:0:0:0:
320,192,12729,1,0,1:1:0:0:
64,192,12908,128,0,13265:0:0:0:0:
320,192,13265,1,0,1:1:0:0:
192,192,13443,1,8,0:0:0:0:
448,192,13622,1,8,0:0:0:0:
64,192,13800,1,0,0:0:0:0:
192,192,13979,1,0,1:1:0:0:
448,192,14158,1,0,0:0:0:0:
320,192,14247,1,0,0:0:0:0:
192,192,14336,128,0,14872:1:1:0:0:
64,192,14515,1,0,0:0:0:0:
448,192,14693,1,0,1:1:0:0:
64,192,14872,128,0,15050:0:0:0:0:
320,192,15050,128,8,15586:0:0:0:0:
448,192,15229,1,0,0:0:0:0:
64,192,15408,1,8,0:0:0:0:
192,192,15586,128,0,15765:1:1:0:0:
448,192,15765,1,0,0:0:0:0:
320,192,15854,1,0,0:0:0:0:
192,192,15943,1,0,0:0:0:0:
64,192,16033,1,0,0:0:0:0:
448,192,16122,1,0,1:1:0:0:
192,192,16300,1,0,0:0:0:0:
320,192,16390,1,0,0:0:0:0:
448,192,16479,1,8,0:0:0:0:
192,192,16658,1,0,1:1:0:0:
320,192,16836,1,8,0:0:0:0:
320,192,17015,1,8,0:0:0:0:
448,192,17193,1,4,0:0:0:0:
320,192,17550,1,0,1:1:0:0:
192,192,17908,128,8,18265:0:0:0:0:
64,192,18265,1,0,1:1:0:0:
448,192,18443,1,0,1:1:0:0:
320,192,18622,128,0,18979:0:0:0:0:
64,192,18979,1,0,1:1:0:0:
192,192,19158,1,0,0:0:0:0:
448,192,19336,1,8,0:0:0:0:
320,192,19515,1,0,0:0:0:0:
64,192,19693,1,0,1:1:0:0:
448,192,19872,1,0,0:0:0:0:
320,192,19961,1,0,0:0:0:0:
192,192,20050,128,0,20586:1:1:0:0:
64,192,20229,1,0,0:0:0:0:
448,192,20408,1,0,1:1:0:0:
64,192,20586,128,0,20765:0:0:0:0:
320,192,20765,128,8,20943:0:0:0:0:
448,192,20943,128,0,21300:0:0:0:0:
64,192,21122,1,0,0:0:0:0:
192,192,21300,128,0,21479:1:1:0:0:
64,192,21479,1,0,0:0:0:0:
320,192,21658,1,0,0:0:0:0:
448,192,21836,1,0,1:1:0:0:
192,192,22015,1,0,0:0:0:0:
448,192,22193,1,0,1:1:0:0:
320,192,22283,1,0,0:0:0:0:
192,192,22372,1,0,0:0:0:0:
64,192,22461,1,0,0:0:0:0:
448,192,22550,1,0,1:1:0:0:
320,192,22640,1,0,0:0:0:0:
64,192,22729,1,8,0:0:0:0:
192,192,22818,1,0,0:0:0:0:
320,192,22908,1,0,0:0:0:0:
192,192,23265,1,0,0:0:0:0:
320,192,23443,1,0,0:0:0:0:
448,192,23622,1,0,0:0:0:0:
320,192,23890,1,0,0:0:0:0:
448,192,23979,1,0,0:0:0:0:
192,192,24158,1,0,0:0:0:0:
64,192,24336,1,0,0:0:0:0:
448,192,24515,1,0,0:0:0:0:
320,192,24693,1,0,0:0:0:0:
192,192,24872,1,0,0:0:0:0:
320,192,25050,128,0,25408:0:0:0:0:
64,192,25408,128,0,25765:0:0:0:0:
448,192,25765,128,0,26122:0:0:0:0:
192,192,26122,1,0,0:0:0:0:
320,192,26300,1,0,0:0:0:0:
64,192,26479,128,0,26836:0:0:0:0:
320,192,26836,128,0,27015:0:0:0:0:
192,192,27193,1,0,0:0:0:0:
448,192,27372,1,0,0:0:0:0:
64,192,27550,128,0,27729:0:0:0:0:
192,192,27729,1,0,0:0:0:0:
320,192,27818,1,0,0:0:0:0:
448,192,27908,128,0,28086:0:0:0:0:
320,192,28086,128,0,28265:0:0:0:0:
192,192,28265,128,0,28622:0:0:0:0:
64,192,28622,1,8,0:0:0:0:
320,192,28800,1,0,0:0:0:0:
192,192,28979,1,0,0:0:0:0:
448,192,29158,1,8,0:0:0:0:
448,192,29336,1,8,0:0:0:0:
320,192,29515,1,0,0:0:0:0:
64,192,29693,1,8,0:0:0:0:
192,192,29872,1,0,0:0:0:0:
320,192,30050,1,0,0:0:0:0:
192,192,30229,1,8,0:0:0:0:
448,192,30408,1,8,0:0:0:0:
64,192,30586,1,0,0:0:0:0:
320,192,30765,1,8,0:0:0:0:
192,192,30943,1,0,0:0:0:0:
64,192,31122,1,0,0:0:0:0:
320,192,31300,1,8,0:0:0:0:
192,192,31390,1,8,0:0:0:0:
448,192,31479,1,8,0:0:0:0:
64,192,31658,1,8,0:0:0:0:
192,192,31836,1,0,0:0:0:0:
64,192,32015,1,8,0:0:0:0:
320,192,32193,1,8,0:0:0:0:
448,192,32372,1,0,0:0:0:0:
64,192,32550,1,8,0:0:0:0:
192,192,32640,1,8,0:0:0:0:
320,192,32729,1,8,0:0:0:0:
448,192,32818,1,8,0:0:0:0:
448,192,33265,128,0,33622:0:0:0:0:
64,192,33622,1,0,0:0:0:0:
192,192,33756,1,0,0:0:0:0:
448,192,33860,1,0,0:0:0:0:
320,192,33979,1,0,0:0:0:0:
320,192,34158,1,0,0:0:0:0:
64,192,34336,1,4,0:0:0:0:
64,192,34693,1,0,0:0:0:0:
320,192,34872,1,0,1:1:0:0:
448,192,35050,1,8,0:0:0:0:
320,192,35408,1,0,1:1:0:0:
192,192,35586,1,0,0:0:0:0:
320,192,35675,1,0,0:0:0:0:
448,192,35765,1,0,0:0:0:0:
64,192,35943,1,0,1:1:0:0:
320,192,36122,1,0,0:0:0:0:
320,192,36300,1,0,0:0:0:0:
448,192,36479,1,8,0:0:0:0:
192,192,36658,1,0,0:0:0:0:
64,192,36836,1,8,0:0:0:0:
64,192,37015,1,8,0:0:0:0:
320,192,37193,1,0,1:1:0:0:
64,192,37550,1,0,0:0:0:0:
320,192,37729,1,0,1:1:0:0:
192,192,37908,1,8,0:0:0:0:
448,192,38086,1,0,0:0:0:0:
64,192,38265,1,0,1:1:0:0:
320,192,38443,1,0,0:0:0:0:
192,192,38622,1,0,0:0:0:0:
448,192,38800,1,0,1:1:0:0:
192,192,38979,1,0,0:0:0:0:
64,192,39158,1,0,0:0:0:0:
320,192,39336,1,8,0:0:0:0:
192,192,39515,1,0,0:0:0:0:
448,192,39693,1,0,0:0:0:0:
320,192,39872,1,0,0:0:0:0:
64,192,40050,1,4,0:0:0:0:
64,192,40408,1,0,0:0:0:0:
448,192,40586,1,0,1:1:0:0:
320,192,40765,1,8,0:1:0:0:
192,192,41122,1,0,1:1:0:0:
64,192,41300,1,0,0:0:0:0:
192,192,41390,1,0,0:0:0:0:
320,192,41479,1,0,0:0:0:0:
64,192,41658,1,0,1:1:0:0:
448,192,41836,1,0,0:0:0:0:
448,192,42015,1,0,0:0:0:0:
320,192,42193,1,8,0:0:0:0:
192,192,42372,1,0,0:0:0:0:
320,192,42550,1,8,0:0:0:0:
448,192,42729,1,8,0:0:0:0:
64,192,42908,128,0,43443:1:1:0:0:
320,192,43443,1,0,1:1:0:0:
192,192,43622,1,8,0:0:0:0:
192,192,43800,1,0,0:0:0:0:
448,192,43979,1,0,1:1:0:0:
64,192,44158,128,0,44515:0:0:0:0:
320,192,44515,1,0,0:0:0:0:
448,192,44604,1,0,0:0:0:0:
192,192,44693,128,0,44872:1:1:0:0:
448,192,44872,128,0,45050:0:0:0:0:
320,192,45050,128,8,45408:0:0:0:0:
64,192,45408,128,8,45765:0:0:0:0:
192,192,45765,1,4,0:0:0:0:
320,192,46122,1,0,0:0:0:0:
448,192,46300,1,0,1:1:0:0:
64,192,46479,1,8,0:0:0:0:
192,192,46836,1,0,1:1:0:0:
448,192,47015,1,0,0:0:0:0:
192,192,47104,1,0,0:0:0:0:
64,192,47193,1,0,0:0:0:0:
320,192,47372,1,0,1:1:0:0:
448,192,47550,1,0,0:0:0:0:
192,192,47729,1,0,0:0:0:0:
320,192,47908,128,8,47997:0:0:0:0:
64,192,48086,128,8,48175:0:0:0:0:
448,192,48265,128,8,48354:0:0:0:0:
192,192,48443,128,8,48533:0:0:0:0:
64,192,48622,1,0,1:1:0:0:
192,192,48800,1,0,0:0:0:0:
448,192,48979,1,0,0:0:0:0:
320,192,49158,1,0,1:1:0:0:
64,192,49336,1,8,0:0:0:0:
192,192,49515,1,0,0:0:0:0:
448,192,49693,1,0,1:1:0:0:
320,192,49872,1,0,0:0:0:0:
320,192,50229,1,0,1:1:0:0:
448,192,50408,1,0,0:0:0:0:
192,192,50586,1,0,0:0:0:0:
64,192,50765,1,8,0:0:0:0:
64,192,50943,1,8,0:0:0:0:
448,192,51122,1,0,0:0:0:0:
320,192,51241,1,0,0:0:0:0:
192,192,51360,1,0,0:0:0:0:
64,192,51479,1,0,1:1:0:0:
64,192,51836,1,0,0:0:0:0:
320,192,52015,1,0,1:1:0:0:
192,192,52193,1,8,0:0:0:0:
448,192,52550,1,0,1:1:0:0:
320,192,52729,1,0,0:0:0:0:
192,192,52818,1,0,0:0:0:0:
64,192,52908,1,0,0:0:0:0:
448,192,53086,1,0,1:1:0:0:
192,192,53265,1,0,0:0:0:0:
64,192,53443,1,0,0:0:0:0:
320,192,53622,1,8,0:0:0:0:
320,192,53800,1,0,0:0:0:0:
64,192,53979,1,8,0:0:0:0:
448,192,54158,1,8,0:0:0:0:
192,192,54336,1,0,1:1:0:0:
192,192,54693,1,0,0:0:0:0:
192,192,54872,1,0,0:0:0:0:
320,192,55050,1,8,0:0:0:0:
64,192,55229,1,0,1:1:0:0:
448,192,55408,1,0,1:1:0:0:
320,192,55586,128,0,55943:0:0:0:0:
64,192,55943,1,0,0:0:0:0:
448,192,56033,1,0,0:0:0:0:
192,192,56122,128,0,56300:1:1:0:0:
320,192,56300,128,0,56479:0:0:0:0:
64,192,56479,128,8,56836:0:0:0:0:
192,192,56836,128,8,57015:0:0:0:0:
448,192,57015,128,0,57193:0:0:0:0:
320,192,57193,1,0,1:1:0:0:
64,192,57193,1,0,0:0:0:0:
320,192,57372,1,0,1:1:0:0:
192,192,57729,1,8,0:0:0:0:
448,192,57908,1,8,0:0:0:0:
320,192,58086,1,8,0:0:0:0:
64,192,58265,1,0,1:1:0:0:
192,192,58265,1,8,0:0:0:0:
64,192,58443,1,0,1:1:0:0:
192,192,58622,1,8,0:0:0:0:
448,192,58800,1,8,0:0:0:0:
320,192,58979,1,0,1:1:0:0:
192,192,58979,1,0,0:0:0:0:
64,192,59158,1,0,0:0:0:0:
192,192,59336,1,8,0:0:0:0:
320,192,59515,1,0,1:1:0:0:
448,192,59515,1,0,0:0:0:0:
64,192,59693,1,8,0:0:0:0:
320,192,59872,1,0,1:1:0:0:
192,192,59872,1,8,0:0:0:0:
64,192,60050,1,8,0:0:0:0:
448,192,60229,1,8,0:0:0:0:
320,192,60408,1,0,0:0:0:0:
64,192,60586,1,0,0:0:0:0:
448,192,60586,1,0,1:1:0:0:
320,192,60765,128,0,60943:0:0:0:0:
64,192,60943,1,0,0:0:0:0:
320,192,61122,1,0,1:1:0:0:
192,192,61122,1,8,0:0:0:0:
64,192,61300,1,8,0:0:0:0:
192,192,61479,1,8,0:0:0:0:
448,192,61658,1,0,1:1:0:0:
320,192,61658,1,8,0:0:0:0:
320,192,61836,1,0,1:1:0:0:
192,192,62015,1,8,0:0:0:0:
448,192,62193,1,8,0:0:0:0:
320,192,62372,1,0,1:1:0:0:
64,192,62372,1,0,0:0:0:0:
192,192,62550,1,8,0:0:0:0:
64,192,62729,1,0,0:0:0:0:
320,192,62729,1,0,1:1:0:0:
448,192,62908,1,0,0:0:0:0:
320,192,62997,1,0,0:0:0:0:
192,192,63086,1,0,1:1:0:0:
64,192,63175,1,0,0:0:0:0:
448,192,63265,1,0,1:1:0:0:
192,192,63443,1,8,0:0:0:0:
448,192,63622,1,8,0:0:0:0:
320,192,63800,1,8,0:0:0:0:
192,192,63979,1,8,0:0:0:0:
448,192,64158,1,8,0:0:0:0:
64,192,64158,1,0,1:1:0:0:
320,192,64336,1,8,0:0:0:0:
448,192,64515,1,8,0:0:0:0:
192,192,64693,1,0,1:1:0:0:
64,192,64693,1,0,0:0:0:0:
320,192,64872,1,0,0:0:0:0:
448,192,65050,1,8,0:0:0:0:
64,192,65229,1,0,0:0:0:0:
192,192,65229,1,0,1:1:0:0:
320,192,65408,1,8,0:0:0:0:
192,192,65586,1,0,1:1:0:0:
448,192,65586,1,0,0:0:0:0:
64,192,65765,1,0,1:1:0:0:
320,192,65765,128,0,66300:0:0:0:0:
192,192,66300,128,0,66836:0:0:0:0:
64,192,66836,128,0,67908:1:1:0:0:
448,192,67908,1,8,0:0:0:0:
192,192,68086,1,0,0:0:0:0:
320,192,68265,1,0,0:0:0:0:
64,192,68443,1,0,0:0:0:0:
192,192,68622,1,0,1:1:0:0:
192,192,68979,1,0,1:1:0:0:
320,192,69336,1,0,0:0:0:0:
320,192,69604,1,0,0:0:0:0:
320,192,69872,1,0,0:0:0:0:
64,192,70050,1,0,0:0:0:0:
64,192,70408,1,0,0:0:0:0:
320,192,70586,1,0,0:0:0:0:
448,192,70675,1,0,0:0:0:0:
64,192,70765,1,0,0:0:0:0:
64,192,71033,1,0,0:0:0:0:
64,192,71300,1,0,0:0:0:0:
192,192,71479,1,0,0:0:0:0:
448,192,71658,1,0,0:0:0:0:
192,192,71836,1,0,0:0:0:0:
448,192,72015,1,0,0:0:0:0:
320,192,72193,1,0,0:0:0:0:
192,192,72372,1,0,0:0:0:0:
320,192,72461,1,0,0:0:0:0:
192,192,72640,1,0,0:0:0:0:
320,192,72729,1,0,0:0:0:0:
64,192,72818,1,0,0:0:0:0:
448,192,72908,1,0,0:0:0:0:
448,192,73265,1,0,0:0:0:0:
320,192,73622,1,0,0:0:0:0:
320,192,73890,1,0,0:0:0:0:
320,192,74158,1,0,0:0:0:0:
64,192,74336,1,8,0:0:0:0:
448,192,74515,1,0,0:0:0:0:
64,192,74693,1,0,0:0:0:0:
448,192,74872,1,8,0:0:0:0:
320,192,75050,1,8,0:0:0:0:
320,192,75318,1,0,0:0:0:0:
320,192,75586,1,0,0:0:0:0:
64,192,75765,1,0,0:0:0:0:
64,192,76122,1,8,0:0:0:0:
320,192,76300,1,0,0:0:0:0:
448,192,76390,1,0,0:0:0:0:
64,192,76479,1,8,0:0:0:0:
64,192,76747,1,0,0:0:0:0:
64,192,77015,1,8,0:0:0:0:
192,192,77104,1,8,0:0:0:0:
320,192,77193,1,8,0:0:0:0:
320,192,77550,1,0,0:0:0:0:
320,192,77729,1,8,0:0:0:0:
64,192,77908,1,8,0:0:0:0:
448,192,78086,1,0,0:0:0:0:
320,192,78265,128,0,78443:1:1:0:0:
64,192,78443,128,0,78800:0:0:0:0:
320,192,78800,1,0,0:0:0:0:
448,192,78890,1,0,0:0:0:0:
192,192,78979,128,0,79158:1:1:0:0:
448,192,79158,128,0,79336:0:0:0:0:
64,192,79336,128,8,79693:1:1:0:0:
192,192,79693,1,0,0:0:0:0:
448,192,79872,1,0,0:0:0:0:
320,192,80050,1,4,0:0:0:0:
64,192,80408,1,0,0:0:0:0:
320,192,80586,1,0,1:1:0:0:
192,192,80765,1,8,0:0:0:0:
448,192,81122,1,0,1:0:0:0:
64,192,81300,1,0,0:0:0:0:
320,192,81390,1,0,0:0:0:0:
192,192,81479,1,0,0:0:0:0:
64,192,81658,1,0,1:1:0:0:
320,192,81836,1,0,0:0:0:0:
192,192,82015,1,0,0:0:0:0:
448,192,82193,1,8,0:0:0:0:
64,192,82372,1,0,0:0:0:0:
320,192,82550,1,8,0:0:0:0:
192,192,82729,1,8,0:0:0:0:
64,192,82908,1,0,1:1:0:0:
320,192,83175,1,0,0:0:0:0:
192,192,83265,1,0,0:0:0:0:
64,192,83443,1,0,1:1:0:0:
320,192,83622,1,8,0:0:0:0:
448,192,83800,1,0,0:0:0:0:
64,192,83979,1,0,1:1:0:0:
192,192,84336,1,0,0:0:0:0:
320,192,84515,1,0,1:1:0:0:
448,192,84693,1,0,0:0:0:0:
320,192,84872,128,0,85050:0:0:0:0:
192,192,85050,1,8,0:0:0:0:
192,192,85408,128,0,85765:0:0:0:0:
320,192,85765,1,0,1:1:0:0:
64,192,86122,1,0,0:0:0:0:
320,192,86300,1,0,1:1:0:0:
192,192,86479,1,8,0:0:0:0:
320,192,86836,1,0,1:1:0:0:
64,192,87015,1,0,0:0:0:0:
320,192,87104,1,0,0:0:0:0:
448,192,87193,1,0,0:0:0:0:
320,192,87372,1,0,1:1:0:0:
192,192,87550,1,0,0:0:0:0:
192,192,87729,1,0,0:0:0:0:
320,192,87908,1,8,0:0:0:0:
64,192,88086,1,0,0:0:0:0:
192,192,88265,1,8,0:0:0:0:
320,192,88443,1,8,0:0:0:0:
448,192,88622,128,0,89158:1:1:0:0:
64,192,89158,1,0,1:1:0:0:
320,192,89336,1,8,0:0:0:0:
320,192,89515,1,8,0:0:0:0:
448,192,89693,1,0,1:1:0:0:
192,192,89872,128,0,90229:0:0:0:0:
64,192,90229,1,0,0:0:0:0:
448,192,90318,1,0,0:0:0:0:
192,192,90408,128,0,90586:1:1:0:0:
448,192,90586,128,0,90765:0:0:0:0:
320,192,90765,128,8,91122:0:0:0:0:
64,192,91122,128,8,91479:0:0:0:0:
448,192,91479,1,4,0:0:0:0:
192,192,91836,1,0,0:0:0:0:
448,192,92015,1,0,1:1:0:0:
320,192,92193,1,8,0:0:0:0:
448,192,92550,1,0,1:1:0:0:
320,192,92729,1,0,0:0:0:0:
192,192,92818,1,0,0:0:0:0:
64,192,92908,1,0,0:0:0:0:
320,192,93086,1,0,1:1:0:0:
192,192,93265,1,0,0:0:0:0:
448,192,93443,1,0,0:0:0:0:
320,192,93622,1,8,0:0:0:0:
192,192,93800,1,0,0:0:0:0:
448,192,93979,1,8,0:0:0:0:
320,192,94158,1,8,0:0:0:0:
64,192,94336,1,0,1:1:0:0:
192,192,94604,1,0,0:0:0:0:
448,192,94693,1,0,0:0:0:0:
320,192,94872,1,0,1:1:0:0:
64,192,95050,1,8,0:0:0:0:
192,192,95408,1,0,1:1:0:0:
64,192,95586,1,8,0:0:0:0:
64,192,95943,1,0,1:1:0:0:
320,192,96122,1,0,0:0:0:0:
448,192,96300,1,0,0:0:0:0:
192,192,96479,1,8,0:0:0:0:
192,192,96658,1,8,0:0:0:0:
320,192,96836,1,0,0:0:0:0:
192,192,96955,1,0,0:0:0:0:
64,192,97074,1,0,0:0:0:0:
448,192,97193,1,0,1:1:0:0:
64,192,97550,1,0,0:0:0:0:
448,192,97729,1,0,1:1:0:0:
320,192,97908,1,8,0:0:0:0:
192,192,98265,1,0,1:1:0:0:
320,192,98443,1,0,0:0:0:0:
192,192,98533,1,0,0:0:0:0:
64,192,98622,1,0,0:0:0:0:
320,192,98800,1,0,1:1:0:0:
192,192,98979,1,0,0:0:0:0:
448,192,99158,1,0,0:0:0:0:
320,192,99336,1,8,0:0:0:0:
64,192,99515,1,0,0:0:0:0:
192,192,99693,1,8,0:0:0:0:
448,192,99872,1,8,0:0:0:0:
192,192,100050,1,0,1:1:0:0:
192,192,100408,1,0,0:0:0:0:
192,192,100586,1,0,0:0:0:0:
320,192,100765,1,8,0:0:0:0:
64,192,100943,1,0,1:1:0:0:
448,192,101122,1,0,1:1:0:0:
320,192,101300,128,0,101658:0:0:0:0:
64,192,101658,1,0,0:0:0:0:
448,192,101747,1,0,0:0:0:0:
64,192,101836,128,0,102015:1:1:0:0:
320,192,102015,128,0,102193:0:0:0:0:
192,192,102193,128,8,102550:0:0:0:0:
448,192,102550,1,8,0:0:0:0:
320,192,102729,1,0,0:0:0:0:
192,192,102818,1,0,0:0:0:0:
64,192,102908,128,0,105765:1:1:0:0:
320,192,105765,1,0,0:0:0:0:
192,192,105854,128,0,106836:0:0:0:0:
64,192,106836,1,0,0:0:0:0:
448,192,106896,128,0,108644:0:0:0:0:
320,192,108644,1,0,0:0:0:0:
192,192,108741,128,0,111479:0:0:0:0:
64,192,111479,1,0,0:0:0:0:
320,192,111568,128,0,112550:0:0:0:0:
64,192,112550,1,0,0:0:0:0:
192,192,112640,128,0,113652:0:0:0:0:
64,192,113652,128,0,113979:0:0:0:0:
448,192,113979,128,0,114336:0:0:0:0:
320,192,114336,1,8,0:0:0:0:
448,192,114693,1,8,0:0:0:0:
64,192,114872,1,0,0:0:0:0:
320,192,115050,1,8,0:0:0:0:
192,192,115408,1,8,0:0:0:0:
448,192,115586,1,0,0:0:0:0:
64,192,115765,1,8,0:0:0:0:
320,192,116122,1,8,0:0:0:0:
192,192,116300,1,0,0:0:0:0:
64,192,116479,1,8,0:0:0:0:
320,192,116836,1,8,0:0:0:0:
448,192,117015,1,0,0:0:0:0:
192,192,117193,1,8,0:0:0:0:
320,192,117372,1,0,0:0:0:0:
64,192,117550,1,8,0:0:0:0:
448,192,117729,1,0,0:0:0:0:
192,192,117908,1,8,0:0:0:0:
320,192,118086,1,0,0:0:0:0:
64,192,118265,1,8,0:0:0:0:
448,192,118443,1,0,0:0:0:0:
192,192,118622,1,8,0:0:0:0:
320,192,118800,1,0,0:0:0:0:
64,192,118979,1,8,0:0:0:0:
320,192,119158,1,0,0:0:0:0:
448,192,119336,1,8,0:0:0:0:
320,192,119515,1,0,0:0:0:0:
64,192,119693,1,8,0:0:0:0:
192,192,120050,1,8,0:0:0:0:
448,192,120229,1,0,0:0:0:0:
192,192,120408,1,0,0:0:0:0:
64,192,120586,1,8,0:0:0:0:
448,192,120765,1,8,0:0:0:0:
64,192,120943,1,8,0:0:0:0:
192,192,121033,1,8,0:0:0:0:
320,192,121122,1,8,0:0:0:0:
192,192,121300,1,0,0:0:0:0:
448,192,121479,1,0,0:0:0:0:
320,192,121658,1,8,0:0:0:0:
64,192,121836,1,8,0:0:0:0:
192,192,122015,1,8,0:0:0:0:
320,192,122104,1,8,0:0:0:0:
448,192,122193,1,8,0:0:0:0:
320,192,122372,1,0,0:0:0:0:
64,192,122550,1,0,0:0:0:0:
192,192,122729,1,8,0:0:0:0:
320,192,122818,1,8,0:0:0:0:
64,192,122908,1,8,0:0:0:0:
192,192,123443,1,8,0:0:0:0:
320,192,123622,1,8,0:0:0:0:
448,192,123979,1,8,0:0:0:0:
448,192,124158,1,8,0:0:0:0:
192,192,124336,1,0,0:0:0:0:
64,192,125408,1,0,0:0:0:0:
192,192,125497,1,0,0:0:0:0:
320,192,125586,1,0,0:0:0:0:
448,192,125675,1,0,0:0:0:0:
192,192,125765,1,0,1:1:0:0:
448,192,126122,1,0,0:0:0:0:
192,192,126300,1,0,1:1:0:0:
320,192,126479,1,8,0:0:0:0:
64,192,126836,1,0,1:1:0:0:
448,192,127015,1,0,0:0:0:0:
192,192,127193,128,0,127372:0:0:0:0:
448,192,127372,1,0,1:1:0:0:
320,192,127550,1,0,0:0:0:0:
64,192,127729,1,0,0:0:0:0:
192,192,127818,1,0,0:0:0:0:
320,192,127908,1,8,0:0:0:0:
448,192,128086,1,0,0:0:0:0:
448,192,128265,1,8,0:0:0:0:
320,192,128443,1,8,0:0:0:0:
448,192,128622,128,0,128979:1:1:0:0:
192,192,128979,128,0,129336:0:0:0:0:
320,192,129336,128,8,129693:0:0:0:0:
64,192,129693,1,0,1:1:0:0:
448,192,129872,1,8,0:0:0:0:
64,192,130050,1,0,0:0:0:0:
448,192,130229,1,0,1:1:0:0:
192,192,130408,1,0,0:0:0:0:
320,192,130586,1,0,0:0:0:0:
64,192,130765,1,8,0:0:0:0:
448,192,130943,1,0,0:0:0:0:
320,192,131033,1,0,0:0:0:0:
192,192,131122,1,8,0:0:0:0:
320,192,131300,1,8,0:0:0:0:
64,192,131479,128,0,131836:1:1:0:0:
192,192,131836,1,0,0:0:0:0:
448,192,132015,1,0,1:1:0:0:
64,192,132193,1,8,0:0:0:0:
448,192,132550,1,0,1:1:0:0:
192,192,132729,1,8,0:0:0:0:
320,192,132908,1,0,0:0:0:0:
64,192,133086,1,0,1:0:0:0:
320,192,133265,1,0,0:0:0:0:
448,192,133622,1,8,0:0:0:0:
64,192,133979,1,8,0:0:0:0:
448,192,134158,1,8,0:0:0:0:
320,192,134336,1,0,1:1:0:0:
64,192,134693,1,0,0:0:0:0:
448,192,135050,1,0,1:0:0:0:
320,192,135408,1,0,1:1:0:0:
192,192,135586,1,8,0:0:0:0:
320,192,135765,1,0,0:0:0:0:
192,192,135943,1,8,0:0:0:0:
320,192,136122,1,0,1:1:0:0:
448,192,136300,1,0,0:0:0:0:
64,192,136479,1,8,0:0:0:0:
64,192,136658,1,0,0:0:0:0:
448,192,136836,1,8,0:0:0:0:
192,192,137015,1,0,0:0:0:0:
320,192,137193,1,0,1:1:0:0:
64,192,137372,1,0,0:0:0:0:
192,192,137550,128,0,137908:0:0:0:0:
320,192,137908,128,8,138265:0:0:0:0:
64,192,138265,1,0,1:1:0:0:
448,192,138443,128,0,138800:0:0:0:0:
192,192,138800,128,0,138979:1:1:0:0:
64,192,138979,128,0,139158:0:0:0:0:
448,192,139158,128,0,139336:0:0:0:0:
320,192,139336,1,8,0:0:0:0:
192,192,139515,1,0,0:0:0:0:
64,192,139693,1,8,0:0:0:0:
64,192,139872,1,8,0:0:0:0:
320,192,140050,1,0,1:1:0:0:
192,192,140408,1,0,0:0:0:0:
320,192,140586,1,0,1:1:0:0:
448,192,140765,1,8,0:0:0:0:
64,192,141122,1,0,1:1:0:0:
448,192,141300,1,8,0:0:0:0:
448,192,141658,1,8,0:0:0:0:
64,192,141836,1,0,0:0:0:0:
64,192,142015,1,0,0:0:0:0:
448,192,142193,1,8,0:0:0:0:
320,192,142372,1,0,0:0:0:0:
192,192,142550,1,0,0:0:0:0:
64,192,142729,1,0,0:0:0:0:
320,192,142908,1,0,1:1:0:0:
192,192,143146,1,0,0:0:0:0:
64,192,143384,1,0,0:0:0:0:
448,192,143622,128,0,143979:1:0:0:0:
192,192,143979,128,0,144336:1:1:0:0:
448,192,144336,128,0,144515:0:0:0:0:
64,192,144515,128,0,144693:1:1:0:0:
320,192,144693,128,0,145050:0:0:0:0:
192,192,145050,1,8,0:0:0:0:
64,192,145229,1,0,0:0:0:0:
192,192,145318,1,0,0:0:0:0:
320,192,145408,1,8,0:0:0:0:
448,192,145586,1,8,0:0:0:0:
320,192,145765,1,0,1:1:0:0:
320,192,146122,1,0,0:0:0:0:
64,192,146300,1,0,1:1:0:0:
448,192,146479,1,8,0:0:0:0:
192,192,146836,1,0,1:1:0:0:
320,192,147015,1,8,0:0:0:0:
64,192,147193,1,0,0:0:0:0:
448,192,147372,1,8,0:0:0:0:
320,192,147550,1,0,1:1:0:0:
192,192,147908,1,8,0:0:0:0:
320,192,148086,1,0,0:0:0:0:
448,192,148265,128,8,148622:0:0:0:0:
320,192,148622,1,0,1:1:0:0:
64,192,148800,1,0,0:0:0:0:
192,192,148979,1,0,1:1:0:0:
320,192,149158,1,0,0:0:0:0:
192,192,149247,1,0,0:0:0:0:
64,192,149336,1,8,0:0:0:0:
320,192,149515,1,0,0:0:0:0:
448,192,149693,1,0,0:0:0:0:
192,192,149872,1,0,1:1:0:0:
320,192,150050,1,0,0:0:0:0:
64,192,150229,1,0,0:0:0:0:
192,192,150408,1,0,1:1:0:0:
320,192,150586,1,8,0:0:0:0:
448,192,150765,1,8,0:0:0:0:
192,192,150943,1,0,0:0:0:0:
320,192,151122,1,0,0:0:0:0:
192,192,151300,1,0,0:0:0:0:
448,192,151479,1,0,1:1:0:0:
320,192,151658,1,0,0:0:0:0:
192,192,151836,1,0,1:1:0:0:
320,192,151925,1,0,0:0:0:0:
64,192,152015,1,0,0:0:0:0:
192,192,152104,1,0,0:0:0:0:
448,192,152193,1,8,0:0:0:0:
320,192,152372,1,0,0:0:0:0:
64,192,152550,1,0,0:0:0:0:
448,192,152729,1,0,1:1:0:0:
192,192,152908,1,0,0:0:0:0:
64,192,153086,1,0,0:0:0:0:
320,192,153265,1,0,1:1:0:0:
192,192,153443,1,0,0:0:0:0:
64,192,153622,1,8,0:0:0:0:
320,192,153800,1,0,1:1:0:0:
448,192,153979,1,8,0:0:0:0:
192,192,154158,1,0,1:1:0:0:
320,192,154336,1,0,1:1:0:0:
192,192,154515,1,0,0:0:0:0:
64,192,154693,1,0,1:1:0:0:
448,192,154783,1,0,0:0:0:0:
320,192,154872,1,0,0:0:0:0:
192,192,154961,1,0,0:0:0:0:
448,192,155050,1,8,0:0:0:0:
64,192,155229,1,0,1:1:0:0:
320,192,155408,1,0,0:0:0:0:
192,192,155586,1,0,1:1:0:0:
64,192,155765,1,0,0:0:0:0:
320,192,155943,1,0,0:0:0:0:
448,192,156122,1,0,1:1:0:0:
192,192,156300,1,0,0:0:0:0:
448,192,156479,1,8,0:0:0:0:
320,192,156836,1,0,1:1:0:0:
192,192,157015,1,0,0:0:0:0:
64,192,157193,1,0,0:0:0:0:
64,192,157729,1,0,0:0:0:0:
64,192,158265,1,0,0:0:0:0:
