osu file format v14

[General]
AudioFilename: Marble Soda.mp3
AudioLeadIn: 0
PreviewTime: 34382
Countdown: 0
SampleSet: Soft
StackLeniency: 0.4
Mode: 0
LetterboxInBreaks: 0
WidescreenStoryboard: 0

[Editor]
Bookmarks: 811,6525,12239,17953,23668,29382,35096,40810,46522,52239,57953,64382,69379,75096,80810,86525,92239,97953,103668,115096,120810,126525,132239,137953,143668,149382,155096,157953,161168
DistanceSpacing: 1
BeatDivisor: 4
GridSize: 4
TimelineZoom: 2.699999

[Metadata]
Title:Marble Soda
TitleUnicode:Marble Soda
Artist:Shawn Wasabi
ArtistUnicode:Shawn Wasabi
Creator:Exa
Version:Insane
Source:
Tags:Mashup Frim4503 fartownik Nozhomi Fantasy Pink Medicine Kiss Pachirisu tone Take There PONPONPON Fast Love Money GT40 Y2K Slow Double Jump Flicker Divinity Fresh Static Snow Lionhearted Polygon Dust Sad Machine ABXY Pluto! R2D2 PANDA EXPRESS Peaceful Lemon Tree Dirty Vibe Sailor Mouth Pikachu Pokeball Anime Bae Cloud City Ohana Yoshi Faded Streamers ID Octahate U Guessed It CoCo Kimono Nintendo Sunny Shores Area Codes Always Hello Tell Chocolate DITTO All Me DOLPHIN Say My Name Paws Pearls Wedding Bells Rice Rain Aurora Mirror Maru Car Pop XOXO Glitter Sand Brights Gay Wolf Space Parade Feelsie Heirloom miss Facebook 11 Mine Cream
BeatmapID:700321
BeatmapSetID:313718

[Difficulty]
HPDrainRate:7
CircleSize:4
OverallDifficulty:6.8
ApproachRate:9
SliderMultiplier:1.8
SliderTickRate:1

[Events]
//Background and Video events
0,0,"MarbleSodaBG.jpg",0,0
//Break Periods
2,23867,28782
2,69582,74496
2,103867,114139
//Storyboard Layer 0 (Background)
//Storyboard Layer 1 (Fail)
//Storyboard Layer 2 (Pass)
//Storyboard Layer 3 (Foreground)
//Storyboard Sound Samples

[TimingPoints]
811,357.142857142857,4,2,1,60,1,0
2864,-100,4,2,1,5,0,0
2953,-100,4,2,1,60,0,0
5721,-100,4,2,1,5,0,0
5810,-100,4,2,1,60,0,0
6257,-100,4,2,1,5,0,0
6346,-100,4,2,1,60,0,0
6435,-100,4,2,1,5,0,0
6525,-100,4,2,1,60,0,0
17953,-100,4,2,1,60,0,0
31614,-100,4,2,1,5,0,0
31703,-100,4,2,1,60,0,0
33668,-133.333333333333,4,2,1,5,0,0
34025,-100,4,2,1,60,0,0
34293,-100,4,2,1,5,0,0
34382,-100,4,2,1,30,0,0
34828,-100,4,2,1,5,0,0
34918,-100,4,2,1,60,0,0
35007,-100,4,2,1,5,0,0
35096,-100,4,2,1,80,0,1
35275,-100,4,2,1,80,0,1
37150,-100,4,2,1,5,0,1
37239,-100,4,2,1,80,0,1
42864,-100,4,2,1,5,0,1
42953,-100,4,2,1,80,0,1
43043,-100,4,2,1,5,0,1
43132,-100,4,2,1,80,0,1
43221,-100,4,2,1,5,0,1
43310,-100,4,2,1,80,0,1
43400,-100,4,2,1,5,0,1
43489,-100,4,2,1,80,0,1
43578,-100,4,2,1,5,0,1
43668,-100,4,2,1,80,0,1
51882,-131.578947368421,4,2,1,80,0,1
52239,-100,4,2,1,80,0,1
57953,-100,4,2,1,60,0,0
58043,-100,4,2,1,5,0,0
58132,-100,4,2,1,60,0,0
58221,-100,4,2,1,5,0,0
58489,-100,4,2,1,60,0,0
58578,-100,4,2,1,5,0,0
58668,-100,4,2,1,60,0,0
58757,-100,4,2,1,5,0,0
58846,-100,4,2,1,60,0,0
59025,-100,4,2,1,60,0,0
59114,-100,4,2,1,5,0,0
59203,-100,4,2,1,60,0,0
59293,-100,4,2,1,5,0,0
59382,-100,4,2,1,60,0,0
59739,-100,4,2,1,60,0,0
59828,-100,4,2,1,5,0,0
60096,-100,4,2,1,60,0,0
60275,-100,4,2,1,60,0,0
60364,-100,4,2,1,5,0,0
60453,-100,4,2,1,60,0,0
60632,-100,4,2,1,60,0,0
60721,-100,4,2,1,5,0,0
60810,-100,4,2,1,60,0,0
61793,-100,4,2,1,5,0,0
61882,-100,4,2,1,60,0,0
63221,-100,4,2,1,5,0,0
63310,-100,4,2,1,60,0,0
63578,-100,4,2,1,5,0,0
63668,-100,4,2,1,60,0,0
63935,-100,4,2,1,5,0,0
64025,-100,4,2,1,60,0,0
64114,-100,4,2,1,5,0,0
64203,-100,4,2,1,60,0,0
65543,-100,4,2,1,5,0,0
65810,-100,4,2,1,60,0,0
66078,-100,4,2,1,5,0,0
66168,-100,4,2,1,60,0,0
66435,-100,4,2,1,5,0,0
66525,-100,4,2,1,60,0,0
77953,-133.333333333333,4,2,1,60,0,0
78489,-100,4,2,1,60,0,0
80810,-100,4,2,1,80,0,1
82864,-100,4,2,1,5,0,1
82953,-100,4,2,1,80,0,1
84114,-100,4,2,1,5,0,1
84203,-100,4,2,1,80,0,1
84293,-100,4,2,1,5,0,1
84382,-100,4,2,1,80,0,1
85721,-100,4,2,1,5,0,1
85810,-100,4,2,1,80,0,1
88578,-100,4,2,1,5,0,1
88668,-100,4,2,1,80,0,1
88757,-100,4,2,1,5,0,1
88846,-100,4,2,1,80,0,1
88935,-100,4,2,1,5,0,1
89025,-100,4,2,1,80,0,1
89114,-100,4,2,1,5,0,1
89203,-100,4,2,1,80,0,1
89293,-100,4,2,1,5,0,1
89382,-100,4,2,1,80,0,1
97596,-131.578947368421,4,2,1,80,0,1
97953,-100,4,2,1,80,0,1
103668,-100,4,2,1,60,0,0
115007,-100,4,2,1,5,0,0
115096,-117.647058823529,4,2,1,60,0,0
115453,-117.647058823529,4,2,1,30,0,0
116793,-117.647058823529,4,2,1,5,0,0
116882,-117.647058823529,4,2,1,30,0,0
120721,-117.647058823529,4,2,1,5,0,0
120810,-117.647058823529,4,3,1,100,0,0
121703,-117.647058823529,4,3,1,5,0,0
121748,-117.647058823529,4,3,1,15,0,0
121793,-117.647058823529,4,3,1,25,0,0
121837,-117.647058823529,4,3,1,35,0,0
121882,-117.647058823529,4,3,1,60,0,0
122775,-117.647058823529,4,3,1,5,0,0
122819,-117.647058823529,4,3,1,15,0,0
122864,-117.647058823529,4,3,1,25,0,0
122909,-117.647058823529,4,3,1,35,0,0
122953,-117.647058823529,4,3,1,60,0,0
123668,-133.333333333333,4,3,1,60,0,0
125096,-133.333333333333,4,2,1,30,0,0
126168,-100,4,2,1,5,0,0
126212,-100,4,2,1,10,0,0
126257,-100,4,2,1,15,0,0
126302,-100,4,2,1,20,0,0
126346,-100,4,2,1,25,0,0
126391,-100,4,2,1,30,0,0
126435,-100,4,2,1,35,0,0
126480,-100,4,2,1,40,0,0
126525,-100,4,2,1,80,0,1
131435,-100,4,2,1,5,0,1
131525,-100,4,2,1,80,0,1
145721,-100,4,2,1,5,0,1
145810,-100,4,2,1,80,0,1
149293,-100,4,2,1,5,0,1
149382,-100,4,2,1,60,0,0
157507,-100,4,2,1,5,0,0
157596,-100,4,2,1,60,0,0
157953,-100,4,2,1,30,0,0
160453,-100,4,2,1,45,0,0
160855,-100,4,2,1,60,0,0
161168,-100,4,2,1,5,0,0

[Colours]
Combo1 : 149,254,169
Combo2 : 251,174,207
Combo3 : 163,237,234

[HitObjects]
396,208,811,6,0,L|402:118,1,90,4|0,0:0|0:0,0:0:0:0:
259,42,1168,2,0,L|252:131,1,90,4|0,0:0|0:0,0:0:0:0:
444,29,1525,2,0,P|401:21|357:29,1,90,8|0,0:0|0:0,0:0:0:0:
296,208,1882,6,0,P|248:216|206:208,1,90,0|4,0:0|0:0,0:0:0:0:
96,80,2239,2,0,P|140:71|184:79,1,90,0|0,0:0|0:0,0:0:0:0:
40,159,2596,2,0,P|58:217|114:193,1,135,4|0,0:0|0:0,0:0:0:0:
140,157,2953,5,8,0:0:0:0:
148,305,3132,1,0,0:0:0:0:
252,131,3310,1,0,0:0:0:0:
252,131,3489,1,0,0:0:0:0:
252,131,3668,6,0,P|280:165|296:207,1,90,4|0,0:0|0:0,0:0:0:0:
140,157,4025,2,0,P|111:122|95:80,1,90,4|0,0:0|0:0,0:0:0:0:
341,130,4382,2,0,P|324:172|296:207,1,90,8|0,0:0|0:0,0:0:0:0:
212,64,4739,5,0,0:0:0:0:
180,224,4918,1,4,0:0:0:0:
252,131,5096,1,0,0:0:0:0:
284,291,5275,1,0,0:0:0:0:
319,297,5364,1,0,0:0:0:0:
354,291,5453,6,0,B|392:268|392:268|380:224|392:164,1,135,4|0,0:0|0:0,0:0:0:0:
408,136,5810,1,8,0:0:0:0:
503,219,5989,1,4,0:0:0:0:
420,44,6168,6,0,L|375:50,1,45,0|0,0:0|0:0,0:0:0:0:
312,100,6346,2,0,L|267:93,1,45,4|0,0:0|0:0,0:0:0:0:
204,143,6525,6,0,L|210:232,1,90,0|0,0:0|0:0,0:0:0:0:
57,175,6882,2,0,L|50:85,1,90,4|0,0:0|0:0,0:0:0:0:
100,263,7239,2,0,P|55:271|11:263,1,90,8|4,0:0|0:0,0:0:0:0:
210,232,7596,6,0,P|254:223|298:231,1,90,0|4,0:0|0:0,0:0:0:0:
344,359,7953,2,0,P|299:367|255:359,1,90,0|0,0:0|0:0,0:0:0:0:
396,272,8310,1,4,0:0:0:0:
403,227,8399,1,0,0:0:0:0:
392,184,8488,1,0,0:0:0:0:
365,149,8577,1,0,0:0:0:0:
325,128,8667,5,8,0:0:0:0:
297,231,8846,1,0,0:0:0:0:
208,80,9025,1,4,0:0:0:0:
100,160,9203,5,0,0:0:0:0:
94,195,9292,1,0,0:0:0:0:
100,230,9382,1,4,0:0:0:0:
212,192,9560,1,0,0:0:0:0:
100,48,9739,1,4,0:0:0:0:
100,160,9918,1,0,0:0:0:0:
302,133,10096,5,8,0:0:0:0:
302,21,10275,1,2,0:0:0:0:
212,192,10453,1,0,0:0:0:0:
208,80,10632,1,4,0:0:0:0:
301,232,10810,1,0,0:0:0:0:
395,163,10988,1,0,0:0:0:0:
212,192,11168,6,0,P|205:236|215:279,1,90,4|0,0:0|0:0,0:0:0:0:
260,346,11435,1,0,0:0:0:0:
260,346,11525,2,0,L|305:339,1,45,4|0,0:0|0:0,0:0:0:0:
376,283,11703,2,0,L|421:290,1,45,0|0,0:0|0:0,0:0:0:0:
301,232,11882,1,4,0:0:0:0:
294,187,11971,1,0,0:0:0:0:
301,143,12060,1,0,0:0:0:0:
308,99,12149,1,0,0:0:0:0:
301,54,12239,5,4,0:0:0:0:
400,188,12596,1,4,0:0:0:0:
202,98,12953,6,0,P|157:93|114:106,1,90,8|0,0:0|0:0,0:0:0:0:
169,211,13310,1,2,0:0:0:0:
308,99,13489,1,4,0:0:0:0:
362,203,13668,2,0,L|355:293,1,90,0|0,0:0|0:0,0:0:0:0:
265,189,14025,1,4,0:0:0:0:
405,113,14203,1,0,0:0:0:0:
257,18,14382,1,8,0:0:0:0:
308,99,14560,1,2,0:0:0:0:
142,150,14739,2,0,L|149:240,1,90,4|0,0:0|0:0,0:0:0:0:
412,203,15096,6,0,L|405:113,1,90,12|0,0:0|0:0,0:0:0:0:
318,274,15453,1,4,0:0:0:0:
343,298,15542,1,0,0:0:0:0:
375,315,15631,1,0,0:0:0:0:
411,321,15720,1,0,0:0:0:0:
446,318,15810,1,8,0:0:0:0:
412,203,15989,1,0,0:0:0:0:
284,295,16168,1,0,0:0:0:0:
273,140,16346,1,4,0:0:0:0:
144,226,16525,5,0,0:0:0:0:
125,268,16614,1,0,0:0:0:0:
155,304,16703,1,0,0:0:0:0:
201,295,16792,1,0,0:0:0:0:
212,250,16882,2,0,P|215:224|212:200,1,45,4|0,0:0|0:0,0:0:0:0:
152,142,17060,2,0,P|149:119|152:94,1,45
204,23,17239,1,8,0:0:0:0:
273,140,17418,1,0,0:0:0:0:
356,44,17596,2,0,P|398:31|443:36,1,90,4|0,0:0|0:0,0:0:0:0:
355,173,17953,5,4,0:0:0:0:
204,23,18310,1,4,0:0:0:0:
242,218,18668,6,0,L|235:308,1,90,8|4,0:0|0:0,0:0:0:0:
351,217,19025,1,2,0:0:0:0:
240,106,19203,1,4,0:0:0:0:
137,164,19382,2,0,P|93:168|50:155,1,90,0|0,0:0|0:0,0:0:0:0:
146,60,19739,1,4,0:0:0:0:
226,200,19918,1,8,0:0:0:0:
343,90,20096,1,0,0:0:0:0:
240,106,20275,1,0,0:0:0:0:
361,226,20453,2,0,L|354:316,1,90,4|0,0:0|0:0,0:0:0:0:
86,258,20810,6,0,L|93:168,1,90,4|0,0:0|0:0,0:0:0:0:
271,267,21168,2,0,P|228:280|184:275,1,90,4|0,0:0|0:0,0:0:0:0:
218,143,21525,1,8,0:0:0:0:
271,267,21703,1,0,0:0:0:0:
359,153,21882,1,0,0:0:0:0:
412,277,22060,1,4,0:0:0:0:
442,121,22239,1,0,0:0:0:0:
415,85,22328,1,0,0:0:0:0:
375,66,22417,1,0,0:0:0:0:
330,69,22506,1,0,0:0:0:0:
293,92,22596,6,0,P|250:105|205:101,1,90,4|0,0:0|0:0,0:0:0:0:
140,76,22864,1,0,0:0:0:0:
140,76,22954,2,0,L|133:121,1,45,4|0,0:0|0:0,0:0:0:0:
77,192,23132,2,0,L|84:237,1,45,0|0,0:0|0:0,0:0:0:0:
112,332,23310,1,4,0:0:0:0:
144,300,23399,1,0,0:0:0:0:
184,281,23488,1,0,0:0:0:0:
228,276,23577,1,0,0:0:0:0:
272,285,23667,5,0,0:0:0:0:
84,104,29382,6,0,B|112:140|112:140|160:140,1,90,8|0,0:0|0:0,0:0:0:0:
232,204,29739,2,0,B|204:240|204:240|156:240,1,90,0|2,0:0|0:0,0:0:0:0:
164,36,30096,2,0,L|254:29,1,90,8|0,0:0|0:0,0:0:0:0:
285,49,30364,1,2,0:0:0:0:
316,68,30453,6,0,L|406:61,1,90,8|0,0:0|0:0,0:0:0:0:
322,198,30810,2,0,L|232:205,1,90,0|2,0:0|0:0,0:0:0:0:
140,119,31168,2,0,P|109:178|110:235,1,90,8|0,0:0|0:0,0:0:0:0:
105,237,31435,1,0,0:0:0:0:
113,273,31525,2,0,L|110:325,1,45,8|0,0:0|0:0,0:0:0:0:
233,205,31703,1,0,0:0:0:0:
140,119,31882,1,0,0:0:0:0:
239,27,32061,5,2,0:0:0:0:
274,21,32150,1,2,0:0:0:0:
309,27,32239,2,0,P|353:32|396:19,1,90,8|0,0:0|0:0,0:0:0:0:
504,108,32596,2,0,P|460:103|417:116,1,90,0|2,0:0|0:0,0:0:0:0:
296,180,32953,2,0,L|303:270,1,90,8|0,0:0|0:0,0:0:0:0:
392,348,33310,1,2,0:0:0:0:
354,323,33399,1,2,0:0:0:0:
311,312,33488,1,2,0:0:0:0:
266,317,33577,1,2,0:0:0:0:
232,331,33668,6,0,P|183:323|160:280,1,101.250003862381,0|0,0:0|0:0,0:0:0:0:
154,200,34025,2,0,P|123:147|67:174,1,135,8|0,0:0|0:0,0:0:0:0:
43,246,34382,2,0,P|30:266|2:288,2,60,0|0|0,0:0|0:0|0:0,0:0:0:0:
67,173,34739,2,0,L|64:129,1,45,0|0,0:0|0:0,0:0:0:0:
129,73,34918,2,0,L|131:28,1,45,0|0,0:0|0:0,0:0:0:0:
244,124,35096,6,0,P|288:131|331:121,1,90,4|0,0:0|0:0,0:0:0:0:
505,69,35453,2,0,P|461:62|418:73,1,90,0|4,0:0|0:0,0:0:0:0:
466,181,35810,1,8,0:0:0:0:
466,181,36168,1,4,0:0:0:0:
433,274,36346,2,0,P|447:291|464:306,2,45.5999994433594,0|0|0,0:0|0:0|0:0,0:0:0:0:
374,197,36703,2,0,L|284:203,1,90,4|0,0:0|0:0,0:0:0:0:
206,265,37060,2,0,L|154:262,1,45,0|0,0:0|0:0,0:0:0:0:
52,324,37239,6,0,P|37:307|26:287,1,45,8|0,0:0|0:0,0:0:0:0:
136,352,37418,1,0,0:0:0:0:
146,173,37596,1,8,0:0:0:0:
206,265,37775,1,2,0:0:0:0:
70,133,37953,6,0,B|70:105|70:105|78:73|78:73|78:41,1,90,4|0,0:0|0:0,0:0:0:0:
238,93,38310,2,0,B|238:121|238:121|230:153|230:153|230:185,1,90,0|4,0:0|0:0,0:0:0:0:
150,113,38668,1,8,0:0:0:0:
206,13,38846,1,0,0:0:0:0:
318,162,39025,2,0,P|362:169|405:158,1,90,4|0,0:0|0:0,0:0:0:0:
238,93,39382,1,0,0:0:0:0:
358,49,39560,1,4,0:0:0:0:
230,185,39739,2,0,P|252:223|288:249,1,90,0|0,0:0|0:0,0:0:0:0:
238,93,40096,5,8,0:0:0:0:
139,89,40275,1,0,0:0:0:0:
277,105,40453,1,0,0:0:0:0:
191,38,40632,1,0,0:0:0:0:
189,179,40810,6,0,L|182:269,1,90,4|0,0:0|0:0,0:0:0:0:
33,203,41168,2,0,L|26:293,1,90,0|4,0:0|0:0,0:0:0:0:
112,202,41525,1,8,0:0:0:0:
112,202,41882,1,4,0:0:0:0:
76,116,42060,2,0,P|84:94|95:75,2,45.5999994433594,0|0|0,0:0|0:0|0:0,0:0:0:0:
172,132,42418,2,0,L|262:125,1,90,4|0,0:0|0:0,0:0:0:0:
387,78,42775,2,0,L|343:76,1,45,0|0,0:0|0:0,0:0:0:0:
439,168,42953,6,0,P|456:153|470:135,1,45.5999994433594,8|0,0:0|0:0,0:0:0:0:
335,184,43132,2,0,P|317:198|303:216,1,45.5999994433594,0|0,0:0|0:0,0:0:0:0:
423,303,43310,2,0,P|408:286|391:272,1,45.5999994433594,8|0,0:0|0:0,0:0:0:0:
215,272,43489,2,0,P|229:289|247:303,1,45.5999994433594,0|0,0:0|0:0,0:0:0:0:
203,155,43668,2,0,P|125:197|99:281,1,180,4|0,0:0|0:0,0:0:0:0:
215,272,44203,1,4,0:0:0:0:
98,120,44382,2,0,P|65:151|42:189,1,90,8|0,0:0|0:0,0:0:0:0:
215,272,44739,5,4,0:0:0:0:
305,141,44918,2,0,B|282:196|306:228|330:260|306:316,1,180,0|0,0:0|0:0,0:0:0:0:
402,75,45453,2,0,P|329:25|243:40,1,180,4|8,0:0|0:0,0:0:0:0:
305,141,46168,1,8,0:0:0:0:
305,141,46525,6,0,P|264:156|219:155,1,90,4|0,0:0|0:0,0:0:0:0:
400,76,46882,2,0,P|444:74|486:89,1,90,0|4,0:0|0:0,0:0:0:0:
399,181,47239,1,8,0:0:0:0:
401,214,47328,1,0,0:0:0:0:
403,248,47417,1,0,0:0:0:0:
406,282,47506,1,0,0:0:0:0:
408,315,47596,1,4,0:0:0:0:
327,377,47775,6,0,P|315:357|308:336,2,45,0|0|0,0:0|0:0|0:0,0:0:0:0:
325,183,48132,2,0,P|281:186|241:207,1,90,4|0,0:0|0:0,0:0:0:0:
177,342,48489,1,0,0:0:0:0:
119,221,48668,5,8,0:0:0:0:
119,221,48846,1,0,0:0:0:0:
67,325,49025,1,8,0:0:0:0:
67,325,49203,1,2,0:0:0:0:
199,189,49382,6,0,L|192:99,1,90,4|0,0:0|0:0,0:0:0:0:
342,43,49739,2,0,L|335:133,1,90,0|4,0:0|0:0,0:0:0:0:
250,23,50096,1,8,0:0:0:0:
192,99,50275,1,0,0:0:0:0:
342,43,50453,1,4,0:0:0:0:
370,234,50632,6,0,P|325:238|282:225,1,90,0|0,0:0|0:0,0:0:0:0:
335,132,50989,1,4,0:0:0:0:
275,309,51168,2,0,P|318:321|362:316,1,90,0|0,0:0|0:0,0:0:0:0:
199,250,51525,1,8,0:0:0:0:
117,327,51703,1,8,0:0:0:0:
48,245,51882,2,0,P|25:259|8:277,2,45.5999994433594,0|0|0,0:0|0:0|0:0,0:0:0:0:
103,154,52239,6,0,B|107:120|100:95|100:95|103:64,1,90,4|0,0:0|0:0,0:0:0:0:
261,114,52596,2,0,B|264:145|264:145|257:169|261:203,1,90,0|4,0:0|0:0,0:0:0:0:
194,50,52953,1,8,0:0:0:0:
222,30,53042,1,0,0:0:0:0:
254,22,53131,1,0,0:0:0:0:
288,26,53220,1,0,0:0:0:0:
317,41,53310,1,4,0:0:0:0:
371,126,53489,6,0,P|388:111|402:93,2,45.5999994433594,0|0|0,0:0|0:0|0:0,0:0:0:0:
260,203,53846,2,0,P|290:236|331:255,1,90,4|0,0:0|0:0,0:0:0:0:
431,258,54203,1,0,0:0:0:0:
371,126,54382,5,8,0:0:0:0:
331,255,54560,1,0,0:0:0:0:
471,158,54739,1,8,0:0:0:0:
379,330,54918,1,2,0:0:0:0:
264,156,55096,5,4,0:0:0:0:
264,156,55453,1,0,0:0:0:0:
180,208,55632,1,0,0:0:0:0:
348,104,55810,1,8,0:0:0:0:
176,108,55989,1,4,0:0:0:0:
275,271,56168,5,4,0:0:0:0:
85,178,56346,2,0,L|72:357,1,180,0|0,0:0|0:0,0:0:0:0:
275,271,56882,2,0,P|196:236|116:270,1,180,4|8,0:0|0:0,0:0:0:0:
272,374,57596,6,0,P|336:353|373:298,1,135,0|0,0:0|0:0,0:0:0:0:
386,255,57953,6,0,L|446:258,1,45,4|0,0:0|0:0,0:0:0:0:
334,181,58132,2,0,L|289:178,1,45,4|0,0:0|0:0,0:0:0:0:
105,249,58489,6,0,P|103:271|107:294,1,45.5999994433594,0|0,0:0|0:0,0:0:0:0:
179,197,58668,2,0,P|182:174|181:151,1,45.5999994433594,8|0,0:0|0:0,0:0:0:0:
114,90,58846,1,0,0:0:0:0:
6,152,59025,6,0,L|34:186,1,45,4|0,0:0|0:0,0:0:0:0:
28,60,59203,2,0,L|0:26,1,45,4|0,0:0|0:0,0:0:0:0:
114,90,59382,1,0,0:0:0:0:
230,27,59560,1,0,0:0:0:0:
349,90,59739,2,0,P|368:77|384:62,1,45.5999994433594,4|0,0:0|0:0,0:0:0:0:
230,153,60096,5,8,0:0:0:0:
309,240,60275,2,0,L|306:284,1,45,4|0,0:0|0:0,0:0:0:0:
222,319,60453,1,0,0:0:0:0:
143,232,60632,2,0,L|98:229,1,45,4|0,0:0|0:0,0:0:0:0:
230,153,60810,1,0,0:0:0:0:
309,240,60989,1,0,0:0:0:0:
139,136,61168,1,0,0:0:0:0:
222,319,61346,1,4,0:0:0:0:
336,132,61525,2,0,P|394:171|418:230,1,135,8|0,0:0|0:0,0:0:0:0:
419,303,61882,5,4,0:0:0:0:
309,240,62060,1,2,0:0:0:0:
427,142,62239,1,0,0:0:0:0:
331,331,62418,1,4,0:0:0:0:
497,226,62596,1,4,0:0:0:0:
336,132,62775,1,2,0:0:0:0:
393,377,62953,1,8,0:0:0:0:
309,240,63132,6,0,P|288:249|269:261,1,45.5999994433594,0|0,0:0|0:0,0:0:0:0:
254,364,63310,1,0,0:0:0:0:
166,277,63489,2,0,L|169:231,1,45,4|0,0:0|0:0,0:0:0:0:
240,164,63668,1,0,0:0:0:0:
217,125,63757,1,0,0:0:0:0:
194,86,63846,2,0,L|197:40,1,45,4|0,0:0|0:0,0:0:0:0:
316,87,64025,2,0,L|318:131,1,45,4|0,0:0|0:0,0:0:0:0:
168,232,64203,1,2,0:0:0:0:
0,146,64382,5,8,0:0:0:0:
68,289,64560,1,0,0:0:0:0:
163,125,64739,1,0,0:0:0:0:
275,277,64918,1,4,0:0:0:0:
168,232,65096,1,0,0:0:0:0:
270,170,65275,1,0,0:0:0:0:
163,125,65453,2,0,L|160:80,1,45,4|0,0:0|0:0,0:0:0:0:
275,277,65810,5,8,0:0:0:0:
322,120,65989,2,0,P|302:106|281:97,1,45.5999994433594,4|0,0:0|0:0,0:0:0:0:
275,277,66168,1,0,0:0:0:0:
400,239,66346,2,0,P|400:217|395:195,1,45.5999994433594,4|0,0:0|0:0,0:0:0:0:
362,339,66525,6,0,P|277:366|193:338,1,180,4|0,0:0|0:0,0:0:0:0:
67,229,67060,1,0,0:0:0:0:
61,264,67149,1,0,0:0:0:0:
67,299,67238,1,8,0:0:0:0:
168,232,67418,1,0,0:0:0:0:
122,101,67596,5,4,0:0:0:0:
254,125,67775,1,0,0:0:0:0:
168,232,67953,1,0,0:0:0:0:
199,54,68132,1,0,0:0:0:0:
261,222,68310,1,0,0:0:0:0:
83,188,68489,1,0,0:0:0:0:
296,114,68668,6,0,L|411:123,1,90,8|0,0:0|0:0,0:0:0:0:
261,222,69025,1,0,0:0:0:0:
199,54,69203,1,0,0:0:0:0:
368,225,69382,5,0,0:0:0:0:
368,225,75096,6,0,P|323:217|280:226,1,90,8|0,0:0|0:0,0:0:0:0:
223,143,75453,2,0,P|179:151|136:142,1,90,0|8,0:0|0:0,0:0:0:0:
104,48,75810,1,8,0:0:0:0:
65,71,75899,1,0,0:0:0:0:
41,108,75988,1,0,0:0:0:0:
36,152,76077,1,0,0:0:0:0:
50,195,76167,1,8,0:0:0:0:
136,142,76346,1,0,0:0:0:0:
188,228,76525,6,0,L|181:318,1,90,0|8,0:0|0:0,0:0:0:0:
276,280,76882,2,0,L|283:190,1,90,8|0,0:0|0:0,0:0:0:0:
311,212,77150,1,8,0:0:0:0:
340,233,77239,2,0,P|383:241|427:234,1,90,8|0,0:0|0:0,0:0:0:0:
472,112,77596,2,0,P|428:104|384:112,1,90,0|8,0:0|0:0,0:0:0:0:
356,87,77864,1,8,0:0:0:0:
327,65,77953,6,0,P|270:30|203:33,1,135.000005149842,8|0,0:0|0:0,0:0:0:0:
113,92,78489,1,8,0:0:0:0:
143,195,78668,1,8,0:0:0:0:
143,195,79025,5,4,0:0:0:0:
303,134,79203,2,0,L|316:313,1,180,0|0,0:0|0:0,0:0:0:0:
487,229,79739,2,0,P|422:189|413:264,1,180,4|8,0:0|0:0,0:0:0:0:
487,325,80453,5,0,0:0:0:0:
253,105,80810,6,0,P|296:103|320:139,1,90,4|0,0:0|0:0,0:0:0:0:
185,190,81168,2,0,P|205:223|265:214,1,90,0|4,0:0|0:0,0:0:0:0:
151,91,81525,1,8,0:0:0:0:
151,91,81882,1,4,0:0:0:0:
101,176,82060,1,0,0:0:0:0:
101,176,82150,1,0,0:0:0:0:
101,176,82239,1,0,0:0:0:0:
184,228,82418,2,0,L|176:333,1,90,4|0,0:0|0:0,0:0:0:0:
54,284,82775,2,0,P|74:272|96:265,1,45,0|0,0:0|0:0,0:0:0:0:
177,317,82953,6,0,L|222:315,1,45,8|0,0:0|0:0,0:0:0:0:
306,365,83132,1,0,0:0:0:0:
382,253,83311,1,8,0:0:0:0:
455,365,83489,1,2,0:0:0:0:
276,259,83668,6,0,P|283:215|306:177,1,90,4|0,0:0|0:0,0:0:0:0:
335,153,83935,1,0,0:0:0:0:
356,123,84025,2,0,L|352:75,1,45
467,121,84203,2,0,L|470:165,1,45,4|0,0:0|0:0,0:0:0:0:
382,253,84382,1,8,0:0:0:0:
239,169,84561,1,0,0:0:0:0:
151,309,84739,2,0,L|46:301,1,90,4|0,0:0|0:0,0:0:0:0:
259,281,85096,2,0,L|364:289,1,90,0|4,0:0|0:0,0:0:0:0:
131,197,85453,6,0,P|147:105|191:69,1,135,0|0,0:0|0:0,0:0:0:0:
215,53,85810,1,8,0:0:0:0:
215,53,86168,1,0,0:0:0:0:
239,169,86525,6,0,B|268:169|268:169|300:161|300:161|328:161,1,90,4|0,0:0|0:0,0:0:0:0:
420,285,86882,2,0,B|391:285|391:285|359:293|359:293|331:293,1,90,0|4,0:0|0:0,0:0:0:0:
435,177,87239,1,8,0:0:0:0:
435,177,87596,1,4,0:0:0:0:
511,253,87775,1,0,0:0:0:0:
511,253,87864,1,0,0:0:0:0:
511,253,87953,1,0,0:0:0:0:
420,285,88132,2,0,L|428:390,1,90,4|0,0:0|0:0,0:0:0:0:
326,275,88489,2,0,P|304:283|284:295,1,45.5999994433594,0|0,0:0|0:0,0:0:0:0:
178,381,88668,6,0,P|200:373|219:362,1,45.5999994433594,8|0,0:0|0:0,0:0:0:0:
139,243,88846,2,0,P|147:265|159:285,1,45.5999994433594
247,185,89025,2,0,P|239:163|227:143,1,45.5999994433594,8|0,0:0|0:0,0:0:0:0:
79,129,89203,2,0,P|98:140|120:148,1,45.5999994433594,2|0,0:0|0:0,0:0:0:0:
332,226,89382,2,0,B|355:171|331:139|307:107|331:51,1,180,4|0,0:0|0:0,0:0:0:0:
435,101,89917,1,4,0:0:0:0:
247,185,90096,2,0,P|231:143|226:98,1,90,8|0,0:0|0:0,0:0:0:0:
435,101,90453,5,0,0:0:0:0:
452,243,90632,2,0,P|364:231|293:283,1,180,0|0,0:0|0:0,0:0:0:0:
140,99,91168,2,0,P|211:151|299:140,1,180,4|8,0:0|0:0,0:0:0:0:
241,38,91882,1,8,0:0:0:0:
241,38,92239,6,0,P|241:82|224:124,1,90,4|0,0:0|0:0,0:0:0:0:
56,128,92596,2,0,P|55:83|72:41,1,90,0|4,0:0|0:0,0:0:0:0:
124,200,92953,1,8,0:0:0:0:
96,220,93043,1,0,0:0:0:0:
64,228,93132,1,0,0:0:0:0:
30,224,93221,1,0,0:0:0:0:
1,209,93310,1,4,0:0:0:0:
72,320,93489,5,0,0:0:0:0:
72,320,93578,1,0,0:0:0:0:
72,320,93668,1,0,0:0:0:0:
168,284,93846,2,0,P|212:287|252:308,1,90,4|0,0:0|0:0,0:0:0:0:
319,380,94203,1,0,0:0:0:0:
378,254,94382,5,8,0:0:0:0:
445,321,94560,1,0,0:0:0:0:
334,170,94739,1,8,0:0:0:0:
431,174,94918,1,8,0:0:0:0:
235,195,95096,6,0,P|235:151|252:109,1,90,4|0,0:0|0:0,0:0:0:0:
278,84,95364,1,0,0:0:0:0:
302,57,95453,2,0,L|212:50,1,90,0|4,0:0|0:0,0:0:0:0:
105,132,95810,1,8,0:0:0:0:
122,43,95989,1,0,0:0:0:0:
147,212,96167,1,4,0:0:0:0:
0,99,96346,6,0,P|-4:143|8:186,1,90,0|0,0:0|0:0,0:0:0:0:
105,132,96703,1,4,0:0:0:0:
181,306,96882,2,0,P|137:311|94:299,1,90,0|0,0:0|0:0,0:0:0:0:
234,230,97239,1,8,0:0:0:0:
332,304,97417,1,8,0:0:0:0:
386,210,97596,2,0,P|409:224|426:242,2,45.5999994433594,0|0|0,0:0|0:0|0:0,0:0:0:0:
300,143,97953,6,0,L|307:53,1,90,4|0,0:0|0:0,0:0:0:0:
154,122,98310,2,0,L|147:212,1,90,0|4,0:0|0:0,0:0:0:0:
344,279,98668,1,0,0:0:0:0:
328,250,98757,1,0,0:0:0:0:
303,227,98846,1,0,0:0:0:0:
272,215,98935,1,0,0:0:0:0:
238,215,99025,1,4,0:0:0:0:
256,327,99203,5,0,0:0:0:0:
256,327,99293,1,0,0:0:0:0:
256,327,99382,1,0,0:0:0:0:
169,278,99560,2,0,L|64:286,1,90,4|0,0:0|0:0,0:0:0:0:
16,207,99918,1,0,0:0:0:0:
141,136,100096,5,8,0:0:0:0:
169,278,100275,1,0,0:0:0:0:
49,118,100453,1,8,0:0:0:0:
79,284,100632,1,2,0:0:0:0:
251,186,100810,5,4,0:0:0:0:
169,278,100989,1,0,0:0:0:0:
141,136,101168,1,0,0:0:0:0:
251,186,101346,1,0,0:0:0:0:
60,228,101525,1,8,0:0:0:0:
224,96,101703,1,4,0:0:0:0:
288,300,101882,5,4,0:0:0:0:
488,128,102060,2,0,P|405:95|317:111,1,180,0|0,0:0|0:0,0:0:0:0:
443,252,102597,2,0,P|396:188|339:243,1,180,4|0,0:0|0:0,0:0:0:0:
420,324,103310,6,0,P|393:256|357:319,1,180,4|4,0:0|0:0,0:0:0:0:
125,75,114739,6,0,P|150:134|214:136,1,135,0|0,0:0|0:0,0:0:0:0:
252,112,115096,5,0,0:0:0:0:
344,232,115453,2,0,L|420:226,1,76.5000014591217,2|0,0:0|0:0,0:0:0:0:
304,324,115810,2,0,L|227:318,1,76.5000014591217,2|0,0:0|0:0,0:0:0:0:
120,272,116168,2,0,P|112:315|114:348,1,76.5000014591217,2|0,0:0|0:0,0:0:0:0:
204,224,116525,2,0,P|164:183|108:174,1,114.750002188683,2|0,0:0|0:0,0:0:0:0:
68,176,116882,2,0,L|62:99,1,76.5000014591217,2|0,0:0|0:0,0:0:0:0:
220,40,117239,2,0,L|214:116,1,76.5000014591217,2|0,0:0|0:0,0:0:0:0:
204,224,117596,2,0,P|248:223|280:229,1,76.5000014591217,2|0,0:0|0:0,0:0:0:0:
372,316,117953,6,0,P|356:345|316:332,1,76.5000014591217,2|0,0:0|0:0,0:0:0:0:
368,224,118310,1,2,0:0:0:0:
458,265,118489,1,0,0:0:0:0:
501,153,118668,2,0,P|482:122|447:132,1,76.5000014591217,2|0,0:0|0:0,0:0:0:0:
458,265,119025,1,2,0:0:0:0:
368,224,119204,1,0,0:0:0:0:
240,304,119382,2,0,B|208:308|196:300|163:304,1,76.5000014591217,2|0,0:0|0:0,0:0:0:0:
248,196,119739,1,0,0:0:0:0:
328,304,119918,1,0,0:0:0:0:
132,192,120096,6,0,L|137:115,1,76.5000014591217,2|0,0:0|0:0,0:0:0:0:
248,196,120453,2,0,P|304:187|344:147,1,114.750002188683,2|0,0:0|0:0,0:0:0:0:
360,112,120810,5,8,0:0:0:0:
360,112,121346,5,8,0:0:0:0:
336,252,121525,1,0,0:0:0:0:
436,184,121703,2,0,L|455:185,4,19.1250003647804,0|0|0|0|8,0:0|0:0|0:0|0:0|0:0,0:0:0:0:
223,335,122418,5,8,0:0:0:0:
247,195,122597,1,8,0:0:0:0:
147,263,122775,2,0,L|128:262,4,19.1250003647804,0|0|0|0|8,0:0|0:0|0:0|0:0|0:0,0:0:0:0:
338,283,123489,5,8,0:0:0:0:
338,283,123578,1,8,0:0:0:0:
338,283,123668,2,0,P|276:251|245:174,1,135.000005149842,8|0,0:0|0:0,0:0:0:0:
240,101,124203,1,8,0:0:0:0:
356,173,124382,1,0,0:0:0:0:
240,101,124739,5,8,0:0:0:0:
356,173,124918,1,8,0:0:0:0:
472,101,125096,1,8,0:0:0:0:
126,101,126168,6,0,L|111:83,7,22.5,0|0|0|0|0|0|0|0,0:0|0:0|0:0|0:0|0:0|0:0|0:0|0:0,0:0:0:0:
140,118,126525,6,0,L|259:110,1,90,4|0,0:0|0:0,0:0:0:0:
319,36,126882,1,0,0:0:0:0:
416,128,127060,1,4,0:0:0:0:
321,220,127239,2,0,P|319:264|334:306,1,90,8|0,0:0|0:0,0:0:0:0:
477,326,127596,2,0,P|479:282|464:240,1,90,4|0,0:0|0:0,0:0:0:0:
334,306,127953,2,0,L|245:300,1,90,0|4,0:0|0:0,0:0:0:0:
155,224,128310,5,0,0:0:0:0:
63,295,128489,1,0,0:0:0:0:
43,254,128578,1,0,0:0:0:0:
40,210,128668,1,8,0:0:0:0:
152,319,128846,1,0,0:0:0:0:
242,211,129025,2,0,L|242:117,1,90,8|2,0:0|0:0,0:0:0:0:
414,155,129382,6,0,P|372:170|328:169,1,90,4|0,0:0|0:0,0:0:0:0:
184,33,129739,2,0,P|226:18|271:20,1,90,0|4,0:0|0:0,0:0:0:0:
242,121,130096,1,8,0:0:0:0:
242,121,130453,5,4,0:0:0:0:
167,211,130632,1,2,0:0:0:0:
276,272,130810,1,0,0:0:0:0:
148,312,130989,1,4,0:0:0:0:
323,179,131168,2,0,P|372:236|372:304,1,135,0|0,0:0|0:0,0:0:0:0:
360,340,131525,1,8,0:0:0:0:
360,340,131882,1,8,0:0:0:0:
276,272,132060,1,2,0:0:0:0:
148,312,132239,6,0,P|103:313|61:298,1,90,4|0,0:0|0:0,0:0:0:0:
124,180,132596,2,0,P|168:178|210:193,1,90,0|4,0:0|0:0,0:0:0:0:
276,272,132953,1,8,0:0:0:0:
36,208,133310,6,0,L|42:118,1,90,4|2,0:0|0:0,0:0:0:0:
124,36,133668,1,0,0:0:0:0:
216,108,133846,1,4,0:0:0:0:
308,36,134025,1,0,0:0:0:0:
400,108,134203,1,0,0:0:0:0:
276,224,134382,6,0,P|308:176|342:223,1,135,8|0,0:0|0:0,0:0:0:0:
312,304,134739,2,0,P|356:305|398:290,1,90,8|2,0:0|0:0,0:0:0:0:
192,196,135096,2,0,P|147:194|105:209,1,90,4|0,0:0|0:0,0:0:0:0:
12,272,135453,6,0,L|6:182,1,90,0|4,0:0|0:0,0:0:0:0:
186,106,135810,2,0,L|192:196,1,90,8|0,0:0|0:0,0:0:0:0:
111,298,136168,2,0,L|105:208,1,90,4|2,0:0|0:0,0:0:0:0:
285,132,136525,2,0,L|291:222,1,90,0|2,0:0|0:0,0:0:0:0:
372,84,136882,6,0,P|341:50|301:31,1,90,4|0,0:0|0:0,0:0:0:0:
372,187,137239,2,0,P|415:176|451:150,1,90,8|2,0:0|0:0,0:0:0:0:
285,132,137596,1,0,0:0:0:0:
207,264,137953,6,0,P|163:271|120:260,1,90,4|0,0:0|0:0,0:0:0:0:
119,136,138310,2,0,P|164:129|207:140,1,90,0|4,0:0|0:0,0:0:0:0:
32,196,138668,2,0,L|26:106,1,90,0|0,0:0|0:0,0:0:0:0:
200,49,139025,2,0,L|206:139,1,90,4|0,0:0|0:0,0:0:0:0:
119,259,139382,1,0,0:0:0:0:
268,204,139560,1,4,0:0:0:0:
320,328,139739,6,0,P|276:338|232:331,1,90,0|0,0:0|0:0,0:0:0:0:
416,228,140096,2,0,P|444:262|456:305,1,90,8|0,0:0|0:0,0:0:0:0:
268,204,140453,1,8,0:0:0:0:
356,128,140632,1,2,0:0:0:0:
152,192,140810,6,0,L|62:185,1,90,4|0,0:0|0:0,0:0:0:0:
62,185,141078,1,0,0:0:0:0:
62,185,141168,1,0,0:0:0:0:
112,88,141346,1,4,0:0:0:0:
268,204,141525,1,8,0:0:0:0:
112,319,141881,5,4,0:0:0:0:
268,204,142060,1,2,0:0:0:0:
268,204,142418,5,4,0:0:0:0:
299,299,142596,2,0,P|337:277|362:240,1,90
311,124,142953,2,0,P|386:85|443:147,1,180,0|0,0:0|0:0,0:0:0:0:
167,280,143668,6,0,P|224:340|298:301,1,180,4|0,0:0|0:0,0:0:0:0:
242,225,144203,1,4,0:0:0:0:
92,328,144382,2,0,L|2:321,1,90,8|0,0:0|0:0,0:0:0:0:
24,196,144739,2,0,L|114:203,1,90,4|2,0:0|0:0,0:0:0:0:
167,280,145096,2,0,P|195:245|207:202,1,90,0|4,0:0|0:0,0:0:0:0:
160,112,145453,2,0,P|171:68|264:20,1,135
288,16,145810,5,8,0:0:0:0:
256,116,145989,1,0,0:0:0:0:
104,40,146168,1,8,0:0:0:0:
72,140,146347,1,2,0:0:0:0:
320,196,146525,6,0,P|348:161|360:118,1,90,4|0,0:0|0:0,0:0:0:0:
496,40,146882,2,0,P|467:74|455:117,1,90,0|4,0:0|0:0,0:0:0:0:
415,287,147239,2,0,P|451:265|440:224,1,90,8|0,0:0|0:0,0:0:0:0:
320,196,147596,1,4,0:0:0:0:
244,288,147775,1,2,0:0:0:0:
212,148,147953,5,0,0:0:0:0:
136,240,148132,1,2,0:0:0:0:
265,173,148310,1,4,0:0:0:0:
320,196,148668,5,8,0:0:0:0:
244,288,148847,1,0,0:0:0:0:
212,148,149025,2,0,P|148:169|84:152,1,135,8|0,0:0|0:0,0:0:0:0:
52,121,149382,6,0,P|38:163|42:208,1,90,4|0,0:0|0:0,0:0:0:0:
241,115,149739,2,0,P|254:72|250:27,1,90,4|0,0:0|0:0,0:0:0:0:
280,48,150007,1,0,0:0:0:0:
309,69,150096,5,8,0:0:0:0:
400,12,150275,1,0,0:0:0:0:
492,68,150453,1,0,0:0:0:0:
309,69,150632,1,4,0:0:0:0:
400,121,150811,1,0,0:0:0:0:
400,228,150989,1,0,0:0:0:0:
232,296,151168,5,4,0:0:0:0:
168,184,151347,1,0,0:0:0:0:
296,184,151525,1,8,0:0:0:0:
232,296,151703,1,0,0:0:0:0:
232,112,151881,1,0,0:0:0:0:
140,276,152060,1,0,0:0:0:0:
324,276,152239,6,0,P|361:255|390:195,1,90,4|0,0:0|0:0,0:0:0:0:
303,112,152596,1,4,0:0:0:0:
259,101,152685,1,0,0:0:0:0:
216,112,152774,1,0,0:0:0:0:
183,142,152863,1,0,0:0:0:0:
168,184,152953,5,8,0:0:0:0:
120,68,153132,1,0,0:0:0:0:
52,160,153310,1,0,0:0:0:0:
52,160,153489,1,4,0:0:0:0:
112,260,153668,1,0,0:0:0:0:
184,168,153846,1,0,0:0:0:0:
264,256,154025,2,0,P|267:300|254:343,1,90,4|0,0:0|0:0,0:0:0:0:
352,216,154382,2,0,P|323:181|283:160,1,90,8|0,0:0|0:0,0:0:0:0:
442,182,154739,2,0,P|445:226|432:269,1,90,0|4,0:0|0:0,0:0:0:0:
184,168,155096,6,0,P|180:123|193:80,1,90,4|0,0:0|0:0,0:0:0:0:
288,28,155453,1,4,0:0:0:0:
323,31,155542,1,0,0:0:0:0:
359,34,155631,1,0,0:0:0:0:
395,36,155720,1,0,0:0:0:0:
431,39,155810,1,8,0:0:0:0:
500,124,155989,1,4,0:0:0:0:
439,212,156168,5,0,0:0:0:0:
412,235,156257,1,0,0:0:0:0:
379,248,156346,1,4,0:0:0:0:
343,252,156435,1,0,0:0:0:0:
308,244,156525,1,0,0:0:0:0:
284,140,156703,1,0,0:0:0:0:
128,188,156882,6,0,L|121:98,1,90,4|0,0:0|0:0,0:0:0:0:
208,247,157239,2,0,P|153:285|87:280,1,135,8|0,0:0|0:0,0:0:0:0:
52,252,157596,1,4,0:0:0:0:
125,137,157775,1,0,0:0:0:0:
208,247,157953,5,0,0:0:0:0:
263,123,158489,5,0,0:0:0:0:
341,232,159025,5,0,0:0:0:0:
256,192,159382,12,0,161168,0:0:0:0:
