osu file format v14

[General]
AudioFilename: Marble Soda.mp3
AudioLeadIn: 0
PreviewTime: 34382
Countdown: 0
SampleSet: Soft
StackLeniency: 1
Mode: 0
LetterboxInBreaks: 0
WidescreenStoryboard: 0

[Editor]
Bookmarks: 29382
DistanceSpacing: 2.15
BeatDivisor: 4
GridSize: 4
TimelineZoom: 1.5

[Metadata]
Title:Marble Soda
TitleUnicode:Marble Soda
Artist:Shawn Wasabi
ArtistUnicode:Shawn Wasabi
Creator:Exa
Version:Hard
Source:
Tags:Mashup Frim4503 fartownik Nozhomi Fantasy Pink Medicine Kiss Pachirisu tone Take There PONPONPON Fast Love Money GT40 Y2K Slow Double Jump Flicker Divinity Fresh Static Snow Lionhearted Polygon Dust Sad Machine ABXY Pluto! R2D2 PANDA EXPRESS Peaceful Lemon Tree Dirty Vibe Sailor Mouth Pikachu Pokeball Anime Bae Cloud City Ohana Yoshi Faded Streamers ID Octahate U Guessed It CoCo Kimono Nintendo Sunny Shores Area Codes Always Hello Tell Chocolate DITTO All Me DOLPHIN Say My Name Paws Pearls Wedding Bells Rice Rain Aurora Mirror Maru Car Pop XOXO Glitter Sand Brights Gay Wolf Space Parade Feelsie Heirloom miss Facebook 11 Mine Cream
BeatmapID:703755
BeatmapSetID:313718

[Difficulty]
HPDrainRate:6
CircleSize:3.7
OverallDifficulty:6.5
ApproachRate:8
SliderMultiplier:1.2
SliderTickRate:1

[Events]
//Background and Video events
0,0,"MarbleSodaBG.jpg",0,0
//Break Periods
2,23868,28632
2,69582,74347
2,103868,113990
//Storyboard Layer 0 (Background)
//Storyboard Layer 1 (Fail)
//Storyboard Layer 2 (Pass)
//Storyboard Layer 3 (Foreground)
//Storyboard Sound Samples

[TimingPoints]
811,357.142857142857,4,2,1,60,1,0
33668,-100,4,2,1,5,0,0
34025,-100,4,2,1,60,0,0
34382,-131.578947368421,4,2,1,60,0,0
34739,-100,4,2,1,60,0,0
35096,-100,4,2,1,80,0,1
51882,-131.578947368421,4,2,1,80,0,1
52239,-100,4,2,1,80,0,1
57953,-100,4,2,1,60,0,0
80810,-100,4,2,1,80,0,1
97596,-131.578947368421,4,2,1,80,0,1
97864,-100,4,2,1,80,0,1
103668,-100,4,2,1,60,0,0
114739,-100,4,2,1,30,0,0
115007,-100,4,2,1,5,0,0
115096,-100,4,2,1,30,0,0
120810,-100,4,3,1,100,0,0
125096,-100,4,3,1,30,0,0
126525,-100,4,2,1,80,0,1
149382,-100,4,2,1,60,0,0
157953,-100,4,2,1,30,0,0
160453,-100,4,2,1,45,0,0
160855,-100,4,2,1,60,0,0
161168,-100,4,2,1,5,0,0

[Colours]
Combo1 : 149,254,169
Combo2 : 251,174,207
Combo3 : 163,237,234

[HitObjects]
33,277,811,6,4,L|108:271,1,60,4|0,0:0|0:0,0:0:0:0:
153,329,1168,2,0,L|212:324,1,60,4|0,0:0|0:0,0:0:0:0:
273,384,1525,2,0,P|297:330|281:273,1,120,8|0,0:0|0:0,0:0:0:0:
225,213,2060,1,4,0:0:0:0:
169,153,2240,2,0,L|164:93,1,60,0|0,0:0|0:0,0:0:0:0:
241,53,2597,2,0,B|297:45|313:61|369:53,1,120,4|8,0:0|0:0,0:0:0:0:
489,161,3310,1,0,0:0:0:0:
497,173,3668,6,0,L|503:248,1,60,4|0,0:0|0:0,0:0:0:0:
447,293,4025,2,0,L|452:352,1,60,4|0,0:0|0:0,0:0:0:0:
365,281,4382,2,0,P|356:221|364:162,1,120,8|0,0:0|0:0,0:0:0:0:
364,162,4918,1,4,0:0:0:0:
285,141,5097,2,0,L|225:145,1,60,0|0,0:0|0:0,0:0:0:0:
153,185,5454,2,0,L|148:125,1,60,4|0,0:0|0:0,0:0:0:0:
89,65,5810,1,8,0:0:0:0:
57,145,5989,1,4,0:0:0:0:
60,230,6168,2,0,L|55:289,1,60,0|4,0:0|0:0,0:0:0:0:
93,365,6525,6,0,P|125:361|153:365,1,60,0|0,0:0|0:0,0:0:0:0:
212,306,6882,2,0,P|244:302|272:306,1,60,4|0,0:0|0:0,0:0:0:0:
317,233,7240,2,0,L|333:175,1,60,8|4,0:0|0:0,0:0:0:0:
417,189,7596,1,0,0:0:0:0:
445,109,7775,1,4,0:0:0:0:
364,86,7954,2,0,P|332:82|304:86,1,60,0|0,0:0|0:0,0:0:0:0:
236,134,8311,2,0,L|200:162,2,30,4|0|0,0:0|0:0|0:0,0:0:0:0:
172,78,8668,1,8,0:0:0:0:
129,237,9025,1,4,0:0:0:0:
121,249,9382,6,0,L|61:249,1,60,4|0,0:0|0:0,0:0:0:0:
80,169,9740,2,0,L|20:169,1,60,4|0,0:0|0:0,0:0:0:0:
121,89,10097,2,0,L|61:89,1,60,8|2,0:0|0:0,0:0:0:0:
92,13,10453,1,0,0:0:0:0:
176,13,10632,1,4,0:0:0:0:
248,57,10811,2,0,P|307:65|366:57,2,120,0|4|4,0:0|0:0|0:0,0:0:0:0:
92,13,11882,1,4,0:0:0:0:
211,147,12239,5,4,0:0:0:0:
366,56,12596,1,4,0:0:0:0:
374,68,12954,6,0,L|378:127,1,60,8|0,0:0|0:0,0:0:0:0:
392,212,13310,1,2,0:0:0:0:
468,172,13489,1,4,0:0:0:0:
484,256,13668,2,0,L|488:315,1,60,0|0,0:0|0:0,0:0:0:0:
412,355,14025,2,0,L|324:348,1,60,4|0,0:0|0:0,0:0:0:0:
268,341,14382,1,8,0:0:0:0:
134,239,14739,1,4,0:0:0:0:
217,232,14918,1,0,0:0:0:0:
236,218,15007,1,0,0:0:0:0:
255,204,15097,6,0,P|263:145|255:86,2,120,12|4|8,0:0|0:0|0:0,0:0:0:0:
136,272,16168,1,0,0:0:0:0:
72,220,16346,1,4,0:0:0:0:
136,164,16525,2,0,B|144:108|128:92|136:36,1,120,0|4,0:0|0:0,0:0:0:0:
212,192,17239,1,8,0:0:0:0:
56,128,17596,1,4,0:0:0:0:
212,72,17954,6,0,P|244:68|272:72,1,60,4|0,0:0|0:0,0:0:0:0:
340,120,18311,2,0,P|372:124|400:120,1,60,4|0,0:0|0:0,0:0:0:0:
488,96,18668,2,0,L|484:155,1,60,8|4,0:0|0:0,0:0:0:0:
470,240,19025,1,2,0:0:0:0:
394,200,19204,1,4,0:0:0:0:
378,284,19383,6,0,L|374:343,1,60,0|0,0:0|0:0,0:0:0:0:
295,316,19739,2,0,P|236:307|177:315,1,120,4|0,0:0|0:0,0:0:0:0:
100,351,20275,1,0,0:0:0:0:
25,313,20453,1,4,0:0:0:0:
21,228,20632,1,0,0:0:0:0:
31,206,20721,1,0,0:0:0:0:
42,184,20811,6,0,B|34:152|42:120|50:91|42:64,2,120,4|4|8,0:0|0:0|0:0,0:0:0:0:
212,236,21882,1,0,0:0:0:0:
212,236,22060,1,4,0:0:0:0:
288,204,22240,2,0,L|347:198,1,60,0|0,0:0|0:0,0:0:0:0:
380,120,22597,2,0,L|320:115,1,60,4|0,0:0|0:0,0:0:0:0:
276,44,22954,2,0,B|224:36|208:52|156:45,2,120,4|4|0,0:0|0:0|0:0,0:0:0:0:
140,112,29382,6,0,P|172:116|200:112,1,60,8|0,0:0|0:0,0:0:0:0:
260,52,29739,2,0,P|289:48|319:52,1,60,0|2,0:0|0:0,0:0:0:0:
396,84,30096,2,0,P|395:133|404:177,1,90,8|0,0:0|0:0,0:0:0:0:
416,213,30453,2,0,P|386:209|356:213,1,60,8|0,0:0|0:0,0:0:0:0:
296,273,30810,2,0,P|266:276|236:272,1,60,0|2,0:0|0:0,0:0:0:0:
219,189,31168,6,0,P|179:208|154:246,1,90,8|0,0:0|0:0,0:0:0:0:
153,288,31525,1,8,0:0:0:0:
85,337,31703,1,0,0:0:0:0:
16,288,31882,1,0,0:0:0:0:
73,227,32060,1,2,0:0:0:0:
73,227,32150,1,2,0:0:0:0:
73,227,32239,6,0,L|68:167,1,60,8|0,0:0|0:0,0:0:0:0:
136,117,32596,2,0,L|140:57,1,60,0|2,0:0|0:0,0:0:0:0:
227,75,32953,2,0,L|328:68,1,90,8|0,0:0|0:0,0:0:0:0:
316,68,33311,2,0,L|340:114,4,30,2|2|2|0|0,0:0|0:0|0:0|0:0|0:0,0:0:0:0:
223,203,34025,5,8,0:0:0:0:
227,75,34382,2,0,L|212:48,2,30.3999996289063
279,142,34739,1,0,0:0:0:0:
316,68,34918,1,0,0:0:0:0:
300,219,35097,6,0,L|304:278,1,60,4|0,0:0|0:0,0:0:0:0:
380,311,35454,2,0,L|384:251,1,60,0|4,0:0|0:0,0:0:0:0:
448,195,35810,1,8,0:0:0:0:
304,278,36168,2,0,L|168:278,1,120,4|0,0:0|0:0,0:0:0:0:
116,239,36703,1,4,0:0:0:0:
90,72,37060,5,0,0:0:0:0:
160,120,37240,2,0,L|219:119,1,60,8|0,0:0|0:0,0:0:0:0:
260,44,37596,1,8,0:0:0:0:
304,116,37775,1,2,0:0:0:0:
387,120,37954,6,0,P|383:88|387:60,1,60,4|0,0:0|0:0,0:0:0:0:
467,32,38311,2,0,P|471:64|467:92,2,60,0|4|8,0:0|0:0|0:0,0:0:0:0:
386,60,38846,1,0,0:0:0:0:
386,143,39025,1,4,0:0:0:0:
386,143,39203,1,0,0:0:0:0:
426,219,39382,2,0,L|422:279,1,60,0|4,0:0|0:0,0:0:0:0:
338,275,39740,2,0,L|342:215,1,60,0|0,0:0|0:0,0:0:0:0:
386,143,40097,2,0,P|470:147|510:231,1,180,8|0,0:0|0:0,0:0:0:0:
462,295,40811,6,0,L|382:289,1,60,4|0,0:0|0:0,0:0:0:0:
338,347,41168,2,0,L|258:352,1,60,0|4,0:0|0:0,0:0:0:0:
202,315,41525,1,8,0:0:0:0:
190,307,41882,6,0,L|166:182,1,120,4|0,0:0|0:0,0:0:0:0:
192,108,42418,1,4,0:0:0:0:
344,196,42775,5,0,0:0:0:0:
347,200,42954,2,0,P|379:204|407:200,1,60,8|0,0:0|0:0,0:0:0:0:
377,67,43311,2,0,P|373:97|377:127,1,60,8|0,0:0|0:0,0:0:0:0:
483,97,43668,2,0,L|303:97,1,180,4|4,0:0|0:0,0:0:0:0:
230,134,44382,1,8,0:0:0:0:
220,144,44739,6,0,L|243:262,1,120,4|0,0:0|0:0,0:0:0:0:
310,314,45275,1,0,0:0:0:0:
388,342,45454,2,0,L|459:336,1,60,4|0,0:0|0:0,0:0:0:0:
494,267,45810,1,0,0:0:0:0:
325,234,46168,1,8,0:0:0:0:
406,87,46525,6,0,L|392:17,1,60,4|0,0:0|0:0,0:0:0:0:
312,6,46882,2,0,L|241:12,1,60,0|4,0:0|0:0,0:0:0:0:
176,48,47239,1,8,0:0:0:0:
168,60,47596,6,0,L|158:191,1,120,4|0,0:0|0:0,0:0:0:0:
208,248,48132,1,4,0:0:0:0:
374,267,48489,1,0,0:0:0:0:
444,220,48668,2,0,L|524:214,1,60,8|0,0:0|0:0,0:0:0:0:
468,140,49025,2,0,L|408:135,1,60,8|2,0:0|0:0,0:0:0:0:
356,68,49382,6,0,P|297:59|238:67,1,120,4|0,0:0|0:0,0:0:0:0:
200,142,49918,1,4,0:0:0:0:
278,171,50096,1,8,0:0:0:0:
107,167,50453,1,4,0:0:0:0:
52,104,50632,2,0,B|28:84|28:84|16:124|28:192,1,120,0|4,0:0|0:0,0:0:0:0:
112,227,51168,2,0,L|107:167,1,60,0|0,0:0|0:0,0:0:0:0:
187,194,51525,2,0,L|191:253,1,60,8|8,0:0|0:0,0:0:0:0:
240,321,51882,2,0,L|254:358,2,30.3999996289063
287,251,52239,6,0,P|319:247|347:251,1,60.7999992578125,4|0,0:0|0:0,0:0:0:0:
418,294,52596,2,0,P|450:298|478:294,1,60.7999992578125,0|0,0:0|0:0,0:0:0:0:
447,215,52953,1,8,0:0:0:0:
435,207,53311,6,0,L|419:70,1,120,4|0,0:0|0:0,0:0:0:0:
353,38,53846,1,4,0:0:0:0:
243,165,54203,1,0,0:0:0:0:
180,221,54382,2,0,L|121:225,1,60,8|0,0:0|0:0,0:0:0:0:
39,200,54739,1,8,0:0:0:0:
0,125,54918,1,2,0:0:0:0:
39,51,55096,5,4,0:0:0:0:
49,44,55454,2,0,L|122:45,1,60,0|0,0:0|0:0,0:0:0:0:
182,85,55810,1,8,0:0:0:0:
192,95,55989,1,4,0:0:0:0:
299,80,56168,5,4,0:0:0:0:
309,90,56346,2,0,B|359:123|359:123|409:90,1,120,0|0,0:0|0:0,0:0:0:0:
360,23,56882,2,0,L|360:167,1,120,4|8,0:0|0:0,0:0:0:0:
249,267,57596,1,0,0:0:0:0:
413,302,57953,5,4,0:0:0:0:
413,302,58132,1,4,0:0:0:0:
284,193,58489,5,0,0:0:0:0:
208,156,58668,2,0,L|149:160,1,60,8|0,0:0|0:0,0:0:0:0:
76,204,59025,2,0,L|72:145,1,60,4|4,0:0|0:0,0:0:0:0:
127,80,59382,2,0,L|131:21,1,60,0|0,0:0|0:0,0:0:0:0:
48,35,59739,1,4,0:0:0:0:
214,55,60097,6,0,L|281:62,1,60,8|4,0:0|0:0,0:0:0:0:
337,116,60454,2,0,L|341:175,1,60,0|4,0:0|0:0,0:0:0:0:
396,240,60811,2,0,L|392:299,1,60,0|0,0:0|0:0,0:0:0:0:
271,356,61168,2,0,P|300:351|330:355,1,60,0|4,0:0|0:0,0:0:0:0:
410,382,61525,1,8,0:0:0:0:
299,255,61882,6,0,L|240:248,1,60,4|2,0:0|0:0,0:0:0:0:
168,201,62239,1,0,0:0:0:0:
118,132,62418,1,4,0:0:0:0:
182,77,62597,2,0,L|240:83,1,60,4|2,0:0|0:0,0:0:0:0:
323,61,62954,2,0,L|316:119,1,60,8|0,0:0|0:0,0:0:0:0:
346,199,63310,1,0,0:0:0:0:
426,223,63489,1,4,0:0:0:0:
483,161,63668,2,0,L|489:102,2,60,0|4|4,0:0|0:0|0:0,0:0:0:0:
511,239,64203,1,2,0:0:0:0:
454,300,64382,6,0,P|424:304|394:300,1,60,8|0,0:0|0:0,0:0:0:0:
317,266,64740,2,0,P|287:261|257:265,1,60,0|4,0:0|0:0,0:0:0:0:
180,298,65097,2,0,P|175:268|179:238,1,60,0|0,0:0|0:0,0:0:0:0:
243,184,65453,1,4,0:0:0:0:
95,264,65811,2,0,P|65:268|35:264,1,60,8|4,0:0|0:0,0:0:0:0:
70,183,66168,2,0,L|74:124,1,60,0|4,0:0|0:0,0:0:0:0:
87,40,66525,6,0,B|133:-3|201:9|229:41|229:41|275:52|326:41,1,240,4|8,0:0|0:0,0:0:0:0:
158,117,67597,6,0,P|154:146|158:176,1,60,4|0,0:0|0:0,0:0:0:0:
237,205,67954,2,0,P|240:175|236:145,1,60,0|0,0:0|0:0,0:0:0:0:
158,176,68310,1,0,0:0:0:0:
173,258,68489,1,0,0:0:0:0:
251,288,68668,1,8,0:0:0:0:
258,301,69025,6,0,L|323:306,2,60,0|0|0,0:0|0:0|0:0,0:0:0:0:
160,168,75097,6,0,L|220:172,1,60,8|0,0:0|0:0,0:0:0:0:
280,113,75454,2,0,L|340:109,1,60,0|8,0:0|0:0,0:0:0:0:
399,49,75811,2,0,P|420:133|357:192,1,180,8|0,0:0|0:0,0:0:0:0:
286,238,76525,2,0,P|282:270|286:298,1,60,0|8,0:0|0:0,0:0:0:0:
363,330,76882,2,0,P|367:298|363:270,1,60,8|0,0:0|0:0,0:0:0:0:
363,270,77150,1,8,0:0:0:0:
363,270,77239,5,8,0:0:0:0:
286,238,77418,1,0,0:0:0:0:
208,270,77597,2,0,L|203:329,1,60,0|8,0:0|0:0,0:0:0:0:
203,329,77864,1,8,0:0:0:0:
202,329,77954,2,0,B|148:304|88:324|88:324|68:292|64:264|64:264|20:272|-12:252,1,240,8|8,0:0|0:0,0:0:0:0:
1,93,79025,6,0,P|59:105|117:92,1,120,4|0,0:0|0:0,0:0:0:0:
185,43,79560,1,0,0:0:0:0:
236,110,79739,2,0,L|220:228,1,120,4|8,0:0|0:0,0:0:0:0:
211,240,80453,1,0,0:0:0:0:
202,251,80811,6,0,P|231:255|261:251,1,60,4|0,0:0|0:0,0:0:0:0:
295,173,81168,2,0,P|266:169|236:173,1,60,0|4,0:0|0:0,0:0:0:0:
154,192,81525,1,8,0:0:0:0:
268,67,81882,2,0,P|325:77|361:123,1,120,4|0,0:0|0:0,0:0:0:0:
371,207,82418,1,4,0:0:0:0:
252,328,82775,5,0,0:0:0:0:
252,328,82954,2,0,L|184:321,1,60,8|0,0:0|0:0,0:0:0:0:
118,281,83310,1,0,0:0:0:0:
41,316,83489,1,2,0:0:0:0:
118,281,83668,2,0,L|119:171,1,90,4|0,0:0|0:0,0:0:0:0:
88,164,84025,6,0,L|86:87,1,60,0|4,0:0|0:0,0:0:0:0:
117,26,84382,1,8,0:0:0:0:
208,164,84739,1,4,0:0:0:0:
316,36,85096,1,0,0:0:0:0:
264,102,85275,1,4,0:0:0:0:
328,28,85453,2,0,L|344:146,1,120,0|8,0:0|0:0,0:0:0:0:
208,48,86168,1,0,0:0:0:0:
228,216,86525,6,0,L|287:220,1,60,4|0,0:0|0:0,0:0:0:0:
348,164,86882,2,0,L|407:169,1,60,0|4,0:0|0:0,0:0:0:0:
392,88,87239,1,8,0:0:0:0:
363,252,87596,2,0,P|286:304|259:299,1,120,4|0,0:0|0:0,0:0:0:0:
184,284,88132,1,4,0:0:0:0:
64,168,88489,5,0,0:0:0:0:
64,168,88669,2,0,L|57:100,1,60,8|0,0:0|0:0,0:0:0:0:
128,60,89025,2,0,L|135:127,1,60,8|2,0:0|0:0,0:0:0:0:
144,204,89383,2,0,P|200:196|208:300,1,180,4|4,0:0|0:0,0:0:0:0:
132,288,90096,1,8,0:0:0:0:
296,320,90454,6,0,B|356:320|356:320|396:352|434:350|472:324,1,180,4|0,0:0|0:0,0:0:0:0:
416,260,91168,2,0,L|412:192,1,60,4|0,0:0|0:0,0:0:0:0:
359,135,91525,1,0,0:0:0:0:
487,26,91882,1,8,0:0:0:0:
359,135,92240,6,0,L|279:141,1,60,4|0,0:0|0:0,0:0:0:0:
235,83,92597,2,0,L|155:78,1,60,0|4,0:0|0:0,0:0:0:0:
99,115,92953,2,0,L|99:234,1,120,8|4,0:0|0:0,0:0:0:0:
140,308,93490,2,0,L|199:311,1,60,0|0,0:0|0:0,0:0:0:0:
280,332,93846,1,4,0:0:0:0:
340,176,94203,5,0,0:0:0:0:
340,176,94382,2,0,P|336:206|340:236,1,60,8|0,0:0|0:0,0:0:0:0:
364,316,94739,1,8,0:0:0:0:
436,360,94918,1,8,0:0:0:0:
512,324,95097,2,0,P|514:279|505:235,1,90,4|0,0:0|0:0,0:0:0:0:
478,202,95454,6,0,L|479:122,1,60,0|4,0:0|0:0,0:0:0:0:
512,65,95810,1,8,0:0:0:0:
373,160,96168,1,4,0:0:0:0:
296,193,96347,2,0,L|236:193,1,60,0|0,0:0|0:0,0:0:0:0:
159,161,96703,1,4,0:0:0:0:
81,193,96882,6,0,B|88:244|73:265|81:320,1,120,0|8,0:0|0:0,0:0:0:0:
159,358,97418,1,8,0:0:0:0:
159,358,97596,2,0,L|194:374,2,30.3999996289063
175,269,97954,6,0,P|204:265|234:269,1,60,4|0,0:0|0:0,0:0:0:0:
315,307,98311,2,0,P|344:310|374:307,1,60,0|4,0:0|0:0,0:0:0:0:
457,269,98669,2,0,P|465:209|457:150,1,120,0|4,0:0|0:0,0:0:0:0:
391,88,99204,2,0,L|332:85,1,60,0|0,0:0|0:0,0:0:0:0:
256,135,99561,1,4,0:0:0:0:
100,71,99919,5,0,0:0:0:0:
100,71,100097,2,0,P|96:101|100:131,1,60,8|0,0:0|0:0,0:0:0:0:
124,210,100453,1,8,0:0:0:0:
92,288,100632,1,2,0:0:0:0:
133,360,100811,6,0,P|193:368|252:360,1,120,4|0,0:0|0:0,0:0:0:0:
326,320,101346,1,0,0:0:0:0:
399,279,101525,2,0,L|461:276,1,60,8|4,0:0|0:0,0:0:0:0:
509,193,101882,1,4,0:0:0:0:
412,182,102061,6,0,P|356:164|327:113,1,120,0|0,0:0|0:0,0:0:0:0:
409,97,102596,1,0,0:0:0:0:
319,239,102953,1,0,0:0:0:0:
228,97,103311,2,0,P|168:89|109:97,1,120,4|4,0:0|0:0,0:0:0:0:
192,40,114740,6,0,P|236:38|278:54,1,90,0|0,0:0|0:0,0:0:0:0:
309,80,115097,6,0,L|380:74,1,60,0|0,0:0|0:0,0:0:0:0:
425,140,115454,2,0,L|496:134,1,60,2|0,0:0|0:0,0:0:0:0:
341,160,115811,2,0,B|336:208|349:232|342:279,1,120,2|2,0:0|0:0,0:0:0:0:
261,256,116346,1,0,0:0:0:0:
200,312,116525,1,2,0:0:0:0:
200,312,116882,6,0,P|167:315|139:312,1,60,2|0,0:0|0:0,0:0:0:0:
92,244,117239,2,0,P|28:224|0:168,1,120,2|2,0:0|0:0,0:0:0:0:
84,160,117775,1,0,0:0:0:0:
164,188,117954,2,0,L|170:117,1,60,2|0,0:0|0:0,0:0:0:0:
248,100,118310,1,2,0:0:0:0:
248,100,118489,1,0,0:0:0:0:
288,176,118668,2,0,L|359:182,1,60,2|0,0:0|0:0,0:0:0:0:
389,109,119025,5,2,0:0:0:0:
389,109,119204,1,0,0:0:0:0:
460,152,119382,2,0,P|463:184|460:212,1,60,2|0,0:0|0:0,0:0:0:0:
392,260,119740,2,0,P|395:292|392:320,1,60,0|0,0:0|0:0,0:0:0:0:
312,292,120097,6,0,L|241:298,1,60,2|0,0:0|0:0,0:0:0:0:
168,300,120453,1,2,0:0:0:0:
112,140,120810,1,8,0:0:0:0:
256,192,121168,12,0,125097,0:0:0:0:
244,184,126525,5,4,0:0:0:0:
256,192,126882,5,0,0:0:0:0:
184,236,127060,1,4,0:0:0:0:
332,228,127240,2,0,L|391:231,1,60,8|0,0:0|0:0,0:0:0:0:
332,144,127596,1,4,0:0:0:0:
260,100,127776,1,0,0:0:0:0:
184,136,127954,2,0,L|125:139,1,60,0|4,0:0|0:0,0:0:0:0:
44,116,128311,6,0,L|41:57,1,60,0|0,0:0|0:0,0:0:0:0:
64,200,128668,1,8,0:0:0:0:
144,228,128846,1,0,0:0:0:0:
160,312,129025,2,0,L|176:380,1,60,8|2,0:0|0:0,0:0:0:0:
252,336,129382,2,0,P|284:332|312:336,1,60,4|0,0:0|0:0,0:0:0:0:
408,264,129740,2,0,P|376:268|348:264,1,60,0|4,0:0|0:0,0:0:0:0:
280,216,130096,1,8,0:0:0:0:
268,208,130454,6,0,L|272:128,1,60,4|2,0:0|0:0,0:0:0:0:
340,100,130811,2,0,L|335:20,1,60,0|4,0:0|0:0,0:0:0:0:
256,68,131168,2,0,L|188:68,1,60,0|0,0:0|0:0,0:0:0:0:
116,96,131525,1,8,0:0:0:0:
108,108,131882,1,8,0:0:0:0:
92,190,132060,1,2,0:0:0:0:
156,244,132240,6,0,L|159:303,1,60,4|0,0:0|0:0,0:0:0:0:
108,368,132597,2,0,P|76:372|48:368,1,60,0|4,0:0|0:0,0:0:0:0:
76,288,132953,1,8,0:0:0:0:
188,164,133311,6,0,L|247:161,1,60,4|2,0:0|0:0,0:0:0:0:
312,216,133668,2,0,L|309:275,1,60,0|4,0:0|0:0,0:0:0:0:
340,356,134025,1,0,0:0:0:0:
256,344,134203,1,0,0:0:0:0:
392,292,134382,6,0,P|416:244|420:160,1,120,8|8,0:0|0:0,0:0:0:0:
422,178,134918,1,2,0:0:0:0:
500,148,135097,2,0,P|480:122|457:105,1,60,4|0,0:0|0:0,0:0:0:0:
380,80,135453,5,0,0:0:0:0:
368,84,135810,5,8,0:0:0:0:
356,88,136168,6,0,L|288:95,1,60,4|2,0:0|0:0,0:0:0:0:
220,128,136525,2,0,L|152:135,1,60,0|2,0:0|0:0,0:0:0:0:
84,168,136882,5,4,0:0:0:0:
80,180,137239,5,8,0:0:0:0:
76,192,137597,6,0,L|69:251,1,60,0|0,0:0|0:0,0:0:0:0:
12,312,137953,6,0,P|71:303|130:311,1,120,4|0,0:0|0:0,0:0:0:0:
204,352,138489,1,4,0:0:0:0:
276,312,138668,2,0,L|335:305,1,60,0|0,0:0|0:0,0:0:0:0:
356,224,139025,2,0,P|416:285|391:368,1,180,4|4,0:0|0:0,0:0:0:0:
501,292,139740,2,0,L|500:213,1,60,0|0,0:0|0:0,0:0:0:0:
460,156,140096,1,8,0:0:0:0:
296,117,140453,1,8,0:0:0:0:
136,168,140811,6,0,P|84:161|130:81,1,180,4|4,0:0|0:0,0:0:0:0:
196,120,141525,2,0,P|246:147|295:119,1,120,8|4,0:0|0:0,0:0:0:0:
336,48,142061,2,0,P|386:20|435:48,1,120,2|4,0:0|0:0,0:0:0:0:
480,120,142597,2,0,L|480:184,1,60,0|0,0:0|0:0,0:0:0:0:
452,260,142954,2,0,B|394:300|337:296|337:296|315:277|281:273,1,180,0|0,0:0|0:0,0:0:0:0:
201,263,143668,6,0,L|208:204,1,60,4|0,0:0|0:0,0:0:0:0:
138,156,144025,2,0,P|106:152|78:156,1,60,0|4,0:0|0:0,0:0:0:0:
18,216,144382,1,8,0:0:0:0:
110,76,144739,1,4,0:0:0:0:
267,17,145097,2,0,L|355:9,1,60,0|4,0:0|0:0,0:0:0:0:
383,77,145454,2,0,L|471:85,1,60,0|0,0:0|0:0,0:0:0:0:
491,149,145811,2,0,B|487:197|491:237|491:237|439:209|379:221,1,180,8|2,0:0|0:0,0:0:0:0:
319,229,146525,5,4,0:0:0:0:
164,321,146882,1,0,0:0:0:0:
0,248,147239,1,8,0:0:0:0:
144,164,147597,2,0,L|152:96,1,60,4|2,0:0|0:0,0:0:0:0:
236,96,147954,2,0,L|244:28,1,60,0|2,0:0|0:0,0:0:0:0:
328,28,148310,1,4,0:0:0:0:
340,196,148668,5,8,0:0:0:0:
348,212,149025,5,8,0:0:0:0:
356,228,149382,6,0,P|368:276|296:308,1,120,4|4,0:0|0:0,0:0:0:0:
152,292,150097,2,0,L|76:288,1,60,8|0,0:0|0:0,0:0:0:0:
36,228,150454,2,0,L|32:152,1,60,0|4,0:0|0:0,0:0:0:0:
92,108,150811,2,0,P|124:104|152:108,1,60,0|0,0:0|0:0,0:0:0:0:
224,152,151168,2,0,P|253:155|283:151,1,60,4|0,0:0|0:0,0:0:0:0:
248,76,151525,6,0,L|244:0,1,60,8|0,0:0|0:0,0:0:0:0:
328,0,151882,1,0,0:0:0:0:
400,44,152060,1,0,0:0:0:0:
432,124,152240,2,0,L|435:183,1,60,4|0,0:0|0:0,0:0:0:0:
376,244,152597,2,0,P|346:248|316:244,1,60,4|0,0:0|0:0,0:0:0:0:
400,320,152954,6,0,P|429:324|459:320,1,60,8|0,0:0|0:0,0:0:0:0:
496,244,153310,1,0,0:0:0:0:
496,244,153489,1,4,0:0:0:0:
435,183,153668,2,0,L|375:179,1,60,0|0,0:0|0:0,0:0:0:0:
300,140,154025,2,0,L|240:136,1,60,4|0,0:0|0:0,0:0:0:0:
164,176,154382,2,0,L|164:256,2,60,8|0|0,0:0|0:0|0:0,0:0:0:0:
120,104,154918,1,4,0:0:0:0:
44,139,155097,6,0,P|39:169|43:199,1,60,4|0,0:0|0:0,0:0:0:0:
80,276,155453,2,0,P|122:317|180:328,1,120,4|8,0:0|0:0,0:0:0:0:
260,300,155989,1,4,0:0:0:0:
340,328,156168,2,0,P|398:317|440:275,1,120,0|0,0:0|0:0,0:0:0:0:
476,200,156703,1,0,0:0:0:0:
412,144,156882,6,0,P|382:139|352:143,1,60,4|0,0:0|0:0,0:0:0:0:
272,196,157240,2,0,P|276:166|272:136,1,60,8|0,0:0|0:0,0:0:0:0:
208,80,157597,2,0,L|136:76,1,60,4|0,0:0|0:0,0:0:0:0:
72,112,157953,5,0,0:0:0:0:
60,128,158489,5,0,0:0:0:0:
48,144,159025,5,0,0:0:0:0:
256,192,159382,12,0,161168,0:0:0:0:
