osu file format v14

[General]
AudioFilename: audio.mp3
AudioLeadIn: 0
PreviewTime: 57929
Countdown: 0
SampleSet: Soft
StackLeniency: 0.7
Mode: 3
LetterboxInBreaks: 0
SpecialStyle: 0
WidescreenStoryboard: 1

[Editor]
DistanceSpacing: 0.8
BeatDivisor: 6
GridSize: 32
TimelineZoom: 2

[Metadata]
Title:Marble Soda
TitleUnicode:Marble Soda
Artist:Shawn Wasabi
ArtistUnicode:Shawn Wasabi
Creator:-mint-
Version:Ramune
Source:
Tags:chill cute trap (live mashup) melody pop launchpad rapid fire hyper fever dream famoss qqqant electronic instrumental
BeatmapID:1977877
BeatmapSetID:946991

[Difficulty]
HPDrainRate:8.5
CircleSize:4
OverallDifficulty:8
ApproachRate:5
SliderMultiplier:1.4
SliderTickRate:1

[Events]
//Background and Video events
0,0,"marble soda.jpg",0,0
//Break Periods
//Storyboard Layer 0 (Background)
//Storyboard Layer 1 (Fail)
//Storyboard Layer 2 (Pass)
//Storyboard Layer 3 (Foreground)
//Storyboard Layer 4 (Overlay)
//Storyboard Sound Samples

[TimingPoints]
787,357.142857142857,4,2,1,70,1,0
23644,-100,4,2,1,60,0,0
35072,-100,4,2,1,70,0,0
69358,-100,4,2,1,60,0,0
80786,-100,4,2,1,70,0,1
103644,-100,4,2,1,50,0,0
115072,-100,4,2,1,60,0,0
126501,-100,4,2,1,70,0,1
149358,-100,4,2,1,70,0,0
157929,-100,4,2,1,50,0,0

[HitObjects]
64,192,787,128,2,920:0:0:0:0:
192,192,787,128,0,1054:0:0:0:0:
448,192,965,1,0,0:0:0:0:
64,192,1144,128,2,1278:0:0:0:0:
192,192,1144,1,0,0:0:0:0:
448,192,1322,1,0,0:0:0:0:
64,192,1501,1,8,0:0:0:0:
320,192,1501,128,0,1679:0:0:0:0:
192,192,1679,1,0,0:0:0:0:
64,192,1858,128,0,1992:0:0:0:0:
320,192,2036,1,2,0:0:0:0:
448,192,2036,1,0,0:0:0:0:
64,192,2215,128,0,2349:0:0:0:0:
448,192,2394,1,0,0:0:0:0:
192,192,2483,1,0,0:0:0:0:
320,192,2572,128,2,2751:0:0:0:0:
448,192,2572,1,0,0:0:0:0:
192,192,2751,1,0,0:0:0:0:
64,192,2929,1,8,0:0:0:0:
320,192,2929,1,0,0:0:0:0:
448,192,3108,1,0,0:0:0:0:
192,192,3286,128,0,3406:0:0:0:0:
192,192,3465,1,0,0:0:0:0:
64,192,3644,128,2,3778:0:0:0:0:
192,192,3644,1,0,0:0:0:0:
448,192,3822,1,0,0:0:0:0:
64,192,4001,128,2,4135:0:0:0:0:
192,192,4001,1,0,0:0:0:0:
448,192,4179,1,0,0:0:0:0:
64,192,4358,1,8,0:0:0:0:
320,192,4358,128,0,4536:0:0:0:0:
192,192,4536,1,0,0:0:0:0:
64,192,4715,128,0,4804:0:0:0:0:
64,192,4894,128,2,4983:0:0:0:0:
192,192,4894,1,0,0:0:0:0:
448,192,5072,128,0,5206:0:0:0:0:
64,192,5251,1,0,0:0:0:0:
448,192,5340,1,0,0:0:0:0:
64,192,5429,1,2,0:0:0:0:
192,192,5429,128,0,5608:0:0:0:0:
320,192,5608,128,0,5786:0:0:0:0:
64,192,5786,128,8,5965:0:0:0:0:
448,192,5786,1,0,0:0:0:0:
320,192,5965,1,2,0:0:0:0:
448,192,5965,1,0,0:0:0:0:
64,192,6144,128,0,6233:0:0:0:0:
448,192,6263,1,0,0:0:0:0:
64,192,6322,1,2,0:0:0:0:
192,192,6322,1,0,0:0:0:0:
320,192,6382,1,0,0:0:0:0:
448,192,6441,1,0,0:0:0:0:
64,192,6501,128,0,6635:0:0:0:0:
448,192,6679,1,0,0:0:0:0:
64,192,6858,128,2,6992:0:0:0:0:
192,192,6858,1,0,0:0:0:0:
448,192,7036,1,0,0:0:0:0:
64,192,7215,1,8,0:0:0:0:
320,192,7215,128,0,7394:0:0:0:0:
64,192,7394,1,2,0:0:0:0:
192,192,7394,1,0,0:0:0:0:
64,192,7572,128,0,7706:0:0:0:0:
320,192,7751,1,2,0:0:0:0:
448,192,7751,1,0,0:0:0:0:
64,192,7929,128,0,8063:0:0:0:0:
448,192,8108,1,0,0:0:0:0:
64,192,8286,1,2,0:0:0:0:
192,192,8286,128,0,8465:0:0:0:0:
320,192,8465,128,0,8644:0:0:0:0:
64,192,8644,1,8,0:0:0:0:
448,192,8644,1,0,0:0:0:0:
320,192,8822,1,0,0:0:0:0:
64,192,9001,128,2,9120:0:0:0:0:
192,192,9001,1,0,0:0:0:0:
448,192,9179,1,0,0:0:0:0:
448,192,9269,1,0,0:0:0:0:
64,192,9358,1,2,0:0:0:0:
192,192,9358,128,0,9447:0:0:0:0:
448,192,9536,128,0,9626:0:0:0:0:
64,192,9715,1,2,0:0:0:0:
192,192,9715,128,0,9804:0:0:0:0:
320,192,9894,128,0,9983:0:0:0:0:
64,192,10072,128,8,10161:0:0:0:0:
448,192,10072,128,0,10251:0:0:0:0:
192,192,10251,128,0,10340:0:0:0:0:
320,192,10429,128,0,10519:0:0:0:0:
320,192,10608,1,2,0:0:0:0:
448,192,10608,128,0,11054:0:0:0:0:
320,192,10786,128,0,10876:0:0:0:0:
192,192,10965,128,0,11054:0:0:0:0:
64,192,11144,128,2,11322:0:0:0:0:
192,192,11144,1,0,0:0:0:0:
448,192,11322,1,0,0:0:0:0:
448,192,11411,1,0,0:0:0:0:
192,192,11501,128,0,11590:0:0:0:70:Clap1.wav
64,192,11501,1,2,0:0:0:0:
320,192,11590,128,0,11679:0:0:0:0:
192,192,11679,128,0,11769:0:0:0:0:
64,192,11769,1,0,0:0:0:0:
320,192,11858,1,2,0:0:0:0:
448,192,11858,128,0,12126:0:0:0:70:Clap1.wav
64,192,11947,1,0,0:0:0:0:
320,192,12036,128,0,12126:0:0:0:0:
192,192,12126,1,0,0:0:0:0:
320,192,12215,128,2,12572:0:0:0:0:
448,192,12215,128,4,12483:0:0:0:0:
64,192,12394,1,0,0:0:0:0:
64,192,12572,1,2,0:0:0:0:
192,192,12572,1,0,0:0:0:0:
448,192,12751,1,0,0:0:0:0:
320,192,12795,1,0,0:0:0:0:
192,192,12840,1,0,0:0:0:0:
320,192,12885,1,0,0:0:0:0:
64,192,12929,128,8,13286:0:0:0:0:
448,192,12929,1,0,0:0:0:0:
448,192,13108,1,0,0:0:0:0:
320,192,13286,1,0,0:0:0:0:
64,192,13465,1,2,0:0:0:0:
192,192,13465,1,0,0:0:0:0:
64,192,13644,128,0,14001:0:0:0:0:
448,192,13822,1,0,0:0:0:0:
448,192,14001,1,2,0:0:0:0:
320,192,14023,1,0,0:0:0:0:
320,192,14179,1,0,0:0:0:0:
192,192,14202,1,0,0:0:0:0:
64,192,14358,1,8,0:0:0:0:
448,192,14358,1,0,0:0:0:0:
192,192,14536,1,0,0:0:0:0:
64,192,14715,1,2,0:0:0:0:
192,192,14715,128,0,14894:0:0:0:0:
448,192,14894,1,0,0:0:0:0:
448,192,14983,1,0,0:0:0:0:
64,192,15072,1,2,0:0:0:0:
192,192,15072,128,0,15608:0:0:0:0:
448,192,15251,1,0,0:0:0:0:
320,192,15429,1,2,0:0:0:0:
448,192,15429,1,0,0:0:0:0:
64,192,15519,1,0,0:0:0:0:
448,192,15608,128,0,15786:0:0:0:0:
192,192,15697,1,0,0:0:0:0:
64,192,15786,1,8,0:0:0:0:
320,192,15786,128,0,16322:0:0:0:0:
448,192,15965,1,0,0:0:0:0:
64,192,16144,128,0,16233:0:0:0:0:
64,192,16322,128,2,16411:0:0:0:0:
192,192,16322,128,0,16501:0:0:0:0:
448,192,16501,1,0,0:0:0:0:
320,192,16590,1,0,0:0:0:0:
448,192,16679,1,0,0:0:0:0:
320,192,16769,1,0,0:0:0:0:
64,192,16858,128,2,17036:0:0:0:0:
192,192,16858,128,0,17036:0:0:0:0:
448,192,17036,1,0,0:0:0:0:
448,192,17126,1,0,0:0:0:0:
64,192,17215,1,8,0:0:0:0:
320,192,17215,1,0,0:0:0:0:
64,192,17394,1,2,0:0:0:0:
192,192,17394,1,0,0:0:0:0:
320,192,17572,128,0,17661:0:0:0:0:
192,192,17595,1,0,0:0:0:0:
448,192,17751,128,2,17840:0:0:0:0:
320,192,17773,1,0,0:0:0:0:
64,192,17929,128,2,18197:0:0:0:0:
192,192,17929,128,4,18286:0:0:0:0:
448,192,18108,1,0,0:0:0:0:
320,192,18286,1,2,0:0:0:0:
448,192,18286,1,0,0:0:0:0:
64,192,18376,1,0,0:0:0:0:
320,192,18465,1,0,0:0:0:0:
192,192,18554,1,0,0:0:0:0:
64,192,18644,128,8,19001:0:0:0:0:
448,192,18644,128,0,18733:0:0:0:0:
320,192,18822,1,2,0:0:0:0:
448,192,18822,1,0,0:0:0:0:
320,192,19001,1,0,0:0:0:0:
448,192,19090,1,0,0:0:0:0:
64,192,19179,1,2,0:0:0:0:
192,192,19179,1,0,0:0:0:0:
320,192,19269,1,0,0:0:0:0:
192,192,19358,128,0,19715:0:0:0:0:
448,192,19536,1,0,0:0:0:0:
320,192,19715,1,2,0:0:0:0:
448,192,19715,1,0,0:0:0:0:
320,192,19894,1,0,0:0:0:0:
64,192,20072,1,8,0:0:0:0:
448,192,20072,1,0,0:0:0:0:
192,192,20251,1,0,0:0:0:0:
64,192,20429,1,2,0:0:0:0:
192,192,20429,128,0,20608:0:0:0:0:
448,192,20608,1,0,0:0:0:0:
448,192,20697,1,0,0:0:0:0:
64,192,20786,1,2,0:0:0:0:
192,192,20786,128,0,21322:0:0:0:0:
448,192,20965,1,0,0:0:0:0:
320,192,21144,1,2,0:0:0:0:
448,192,21144,1,0,0:0:0:0:
448,192,21322,128,0,21501:0:0:0:0:
64,192,21501,1,8,0:0:0:0:
320,192,21501,128,0,22036:0:0:0:0:
448,192,21679,1,0,0:0:0:0:
64,192,21858,128,0,21947:0:0:0:0:
64,192,22036,128,2,22126:0:0:0:0:
192,192,22036,128,0,22215:0:0:0:0:
448,192,22215,128,0,22394:0:0:0:0:
320,192,22304,1,0,0:0:0:0:
192,192,22394,1,0,0:0:0:0:
448,192,22483,1,0,0:0:0:0:
64,192,22572,1,2,0:0:0:0:
192,192,22572,1,0,0:0:0:0:
320,192,22661,1,0,0:0:0:0:
64,192,22751,1,0,0:0:0:0:
448,192,22840,1,0,0:0:0:0:
64,192,22929,1,0,0:0:0:70:Clap1.wav
320,192,22929,1,0,0:0:0:0:
448,192,23019,1,0,0:0:0:0:
192,192,23048,1,0,0:0:0:0:
320,192,23108,1,0,0:0:0:0:
64,192,23167,1,0,0:0:0:0:
192,192,23197,1,0,0:0:0:0:
320,192,23286,1,2,0:0:0:0:
448,192,23286,128,0,23554:0:0:0:0:
192,192,23376,1,0,0:0:0:0:
320,192,23465,128,0,23554:0:0:0:0:
64,192,23554,1,0,0:0:0:0:
448,192,23644,1,4,0:0:0:0:
192,192,23688,1,0,0:0:0:0:
320,192,23733,1,0,0:0:0:0:
448,192,23778,1,0,0:0:0:0:
64,192,23822,1,0,0:0:0:0:
192,192,23867,1,0,0:0:0:0:
320,192,23911,1,0,0:0:0:0:
64,192,23956,1,0,0:0:0:0:
448,192,24001,128,0,24060:0:0:0:70:Clap2.wav
192,192,24090,1,0,0:0:0:0:
320,192,24179,128,0,24239:0:0:0:0:
192,192,24269,1,0,0:0:0:0:
64,192,24358,1,0,0:0:0:70:Clap2.wav
448,192,24358,1,0,0:0:0:0:
448,192,24447,1,0,0:0:0:0:
192,192,24536,1,0,0:0:0:0:
64,192,24715,1,0,0:0:0:70:Clap2.wav
64,192,24804,1,0,0:0:0:0:
320,192,24894,1,0,0:0:0:0:
448,192,25072,1,0,0:0:0:70:Clap2.wav
448,192,25161,1,0,0:0:0:0:
192,192,25251,1,0,0:0:0:0:
64,192,25429,1,0,0:0:0:70:Clap2.wav
64,192,25519,1,0,0:0:0:0:
320,192,25608,1,0,0:0:0:0:
192,192,25786,128,0,26054:0:0:0:70:Clap2.wav
448,192,25786,1,0,0:0:0:0:
64,192,25965,128,0,26144:0:0:0:0:
320,192,26144,1,0,0:0:0:0:
320,192,26233,128,0,26501:0:0:0:0:
64,192,26322,1,0,0:0:0:0:
64,192,26411,1,0,0:0:0:0:
192,192,26501,1,0,0:0:0:70:Clap2.wav
448,192,26501,128,0,26769:0:0:0:0:
64,192,26679,1,0,0:0:0:0:
448,192,26858,1,0,0:0:0:70:Clap2.wav
448,192,26947,1,0,0:0:0:0:
192,192,27036,128,0,27126:0:0:0:0:
64,192,27215,1,0,0:0:0:70:Clap2.wav
448,192,27215,1,0,0:0:0:0:
64,192,27304,1,0,0:0:0:0:
320,192,27394,1,0,0:0:0:0:
448,192,27572,1,0,0:0:0:70:Clap2.wav
448,192,27661,1,0,0:0:0:0:
192,192,27751,1,0,0:0:0:0:
64,192,27929,1,0,0:0:0:70:Clap2.wav
64,192,28019,1,0,0:0:0:0:
320,192,28108,1,0,0:0:0:0:
448,192,28286,1,0,0:0:0:70:Clap2.wav
448,192,28376,1,0,0:0:0:0:
192,192,28465,1,0,0:0:0:0:
192,192,28554,1,0,0:0:0:0:
64,192,28644,1,0,0:0:0:70:Clap2.wav
448,192,28644,128,0,29001:0:0:0:0:
192,192,28822,1,0,0:0:0:0:
320,192,28911,128,0,29001:0:0:0:0:
64,192,29001,128,0,29269:0:0:0:0:
320,192,29090,1,0,0:0:0:0:
192,192,29179,128,0,29358:0:0:0:0:
448,192,29269,1,0,0:0:0:0:
64,192,29358,1,8,0:0:0:0:
320,192,29358,1,0,0:0:0:70:Clap2.wav
448,192,29536,1,0,0:0:0:0:
192,192,29715,1,0,0:0:0:70:Clap2.wav
64,192,29894,1,8,0:0:0:0:
448,192,29894,1,0,0:0:0:0:
64,192,30072,1,8,0:0:0:0:
320,192,30072,128,0,30251:0:0:0:70:Clap2.wav
192,192,30251,1,8,0:0:0:0:
320,192,30340,1,8,0:0:0:0:
64,192,30385,1,8,0:0:0:0:
192,192,30429,1,8,0:0:0:0:
448,192,30429,1,0,0:0:0:70:Clap2.wav
448,192,30608,1,0,0:0:0:0:
192,192,30786,1,8,0:0:0:0:
64,192,30965,1,8,0:0:0:0:
448,192,30965,1,0,0:0:0:0:
64,192,31144,1,8,0:0:0:0:
320,192,31144,128,0,31322:0:0:0:70:Clap2.wav
192,192,31322,1,8,0:0:0:0:
320,192,31411,1,8,0:0:0:0:
64,192,31456,1,8,0:0:0:0:
192,192,31501,1,8,0:0:0:0:
448,192,31501,1,0,0:0:0:0:
448,192,31679,1,0,0:0:0:0:
192,192,31858,1,0,0:0:0:0:
64,192,32036,1,8,0:0:0:0:
320,192,32036,1,0,0:0:0:0:
64,192,32126,1,8,0:0:0:0:
64,192,32215,1,8,0:0:0:0:
448,192,32215,1,0,0:0:0:0:
192,192,32394,1,8,0:0:0:0:
448,192,32394,1,0,0:0:0:0:
64,192,32572,1,0,0:0:0:0:
192,192,32751,1,8,0:0:0:0:
448,192,32751,1,0,0:0:0:0:
192,192,32929,1,8,0:0:0:0:
448,192,32929,1,0,0:0:0:70:Clap2.wav
64,192,33108,1,0,0:0:0:0:
192,192,33286,1,8,0:0:0:0:
448,192,33286,1,0,0:0:0:70:Clap2.wav
448,192,33376,1,8,0:0:0:0:
64,192,33465,1,8,0:0:0:0:
448,192,33465,1,0,0:0:0:0:
64,192,33554,1,8,0:0:0:0:
320,192,34001,128,0,34090:0:0:0:0:
448,192,34023,128,0,34358:0:0:0:0:
64,192,34358,128,0,34388:0:0:0:0:
192,192,34492,128,0,34536:0:0:0:0:
320,192,34596,128,0,34656:0:0:0:0:
64,192,34715,128,0,34804:0:0:0:0:
448,192,34849,1,0,0:0:0:0:
64,192,34894,128,0,34983:0:0:0:0:
320,192,34938,1,0,0:0:0:0:
64,192,35072,128,2,35251:0:0:0:0:
192,192,35072,128,4,35161:0:0:0:0:
320,192,35161,1,0,0:0:0:0:
448,192,35206,1,0,0:0:0:0:
192,192,35251,1,0,0:0:0:0:
320,192,35295,1,0,0:0:0:0:
64,192,35340,1,0,0:0:0:0:
192,192,35385,1,0,0:0:0:0:
448,192,35429,1,0,0:0:0:0:
320,192,35608,1,2,0:0:0:0:
448,192,35608,1,0,0:0:0:0:
192,192,35786,1,8,0:0:0:0:
448,192,35786,1,0,0:0:0:0:
64,192,36144,1,2,0:0:0:0:
192,192,36144,1,0,0:0:0:0:
192,192,36322,1,0,0:0:0:0:
192,192,36411,1,0,0:0:0:0:
192,192,36501,1,0,0:0:0:0:
320,192,36679,128,2,37036:0:0:0:0:
448,192,36679,128,0,36858:0:0:0:0:
64,192,36858,1,0,0:0:0:0:
64,192,37036,128,0,37215:0:0:0:0:
192,192,37215,1,8,0:0:0:0:
448,192,37215,1,0,0:0:0:0:
448,192,37394,1,0,0:0:0:0:
192,192,37438,1,0,0:0:0:0:
64,192,37572,128,8,37661:0:0:0:0:
320,192,37572,1,0,0:0:0:0:
64,192,37751,128,0,37810:0:0:0:0:
320,192,37929,1,2,0:0:0:0:
448,192,37929,1,0,0:0:0:0:
192,192,38063,1,0,0:0:0:0:
320,192,38286,1,0,0:0:0:0:
64,192,38465,128,2,38554:0:0:0:0:
192,192,38465,1,0,0:0:0:0:
64,192,38644,1,8,0:0:0:0:
448,192,38644,1,0,0:0:0:0:
448,192,38822,128,0,38882:0:0:0:0:
64,192,39001,128,2,39090:0:0:0:0:
192,192,39001,1,0,0:0:0:0:
64,192,39179,128,0,39269:0:0:0:0:
320,192,39358,1,0,0:0:0:0:
64,192,39536,1,2,0:0:0:0:
192,192,39536,128,0,39670:0:0:0:0:
448,192,39626,128,0,39715:0:0:0:0:
320,192,39715,1,0,0:0:0:0:
64,192,39834,1,0,0:0:0:0:
320,192,39953,1,0,0:0:0:0:
64,192,40013,1,0,0:0:0:0:
192,192,40072,1,8,0:0:0:0:
448,192,40072,1,0,0:0:0:0:
192,192,40251,1,0,0:0:0:0:
64,192,40429,1,0,0:0:0:0:
320,192,40608,1,0,0:0:0:0:
64,192,40697,1,0,0:0:0:0:
320,192,40786,128,2,40876:0:0:0:0:
448,192,40786,128,0,40965:0:0:0:0:
192,192,40876,1,0,0:0:0:0:
64,192,40920,1,0,0:0:0:0:
320,192,40965,1,0,0:0:0:0:
192,192,41010,1,0,0:0:0:0:
448,192,41054,1,0,0:0:0:0:
320,192,41099,1,0,0:0:0:0:
64,192,41144,1,0,0:0:0:0:
64,192,41322,1,2,0:0:0:0:
192,192,41322,1,0,0:0:0:0:
64,192,41501,1,8,0:0:0:0:
320,192,41501,1,0,0:0:0:0:
320,192,41858,1,2,0:0:0:0:
448,192,41858,1,0,0:0:0:0:
320,192,42036,1,0,0:0:0:0:
320,192,42126,1,0,0:0:0:0:
320,192,42215,1,0,0:0:0:0:
64,192,42394,128,2,42572:0:0:0:0:
192,192,42394,128,0,42751:0:0:0:0:
448,192,42572,1,0,0:0:0:0:
320,192,42751,128,0,42929:0:0:0:0:
192,192,42929,1,8,0:0:0:0:
448,192,42929,128,0,43286:0:0:0:0:
192,192,43108,128,0,43197:0:0:0:0:
64,192,43286,128,8,43644:0:0:0:0:
320,192,43286,128,0,43376:0:0:0:0:
448,192,43465,128,0,43554:0:0:0:0:
320,192,43644,1,2,0:0:0:0:
448,192,43644,128,0,44179:0:0:0:0:
64,192,43822,1,0,0:0:0:0:
320,192,44001,1,0,0:0:0:0:
64,192,44179,1,2,0:0:0:0:
192,192,44179,128,0,44269:0:0:0:0:
64,192,44358,128,8,44536:0:0:0:0:
320,192,44358,1,0,0:0:0:0:
448,192,44536,1,0,0:0:0:0:
320,192,44715,128,2,45072:0:0:0:0:
448,192,44715,128,4,45251:0:0:0:0:
64,192,44894,128,0,45251:0:0:0:0:
320,192,45251,128,0,45429:0:0:0:0:
448,192,45340,128,0,45429:0:0:0:0:
64,192,45429,128,2,45608:0:0:0:0:
192,192,45429,128,4,45786:0:0:0:0:
448,192,45608,128,0,45965:0:0:0:0:
64,192,45786,1,8,0:0:0:0:
320,192,45786,128,0,46322:0:0:0:0:
192,192,45965,1,0,0:0:0:0:
64,192,46144,128,8,46501:0:0:0:0:
448,192,46144,1,0,0:0:0:0:
192,192,46322,128,0,46501:0:0:0:0:
320,192,46501,128,2,46858:0:0:0:0:
448,192,46501,128,4,46769:0:0:0:0:
192,192,46679,1,0,0:0:0:0:
64,192,46769,1,0,0:0:0:0:
448,192,46858,1,0,0:0:0:0:
64,192,47036,1,2,0:0:0:0:
192,192,47036,1,0,0:0:0:0:
64,192,47215,1,8,0:0:0:0:
320,192,47215,1,0,0:0:0:0:
448,192,47304,1,0,0:0:0:0:
192,192,47349,1,0,0:0:0:0:
320,192,47394,1,0,0:0:0:0:
448,192,47438,1,0,0:0:0:0:
64,192,47483,1,0,0:0:0:0:
192,192,47528,1,0,0:0:0:0:
320,192,47572,1,2,0:0:0:0:
448,192,47572,1,0,0:0:0:0:
64,192,47661,1,0,0:0:0:0:
192,192,47751,1,0,0:0:0:0:
192,192,47840,1,0,0:0:0:0:
192,192,47929,1,0,0:0:0:0:
320,192,48108,128,2,48465:0:0:0:0:
448,192,48108,128,0,48286:0:0:0:0:
192,192,48197,1,0,0:0:0:0:
64,192,48286,1,0,0:0:0:0:
64,192,48465,128,0,48644:0:0:0:0:
192,192,48644,128,8,48703:0:0:0:0:
448,192,48644,1,0,0:0:0:0:
192,192,48822,128,0,48882:0:0:0:0:
64,192,49001,1,8,0:0:0:0:
320,192,49001,128,0,49060:0:0:0:0:
64,192,49179,128,0,49239:0:0:0:0:
64,192,49358,1,2,0:0:0:0:
192,192,49358,128,0,49477:0:0:0:0:
320,192,49536,128,0,49656:0:0:0:0:
64,192,49626,1,0,0:0:0:0:
448,192,49715,128,0,49834:0:0:0:0:
64,192,49894,1,2,0:0:0:0:
192,192,49894,1,0,0:0:0:0:
192,192,50072,128,8,50191:0:0:0:0:
448,192,50072,1,0,0:0:0:0:
320,192,50251,128,0,50370:0:0:0:0:
64,192,50340,1,0,0:0:0:0:
320,192,50429,1,2,0:0:0:0:
448,192,50429,128,0,50548:0:0:0:0:
192,192,50519,1,0,0:0:0:0:
64,192,50608,1,0,0:0:0:0:
320,192,50697,1,0,0:0:0:0:
192,192,50786,1,0,0:0:0:0:
448,192,50876,1,0,0:0:0:0:
64,192,50965,1,2,0:0:0:0:
192,192,50965,1,0,0:0:0:0:
320,192,51054,1,0,0:0:0:0:
448,192,51144,128,0,51382:0:0:0:0:
64,192,51263,1,0,0:0:0:0:
320,192,51382,1,0,0:0:0:0:
64,192,51441,1,0,0:0:0:0:
192,192,51501,1,8,0:0:0:0:
448,192,51501,1,0,0:0:0:0:
320,192,51545,1,0,0:0:0:0:
64,192,51679,1,8,0:0:0:0:
448,192,51679,1,0,0:0:0:0:
192,192,51724,1,0,0:0:0:0:
448,192,51858,128,0,51917:0:0:0:0:
64,192,51947,1,0,0:0:0:0:
320,192,51977,128,0,52036:0:0:0:0:
448,192,52036,1,0,0:0:0:0:
192,192,52096,128,0,52156:0:0:0:0:
320,192,52126,1,0,0:0:0:0:
64,192,52215,128,2,52394:0:0:0:0:
192,192,52215,1,0,0:0:0:0:
448,192,52394,1,0,0:0:0:0:
64,192,52483,1,0,0:0:0:0:
320,192,52572,1,0,0:0:0:0:
64,192,52751,1,2,0:0:0:0:
192,192,52751,1,0,0:0:0:0:
192,192,52929,1,8,0:0:0:0:
448,192,52929,1,0,0:0:0:0:
64,192,53019,1,0,0:0:0:0:
320,192,53063,1,0,0:0:0:0:
192,192,53108,1,0,0:0:0:0:
64,192,53153,1,0,0:0:0:0:
448,192,53197,1,0,0:0:0:0:
320,192,53242,1,0,0:0:0:0:
64,192,53286,1,2,0:0:0:0:
192,192,53286,1,0,0:0:0:0:
448,192,53376,1,0,0:0:0:0:
320,192,53465,1,0,0:0:0:0:
320,192,53554,1,0,0:0:0:0:
320,192,53644,1,0,0:0:0:0:
64,192,53822,128,2,54001:0:0:0:0:
192,192,53822,128,0,54179:0:0:0:0:
320,192,53911,1,0,0:0:0:0:
448,192,54001,1,0,0:0:0:0:
448,192,54179,128,0,54358:0:0:0:0:
64,192,54358,1,8,0:0:0:0:
320,192,54358,1,0,0:0:0:0:
320,192,54536,1,0,0:0:0:0:
64,192,54626,128,0,54715:0:0:0:0:
192,192,54715,1,8,0:0:0:0:
448,192,54715,1,0,0:0:0:0:
64,192,54804,1,0,0:0:0:0:
448,192,54894,128,0,54953:0:0:0:0:
64,192,55072,1,2,0:0:0:0:
192,192,55072,1,4,0:0:0:0:
192,192,55429,128,0,55608:0:0:0:0:
448,192,55608,128,0,55786:0:0:0:0:
64,192,55786,128,8,56144:0:0:0:0:
320,192,55786,1,0,0:0:0:0:
320,192,55965,1,2,0:0:0:0:
448,192,55965,1,0,0:0:0:0:
320,192,56144,128,2,56501:0:0:0:0:
448,192,56144,128,4,56679:0:0:0:0:
64,192,56322,128,0,56679:0:0:0:0:
320,192,56679,128,0,56858:0:0:0:0:
448,192,56769,128,0,56858:0:0:0:0:
64,192,56858,128,2,57036:0:0:0:0:
192,192,56858,128,4,57215:0:0:0:0:
448,192,57036,128,0,57215:0:0:0:0:
64,192,57215,1,8,0:0:0:0:
320,192,57215,128,0,57572:0:0:0:0:
192,192,57304,1,0,0:0:0:0:
64,192,57394,1,0,0:0:0:0:
192,192,57483,1,0,0:0:0:0:
64,192,57572,128,8,57929:0:0:0:0:
448,192,57572,1,0,0:0:0:0:
192,192,57661,1,0,0:0:0:0:
448,192,57751,1,0,0:0:0:0:
192,192,57840,128,0,57929:0:0:0:0:
320,192,57929,128,2,58048:0:0:0:0:
448,192,57929,128,4,58048:0:0:0:0:
64,192,58019,1,0,0:0:0:0:
320,192,58108,128,2,58286:0:0:0:0:
448,192,58108,128,0,58286:0:0:0:0:
192,192,58197,1,0,0:0:0:0:
64,192,58286,1,0,0:0:0:0:
448,192,58376,1,0,0:0:0:0:
192,192,58465,1,0,0:0:0:0:
320,192,58554,1,0,0:0:0:0:
192,192,58644,1,8,0:0:0:0:
448,192,58644,1,0,0:0:0:0:
320,192,58822,1,0,0:0:0:0:
64,192,59001,128,2,59120:0:0:0:0:
192,192,59001,128,0,59120:0:0:0:0:
64,192,59179,128,2,59358:0:0:0:0:
192,192,59179,128,0,59358:0:0:0:0:
320,192,59358,1,0,0:0:0:0:
448,192,59536,1,0,0:0:0:0:
320,192,59715,128,2,59894:0:0:0:0:
448,192,59715,128,0,59894:0:0:0:0:
64,192,59894,128,0,60072:0:0:0:0:
192,192,60072,1,8,0:0:0:0:
448,192,60072,1,0,0:0:0:0:
320,192,60251,128,2,60429:0:0:0:0:
448,192,60251,128,0,60429:0:0:0:0:
192,192,60429,1,0,0:0:0:0:
320,192,60608,128,2,60786:0:0:0:0:
448,192,60608,128,0,60786:0:0:0:0:
192,192,60786,1,0,0:0:0:0:
320,192,60965,1,0,0:0:0:0:
64,192,61144,128,0,61263:0:0:0:0:
320,192,61322,1,2,0:0:0:0:
448,192,61322,1,0,0:0:0:0:
64,192,61501,1,8,0:0:0:0:
320,192,61501,128,0,61679:0:0:0:0:
192,192,61679,1,0,0:0:0:0:
64,192,61858,128,2,61977:0:0:0:0:
192,192,61858,1,0,0:0:0:0:
448,192,62036,128,0,62096:0:0:0:0:
192,192,62215,1,0,0:0:0:0:
320,192,62394,1,2,0:0:0:0:
448,192,62394,1,0,0:0:0:0:
64,192,62572,128,2,62691:0:0:0:0:
192,192,62572,1,0,0:0:0:0:
448,192,62751,128,0,62810:0:0:0:0:
64,192,62929,1,8,0:0:0:0:
320,192,62929,1,0,0:0:0:0:
320,192,63108,128,2,63286:0:0:0:0:
448,192,63108,128,0,63286:0:0:0:0:
64,192,63286,128,0,63406:0:0:0:0:
320,192,63465,128,2,63644:0:0:0:0:
448,192,63465,128,0,63644:0:0:0:0:
192,192,63644,1,0,0:0:0:0:
64,192,63733,1,0,0:0:0:0:
320,192,63822,128,2,63941:0:0:0:0:
448,192,63822,128,0,63941:0:0:0:0:
192,192,63911,1,0,0:0:0:0:
320,192,64001,128,2,64179:0:0:0:0:
448,192,64001,128,0,64179:0:0:0:0:
192,192,64179,1,0,0:0:0:0:
192,192,64358,1,8,0:0:0:0:
448,192,64358,1,0,0:0:0:0:
320,192,64536,1,0,0:0:0:0:
192,192,64715,1,0,0:0:0:0:
64,192,64894,128,2,65072:0:0:0:0:
192,192,64894,1,0,0:0:0:0:
320,192,65072,1,0,0:0:0:0:
448,192,65251,1,0,0:0:0:0:
320,192,65429,128,2,65608:0:0:0:0:
448,192,65429,128,0,65608:0:0:0:0:
64,192,65608,128,0,65786:0:0:0:0:
192,192,65786,1,8,0:0:0:0:
448,192,65786,1,0,0:0:0:0:
320,192,65965,128,2,66144:0:0:0:0:
448,192,65965,128,0,66144:0:0:0:0:
64,192,66144,128,0,66263:0:0:0:0:
320,192,66322,128,2,66501:0:0:0:0:
448,192,66322,128,0,66501:0:0:0:0:
64,192,66501,128,2,67572:0:0:0:0:
192,192,66501,128,4,67036:0:0:0:0:
448,192,66679,1,0,0:0:0:0:
448,192,67036,128,0,67126:0:0:0:0:
192,192,67215,1,8,0:0:0:0:
448,192,67215,128,0,67483:0:0:0:0:
320,192,67394,128,0,67483:0:0:0:0:
320,192,67572,1,2,0:0:0:0:
448,192,67572,128,0,69179:0:0:0:0:
64,192,67751,1,0,0:0:0:0:
192,192,67929,1,0,0:0:0:0:
320,192,68108,1,0,0:0:0:0:
192,192,68286,1,0,0:0:0:0:
64,192,68465,1,0,0:0:0:0:
64,192,68644,1,8,0:0:0:0:
320,192,68644,1,0,0:0:0:0:
192,192,68822,128,0,69001:0:0:0:0:
320,192,69001,128,0,69179:0:0:0:0:
64,192,69179,1,0,0:0:0:0:
320,192,69358,1,2,0:0:0:0:
448,192,69358,128,0,69536:0:0:0:100:AnimeSample13.wav
192,192,69536,1,0,0:0:0:0:
320,192,69715,1,2,0:0:0:0:
448,192,69715,128,0,69894:0:0:0:70:AnimeSample13.wav
192,192,69894,1,0,0:0:0:0:
448,192,70072,128,0,70251:0:0:0:0:
448,192,70340,128,0,70519:0:0:0:0:
448,192,70608,128,0,70786:0:0:0:0:
64,192,70786,128,0,71054:0:0:0:0:
64,192,71144,128,0,71322:0:0:0:0:
192,192,71322,1,0,0:0:0:0:
192,192,71411,1,0,0:0:0:0:
64,192,71501,128,0,71679:0:0:0:0:
64,192,71769,128,0,71947:0:0:0:0:
64,192,72036,128,0,72215:0:0:0:0:
192,192,72215,128,0,72394:0:0:0:0:
320,192,72394,1,0,0:0:0:0:
192,192,72572,128,0,72751:0:0:0:0:
320,192,72751,1,0,0:0:0:0:
320,192,72929,128,0,72989:0:0:0:0:
448,192,72989,128,0,73048:0:0:0:0:
320,192,73108,1,0,0:0:0:0:
64,192,73197,1,0,0:0:0:0:
320,192,73376,1,0,0:0:0:0:
64,192,73465,1,0,0:0:0:0:
64,192,73554,1,0,0:0:0:0:
448,192,73644,128,0,73822:0:0:0:0:
448,192,74001,128,0,74179:0:0:0:0:
320,192,74179,1,0,0:0:0:0:
192,192,74269,1,0,0:0:0:0:
64,192,74358,128,0,74536:0:0:0:0:
320,192,74536,1,0,0:0:0:0:
64,192,74626,128,0,74804:0:0:0:0:
448,192,74715,1,0,0:0:0:0:
64,192,74894,128,0,75072:0:0:0:0:
192,192,75072,1,8,0:0:0:0:
448,192,75072,128,2,75251:0:0:0:0:
64,192,75251,1,0,0:0:0:0:
320,192,75429,1,2,0:0:0:0:
448,192,75429,128,0,75608:0:0:0:0:
64,192,75608,1,8,0:0:0:0:
320,192,75608,1,0,0:0:0:0:
64,192,75786,1,8,0:0:0:0:
448,192,75786,128,0,75965:0:0:0:0:
192,192,75876,1,0,0:0:0:0:
320,192,75920,1,0,0:0:0:0:
64,192,75965,1,8,0:0:0:0:
192,192,76010,1,8,0:0:0:0:
448,192,76054,128,8,76233:0:0:0:0:
320,192,76099,1,8,0:0:0:0:
64,192,76144,1,8,0:0:0:0:
448,192,76322,128,0,76501:0:0:0:0:
64,192,76501,128,0,76679:0:0:0:0:
192,192,76679,1,8,0:0:0:0:
448,192,76679,1,0,0:0:0:0:
64,192,76858,128,8,77036:0:0:0:0:
448,192,76858,1,0,0:0:0:0:
192,192,77036,1,8,0:0:0:0:
320,192,77081,1,8,0:0:0:0:
192,192,77126,1,8,0:0:0:0:
448,192,77170,1,8,0:0:0:0:
64,192,77215,128,8,77394:0:0:0:0:
320,192,77394,1,0,0:0:0:0:
64,192,77483,128,0,77661:0:0:0:0:
64,192,77751,128,8,77929:0:0:0:0:
448,192,77751,1,0,0:0:0:0:
448,192,77840,1,8,0:0:0:0:
192,192,77929,128,8,79001:0:0:0:0:
448,192,77929,1,0,0:0:0:0:
448,192,78286,1,0,0:0:0:0:
64,192,78465,1,8,0:0:0:0:
448,192,78465,1,0,0:0:0:0:
64,192,78644,1,8,0:0:0:0:
320,192,78644,128,0,78703:0:0:0:0:
448,192,78703,128,0,78763:0:0:0:0:
320,192,79001,128,2,79358:0:0:0:0:
448,192,79001,128,4,79536:0:0:0:0:
64,192,79179,128,0,79536:0:0:0:0:
320,192,79536,128,0,79715:0:0:0:0:
448,192,79626,128,0,79715:0:0:0:0:
64,192,79715,128,2,79894:0:0:0:0:
192,192,79715,128,4,80072:0:0:0:0:
448,192,79894,128,0,80786:0:0:0:0:
64,192,80072,1,0,0:0:0:70:VEC3 Snares 012.wav
320,192,80072,128,0,80786:0:0:0:0:
64,192,80429,128,0,80697:0:0:0:0:
192,192,80608,128,0,80697:0:0:0:0:
64,192,80786,128,2,80965:0:0:0:0:
192,192,80786,128,4,80876:0:0:0:0:
320,192,80876,1,0,0:0:0:0:
448,192,80920,1,0,0:0:0:0:
192,192,80965,1,0,0:0:0:0:
320,192,81010,1,0,0:0:0:0:
64,192,81054,1,0,0:0:0:0:
192,192,81099,1,0,0:0:0:0:
448,192,81144,1,0,0:0:0:0:
320,192,81322,1,2,0:0:0:0:
448,192,81322,1,0,0:0:0:0:
192,192,81501,1,8,0:0:0:0:
448,192,81501,1,0,0:0:0:0:
64,192,81858,1,2,0:0:0:0:
192,192,81858,1,0,0:0:0:0:
192,192,82036,1,0,0:0:0:0:
192,192,82126,1,0,0:0:0:0:
192,192,82215,1,0,0:0:0:0:
320,192,82394,128,2,82751:0:0:0:0:
448,192,82394,128,0,82572:0:0:0:0:
64,192,82572,1,0,0:0:0:0:
64,192,82751,128,0,82929:0:0:0:0:
192,192,82929,1,8,0:0:0:0:
448,192,82929,128,0,83019:0:0:0:0:
64,192,83108,128,0,83197:0:0:0:0:
448,192,83286,128,8,83376:0:0:0:0:
320,192,83316,1,0,0:0:0:0:
192,192,83465,128,0,83554:0:0:0:0:
64,192,83644,128,2,83733:0:0:0:0:
192,192,83644,1,0,0:0:0:0:
192,192,83911,128,0,84001:0:0:0:0:
64,192,84001,128,0,84120:0:0:0:0:
320,192,84179,1,2,0:0:0:0:
448,192,84179,1,0,0:0:0:0:
64,192,84358,1,8,0:0:0:0:
320,192,84358,128,0,84417:0:0:0:0:
320,192,84477,128,0,84536:0:0:0:0:
192,192,84536,1,0,0:0:0:0:
320,192,84656,1,0,0:0:0:0:
448,192,84685,1,0,0:0:0:0:
64,192,84715,128,2,84804:0:0:0:0:
192,192,84715,128,0,85786:0:0:0:0:
320,192,84804,1,0,0:0:0:0:
64,192,84894,128,0,84983:0:0:0:0:
448,192,85072,128,0,85161:0:0:0:0:
320,192,85251,1,2,0:0:0:0:
448,192,85251,1,0,0:0:0:0:
320,192,85429,128,0,85489:0:0:0:0:
320,192,85548,128,0,85608:0:0:0:0:
64,192,85667,1,0,0:0:0:0:
320,192,85727,1,0,0:0:0:0:
64,192,85786,1,8,0:0:0:0:
448,192,85786,1,0,0:0:0:0:
320,192,86144,128,0,86203:0:0:0:0:
320,192,86278,1,0,0:0:0:0:
192,192,86322,1,0,0:0:0:0:
320,192,86501,128,2,86590:0:0:0:0:
448,192,86501,128,0,86679:0:0:0:0:
192,192,86590,1,0,0:0:0:0:
64,192,86635,1,0,0:0:0:0:
320,192,86679,1,0,0:0:0:0:
192,192,86724,1,0,0:0:0:0:
448,192,86769,1,0,0:0:0:0:
320,192,86813,1,0,0:0:0:0:
64,192,86858,1,0,0:0:0:0:
64,192,87036,1,2,0:0:0:0:
192,192,87036,1,0,0:0:0:0:
64,192,87215,1,8,0:0:0:0:
320,192,87215,1,0,0:0:0:0:
320,192,87572,1,2,0:0:0:0:
448,192,87572,1,0,0:0:0:0:
320,192,87751,1,0,0:0:0:0:
320,192,87840,1,0,0:0:0:0:
320,192,87929,1,0,0:0:0:0:
64,192,88108,128,2,88286:0:0:0:0:
192,192,88108,128,0,88465:0:0:0:0:
448,192,88286,1,0,0:0:0:0:
320,192,88465,128,0,88644:0:0:0:0:
192,192,88644,1,8,0:0:0:0:
448,192,88644,128,0,89001:0:0:0:0:
192,192,88822,128,0,88911:0:0:0:0:
64,192,89001,128,8,89358:0:0:0:0:
320,192,89001,128,0,89090:0:0:0:0:
448,192,89179,128,0,89269:0:0:0:0:
320,192,89358,1,2,0:0:0:0:
448,192,89358,128,0,89894:0:0:0:0:
64,192,89536,1,0,0:0:0:0:
320,192,89715,1,0,0:0:0:0:
64,192,89894,1,2,0:0:0:0:
192,192,89894,128,0,89983:0:0:0:0:
64,192,90072,128,8,90251:0:0:0:0:
320,192,90072,1,0,0:0:0:0:
448,192,90251,1,0,0:0:0:0:
320,192,90429,128,2,90786:0:0:0:0:
448,192,90429,128,4,90965:0:0:0:0:
64,192,90608,128,0,90965:0:0:0:0:
320,192,90965,128,0,91144:0:0:0:0:
448,192,91054,128,0,91144:0:0:0:0:
64,192,91144,128,2,91322:0:0:0:0:
192,192,91144,128,4,91501:0:0:0:0:
448,192,91322,128,0,91679:0:0:0:0:
64,192,91501,1,8,0:0:0:0:
320,192,91501,128,0,92036:0:0:0:0:
192,192,91679,1,0,0:0:0:0:
64,192,91858,128,8,92215:0:0:0:0:
448,192,91858,1,0,0:0:0:0:
192,192,92036,128,0,92215:0:0:0:0:
320,192,92215,128,2,92572:0:0:0:0:
448,192,92215,128,4,92483:0:0:0:0:
192,192,92394,1,0,0:0:0:0:
64,192,92483,1,0,0:0:0:0:
448,192,92572,1,0,0:0:0:0:
64,192,92751,1,2,0:0:0:0:
192,192,92751,1,0,0:0:0:0:
64,192,92929,1,8,0:0:0:0:
320,192,92929,1,0,0:0:0:0:
448,192,93019,1,0,0:0:0:0:
192,192,93063,1,0,0:0:0:0:
320,192,93108,1,0,0:0:0:0:
448,192,93153,1,0,0:0:0:0:
64,192,93197,1,0,0:0:0:0:
192,192,93242,1,0,0:0:0:0:
320,192,93286,1,2,0:0:0:0:
448,192,93286,1,0,0:0:0:0:
64,192,93376,1,0,0:0:0:0:
192,192,93465,1,0,0:0:0:0:
192,192,93554,1,0,0:0:0:0:
192,192,93644,1,0,0:0:0:0:
320,192,93822,128,2,94179:0:0:0:0:
448,192,93822,128,0,94001:0:0:0:0:
192,192,93911,1,0,0:0:0:0:
64,192,94001,1,0,0:0:0:0:
64,192,94179,128,0,94358:0:0:0:0:
192,192,94358,1,8,0:0:0:0:
448,192,94358,128,0,94447:0:0:0:0:
64,192,94536,128,0,94626:0:0:0:0:
320,192,94715,1,8,0:0:0:0:
448,192,94715,128,0,94804:0:0:0:0:
192,192,94894,128,0,94983:0:0:0:0:
64,192,95072,128,2,95161:0:0:0:0:
192,192,95072,1,0,0:0:0:0:
448,192,95251,1,0,0:0:0:0:
192,192,95340,128,0,95429:0:0:0:0:
64,192,95429,128,0,95519:0:0:0:0:
320,192,95608,1,2,0:0:0:0:
448,192,95608,1,0,0:0:0:0:
64,192,95786,1,8,0:0:0:0:
320,192,95786,1,0,0:0:0:0:
448,192,95965,1,0,0:0:0:0:
320,192,96084,1,0,0:0:0:0:
448,192,96114,1,0,0:0:0:0:
64,192,96144,1,2,0:0:0:0:
192,192,96144,128,0,97096:0:0:0:0:
320,192,96233,1,0,0:0:0:0:
448,192,96322,128,0,96411:0:0:0:0:
64,192,96411,1,0,0:0:0:0:
320,192,96501,1,0,0:0:0:0:
64,192,96590,1,0,0:0:0:0:
320,192,96679,1,2,0:0:0:0:
448,192,96679,1,0,0:0:0:0:
64,192,96769,1,0,0:0:0:0:
448,192,96858,128,0,97096:0:0:0:0:
64,192,96977,1,0,0:0:0:0:
320,192,97096,1,0,0:0:0:0:
64,192,97156,1,0,0:0:0:0:
192,192,97215,1,8,0:0:0:0:
448,192,97215,1,0,0:0:0:0:
320,192,97260,1,0,0:0:0:0:
64,192,97394,1,8,0:0:0:0:
448,192,97394,1,0,0:0:0:0:
192,192,97438,1,0,0:0:0:0:
448,192,97572,128,0,97632:0:0:0:0:
64,192,97661,1,0,0:0:0:0:
320,192,97691,128,0,97751:0:0:0:0:
448,192,97751,1,0,0:0:0:0:
192,192,97810,128,0,97870:0:0:0:0:
320,192,97840,1,0,0:0:0:0:
64,192,97929,128,2,98108:0:0:0:0:
192,192,97929,1,0,0:0:0:0:
448,192,98108,1,0,0:0:0:0:
64,192,98197,1,0,0:0:0:0:
320,192,98286,1,0,0:0:0:0:
64,192,98465,1,2,0:0:0:0:
192,192,98465,1,0,0:0:0:0:
192,192,98644,1,8,0:0:0:0:
448,192,98644,1,0,0:0:0:0:
64,192,98733,1,0,0:0:0:0:
320,192,98778,1,0,0:0:0:0:
192,192,98822,1,0,0:0:0:0:
64,192,98867,1,0,0:0:0:0:
448,192,98911,1,0,0:0:0:0:
320,192,98956,1,0,0:0:0:0:
64,192,99001,1,2,0:0:0:0:
192,192,99001,1,0,0:0:0:0:
448,192,99090,1,0,0:0:0:0:
320,192,99179,1,0,0:0:0:0:
320,192,99269,1,0,0:0:0:0:
320,192,99358,1,0,0:0:0:0:
64,192,99536,128,2,99715:0:0:0:0:
192,192,99536,128,0,99894:0:0:0:0:
320,192,99626,1,0,0:0:0:0:
448,192,99715,1,0,0:0:0:0:
448,192,99894,128,0,100072:0:0:0:0:
64,192,100072,1,8,0:0:0:0:
320,192,100072,1,0,0:0:0:0:
320,192,100251,1,0,0:0:0:0:
64,192,100340,128,0,100429:0:0:0:0:
192,192,100429,1,8,0:0:0:0:
448,192,100429,1,0,0:0:0:0:
64,192,100519,1,0,0:0:0:0:
448,192,100608,128,0,100667:0:0:0:0:
64,192,100786,1,2,0:0:0:0:
192,192,100786,128,0,100965:0:0:0:0:
448,192,100965,128,0,101144:0:0:0:0:
320,192,101144,128,0,101322:0:0:0:0:
192,192,101322,128,0,101501:0:0:0:0:
64,192,101501,128,8,101858:0:0:0:0:
320,192,101501,1,0,0:0:0:0:
320,192,101679,1,2,0:0:0:0:
448,192,101679,1,0,0:0:0:0:
320,192,101858,128,2,102215:0:0:0:0:
448,192,101858,128,4,102394:0:0:0:0:
64,192,102036,128,0,102394:0:0:0:0:
320,192,102394,128,0,102572:0:0:0:0:
448,192,102483,128,0,102572:0:0:0:0:
64,192,102572,128,2,102751:0:0:0:0:
192,192,102572,128,4,102929:0:0:0:0:
448,192,102751,128,0,102929:0:0:0:0:
64,192,102929,1,8,0:0:0:0:
320,192,102929,128,0,103286:0:0:0:0:
192,192,103019,1,0,0:0:0:0:
64,192,103108,1,0,0:0:0:0:
192,192,103197,1,0,0:0:0:0:
64,192,103286,128,8,103644:0:0:0:0:
448,192,103286,1,0,0:0:0:0:
192,192,103376,1,0,0:0:0:0:
448,192,103465,1,0,0:0:0:0:
192,192,103554,128,0,103644:0:0:0:0:
320,192,103644,128,6,103763:0:0:0:0:
448,192,103644,128,0,103733:0:0:0:70:LR_Long Bass.wav
192,192,106501,128,0,106590:0:0:0:0:
448,192,107304,128,0,107572:0:0:0:0:
320,192,107572,128,0,107661:0:0:0:0:
320,192,107751,128,0,108376:0:0:0:0:
192,192,108599,128,0,108911:0:0:0:0:
192,192,109001,1,0,0:0:0:0:
64,192,109060,128,0,109269:0:0:0:0:
448,192,109358,128,0,109447:0:0:0:0:
192,192,109447,1,0,0:0:0:0:
64,192,112215,128,0,112304:0:0:0:0:
320,192,112304,1,0,0:0:0:0:
448,192,113019,128,0,113286:0:0:0:0:
320,192,113286,128,0,113376:0:0:0:0:
320,192,113465,128,0,114090:0:0:0:0:
192,192,114358,128,0,114626:0:0:0:0:
192,192,114715,1,0,0:0:0:0:
64,192,114775,128,0,115072:0:0:0:0:
448,192,114894,128,0,115072:0:0:0:0:
192,192,115072,1,0,0:0:0:0:
448,192,115429,1,0,0:0:0:0:
320,192,115608,1,0,0:0:0:0:
192,192,115786,1,0,0:0:0:0:
320,192,116144,1,0,0:0:0:0:
320,192,116322,128,0,116501:0:0:0:0:
64,192,116501,1,0,0:0:0:0:
448,192,116858,1,0,0:0:0:0:
320,192,117036,1,0,0:0:0:0:
192,192,117215,1,0,0:0:0:0:
320,192,117572,1,0,0:0:0:0:
320,192,117751,128,0,117929:0:0:0:0:
192,192,117929,1,0,0:0:0:0:
448,192,118108,1,0,0:0:0:0:
64,192,118286,1,0,0:0:0:0:
320,192,118465,128,0,118644:0:0:0:0:
192,192,118644,1,0,0:0:0:0:
448,192,118822,1,0,0:0:0:0:
64,192,119001,1,0,0:0:0:0:
320,192,119179,128,0,119358:0:0:0:0:
192,192,119358,1,0,0:0:0:0:
448,192,119536,1,0,0:0:0:0:
64,192,119715,1,0,0:0:0:0:
320,192,119894,1,0,0:0:0:0:
448,192,120072,1,0,0:0:0:0:
320,192,120251,1,0,0:0:0:0:
192,192,120429,1,0,0:0:0:0:
64,192,120786,1,8,0:0:0:0:
320,192,120786,1,0,0:0:0:0:
320,192,120965,1,0,0:0:0:0:
320,192,121144,1,0,0:0:0:0:
64,192,121322,1,8,0:0:0:0:
320,192,121322,1,0,0:0:0:0:
192,192,121501,1,8,0:0:0:0:
448,192,121501,1,0,0:0:0:0:
192,192,121679,1,8,0:0:0:0:
448,192,121724,1,8,0:0:0:0:
320,192,121769,1,8,0:0:0:0:
64,192,121813,1,8,0:0:0:0:
192,192,121858,1,8,0:0:0:0:
448,192,121858,1,0,0:0:0:0:
192,192,122036,1,0,0:0:0:0:
448,192,122215,1,0,0:0:0:0:
192,192,122394,1,8,0:0:0:0:
448,192,122394,1,0,0:0:0:0:
64,192,122572,1,8,0:0:0:0:
448,192,122572,1,0,0:0:0:0:
448,192,122751,1,8,0:0:0:0:
64,192,122795,1,8,0:0:0:0:
192,192,122840,1,8,0:0:0:0:
320,192,122885,1,8,0:0:0:0:
64,192,122929,1,8,0:0:0:0:
448,192,122929,1,0,0:0:0:0:
64,192,123108,1,0,0:0:0:0:
64,192,123286,1,0,0:0:0:0:
64,192,123465,1,8,0:0:0:0:
448,192,123465,1,0,0:0:0:0:
448,192,123554,1,8,0:0:0:0:
192,192,123644,128,8,125072:0:0:0:0:
448,192,123644,1,0,0:0:0:0:
448,192,124001,1,0,0:0:0:0:
64,192,124179,1,8,0:0:0:0:
320,192,124179,1,0,0:0:0:0:
64,192,124358,1,8,0:0:0:0:
448,192,124358,1,0,0:0:0:100:AnimeSample7.wav
64,192,124715,1,8,0:0:0:0:
448,192,124715,1,0,0:0:0:0:
64,192,124894,1,8,0:0:0:0:
320,192,124894,1,0,0:0:0:0:
320,192,125072,1,0,0:0:0:0:
64,192,125370,1,0,0:0:0:0:
448,192,125429,1,0,0:0:0:0:
192,192,125786,1,0,0:0:0:0:
448,192,125965,1,0,0:0:0:0:
64,192,126144,1,0,0:0:0:0:
192,192,126188,1,0,0:0:0:0:
320,192,126233,1,0,0:0:0:0:
448,192,126278,1,0,0:0:0:0:
64,192,126322,1,0,0:0:0:0:
192,192,126367,1,0,0:0:0:0:
320,192,126411,1,0,0:0:0:0:
448,192,126456,1,0,0:0:0:0:
64,192,126501,1,2,0:0:0:0:
192,192,126501,1,4,0:0:0:0:
320,192,126590,1,0,0:0:0:0:
192,192,126679,1,0,0:0:0:0:
64,192,126769,1,0,0:0:0:0:
448,192,126858,128,0,126917:0:0:0:0:
192,192,126947,1,0,0:0:0:0:
320,192,127036,128,2,127096:0:0:0:0:
448,192,127036,1,0,0:0:0:0:
64,192,127126,1,0,0:0:0:0:
192,192,127215,128,8,127275:0:0:0:0:
448,192,127215,1,0,0:0:0:0:
320,192,127304,1,0,0:0:0:0:
192,192,127394,1,0,0:0:0:0:
64,192,127483,1,0,0:0:0:0:
320,192,127572,128,2,127632:0:0:0:0:
448,192,127572,1,0,0:0:0:0:
64,192,127661,1,0,0:0:0:0:
320,192,127751,128,0,127929:0:0:0:0:
192,192,127840,1,0,0:0:0:0:
64,192,127929,128,0,127989:0:0:0:0:
448,192,128019,1,0,0:0:0:0:
64,192,128108,128,2,128197:0:0:0:0:
192,192,128108,128,0,128197:0:0:0:0:
320,192,128197,1,0,0:0:0:0:
448,192,128286,128,0,128346:0:0:0:0:
64,192,128376,1,0,0:0:0:0:
192,192,128465,128,0,128644:0:0:0:0:
448,192,128554,1,0,0:0:0:0:
64,192,128644,1,8,0:0:0:0:
320,192,128644,128,0,128822:0:0:0:0:
192,192,128733,1,0,0:0:0:0:
448,192,128822,128,0,128911:0:0:0:0:
64,192,128911,1,0,0:0:0:0:
192,192,129001,1,8,0:0:0:0:
448,192,129001,128,0,129179:0:0:0:0:
64,192,129090,1,0,0:0:0:0:
320,192,129179,128,0,129358:0:0:0:0:
448,192,129269,1,0,0:0:0:0:
64,192,129358,1,2,0:0:0:0:
192,192,129358,128,0,129447:0:0:0:0:
448,192,129447,1,0,0:0:0:0:
64,192,129536,1,0,0:0:0:0:
448,192,129626,1,0,0:0:0:0:
192,192,129715,128,0,129804:0:0:0:0:
448,192,129804,1,0,0:0:0:0:
64,192,129894,1,2,0:0:0:0:
192,192,129894,1,0,0:0:0:0:
448,192,129983,1,0,0:0:0:0:
64,192,130072,1,8,0:0:0:0:
320,192,130072,1,0,0:0:0:0:
448,192,130161,1,0,0:0:0:0:
192,192,130251,1,0,0:0:0:0:
448,192,130340,1,0,0:0:0:0:
64,192,130429,1,2,0:0:0:0:
192,192,130429,1,0,0:0:0:0:
320,192,130519,1,0,0:0:0:0:
64,192,130608,128,0,130667:0:0:0:0:
320,192,130697,1,0,0:0:0:0:
192,192,130786,1,0,0:0:0:0:
448,192,130846,1,0,0:0:0:0:
320,192,130906,1,0,0:0:0:0:
64,192,130965,1,2,0:0:0:0:
192,192,130965,1,0,0:0:0:0:
448,192,131025,1,0,0:0:0:0:
320,192,131084,1,0,0:0:0:0:
192,192,131144,1,0,0:0:0:0:
64,192,131203,1,0,0:0:0:0:
320,192,131263,1,0,0:0:0:0:
448,192,131322,1,0,0:0:0:0:
192,192,131382,1,0,0:0:0:0:
320,192,131441,1,0,0:0:0:0:
64,192,131501,1,8,0:0:0:0:
448,192,131501,128,0,131590:0:0:0:0:
192,192,131560,1,0,0:0:0:0:
320,192,131620,1,0,0:0:0:0:
448,192,131679,1,0,0:0:0:0:
64,192,131739,1,0,0:0:0:0:
192,192,131798,1,0,0:0:0:0:
448,192,131858,128,8,131917:0:0:0:0:
320,192,131917,1,0,0:0:0:0:
192,192,131977,1,0,0:0:0:0:
64,192,132036,128,0,132096:0:0:0:0:
448,192,132096,1,0,0:0:0:0:
320,192,132156,1,0,0:0:0:0:
64,192,132215,1,2,0:0:0:0:
192,192,132215,1,0,0:0:0:0:
448,192,132275,1,0,0:0:0:0:
320,192,132334,1,0,0:0:0:0:
192,192,132394,1,0,0:0:0:0:
64,192,132483,1,0,0:0:0:0:
320,192,132572,1,0,0:0:0:0:
448,192,132661,1,0,0:0:0:0:
64,192,132751,1,2,0:0:0:0:
192,192,132751,1,0,0:0:0:0:
448,192,132840,1,0,0:0:0:0:
64,192,132929,1,8,0:0:0:0:
320,192,132929,1,0,0:0:0:0:
448,192,133019,1,0,0:0:0:0:
64,192,133108,1,0,0:0:0:0:
448,192,133197,1,0,0:0:0:0:
64,192,133286,1,2,0:0:0:0:
192,192,133286,1,0,0:0:0:0:
448,192,133376,1,0,0:0:0:0:
64,192,133465,128,0,133525:0:0:0:0:
448,192,133554,1,0,0:0:0:0:
192,192,133644,1,0,0:0:0:0:
64,192,133822,1,2,0:0:0:0:
192,192,133822,128,0,134001:0:0:0:0:
448,192,134001,128,0,134179:0:0:0:0:
64,192,134179,1,0,0:0:0:0:
192,192,134358,1,8,0:0:0:0:
448,192,134358,1,0,0:0:0:0:
64,192,134447,1,0,0:0:0:0:
320,192,134536,1,0,0:0:0:0:
64,192,134626,1,0,0:0:0:0:
192,192,134715,1,8,0:0:0:0:
448,192,134715,1,0,0:0:0:0:
448,192,134894,128,0,134953:0:0:0:0:
64,192,135072,1,2,0:0:0:0:
192,192,135072,1,0,0:0:0:0:
320,192,135117,1,0,0:0:0:0:
448,192,135161,1,0,0:0:0:0:
192,192,135206,1,0,0:0:0:0:
64,192,135251,1,0,0:0:0:0:
320,192,135340,1,0,0:0:0:0:
192,192,135429,1,0,0:0:0:0:
448,192,135519,1,0,0:0:0:0:
64,192,135608,1,2,0:0:0:0:
192,192,135608,1,0,0:0:0:0:
64,192,135786,1,8,0:0:0:0:
320,192,135786,1,0,0:0:0:0:
448,192,135876,1,0,0:0:0:0:
64,192,135965,1,0,0:0:0:0:
448,192,136054,1,0,0:0:0:0:
64,192,136144,1,2,0:0:0:0:
192,192,136144,1,0,0:0:0:0:
320,192,136233,1,0,0:0:0:0:
448,192,136322,128,0,136382:0:0:0:0:
64,192,136411,1,0,0:0:0:0:
320,192,136501,1,0,0:0:0:0:
192,192,136590,1,0,0:0:0:0:
448,192,136679,128,0,136739:0:0:0:0:
64,192,136769,1,0,0:0:0:0:
320,192,136858,1,2,0:0:0:0:
448,192,136858,1,0,0:0:0:0:
192,192,136947,1,0,0:0:0:0:
320,192,137036,1,0,0:0:0:0:
64,192,137126,1,0,0:0:0:0:
192,192,137215,1,8,0:0:0:0:
448,192,137215,1,0,0:0:0:0:
320,192,137304,1,0,0:0:0:0:
448,192,137394,128,0,137453:0:0:0:0:
192,192,137483,1,0,0:0:0:0:
64,192,137572,1,8,0:0:0:0:
320,192,137572,1,0,0:0:0:0:
448,192,137661,1,0,0:0:0:0:
64,192,137751,1,0,0:0:0:0:
192,192,137840,1,0,0:0:0:0:
320,192,137929,128,2,137989:0:0:0:0:
448,192,137929,1,4,0:0:0:0:
192,192,138019,1,0,0:0:0:0:
64,192,138108,128,0,138167:0:0:0:0:
192,192,138286,128,0,138346:0:0:0:0:
320,192,138465,1,2,0:0:0:0:
448,192,138465,128,0,138554:0:0:0:0:
64,192,138644,1,8,0:0:0:0:
320,192,138644,1,0,0:0:0:0:
448,192,138733,1,0,0:0:0:0:
64,192,138822,1,0,0:0:0:0:
448,192,138911,1,0,0:0:0:0:
64,192,139001,1,2,0:0:0:0:
192,192,139001,1,0,0:0:0:0:
320,192,139090,1,0,0:0:0:0:
192,192,139179,128,0,139358:0:0:0:0:
448,192,139269,1,0,0:0:0:0:
320,192,139358,1,0,0:0:0:0:
448,192,139447,1,0,0:0:0:0:
64,192,139536,1,2,0:0:0:0:
192,192,139536,128,0,139715:0:0:0:0:
320,192,139715,128,0,139894:0:0:0:0:
448,192,139894,128,0,140072:0:0:0:0:
64,192,140072,1,8,0:0:0:0:
320,192,140072,1,0,0:0:0:0:
448,192,140161,1,0,0:0:0:0:
64,192,140251,1,0,0:0:0:0:
320,192,140340,1,0,0:0:0:0:
192,192,140429,1,8,0:0:0:0:
448,192,140429,1,0,0:0:0:0:
64,192,140519,1,0,0:0:0:0:
448,192,140608,128,0,140667:0:0:0:0:
192,192,140697,1,0,0:0:0:0:
320,192,140786,1,2,0:0:0:0:
448,192,140786,1,0,0:0:0:0:
64,192,140831,1,0,0:0:0:0:
192,192,140876,1,0,0:0:0:0:
448,192,140920,1,0,0:0:0:0:
320,192,140965,1,0,0:0:0:0:
64,192,141010,1,0,0:0:0:0:
192,192,141054,1,0,0:0:0:0:
448,192,141099,1,0,0:0:0:0:
320,192,141144,1,0,0:0:0:0:
192,192,141233,1,0,0:0:0:0:
320,192,141322,1,2,0:0:0:0:
448,192,141322,1,0,0:0:0:0:
64,192,141501,1,8,0:0:0:0:
448,192,141501,1,0,0:0:0:0:
192,192,141679,1,0,0:0:0:0:
320,192,141769,1,0,0:0:0:0:
64,192,141858,1,2,0:0:0:0:
192,192,141858,1,0,0:0:0:0:
448,192,141947,1,0,0:0:0:0:
64,192,142036,128,0,142096:0:0:0:0:
320,192,142126,1,0,0:0:0:0:
192,192,142215,1,0,0:0:0:0:
64,192,142304,1,0,0:0:0:0:
320,192,142394,1,2,0:0:0:0:
448,192,142394,1,0,0:0:0:0:
192,192,142483,1,0,0:0:0:0:
320,192,142572,1,0,0:0:0:0:
448,192,142661,1,0,0:0:0:0:
64,192,142691,1,0,0:0:0:0:
192,192,142751,1,0,0:0:0:0:
320,192,142810,1,0,0:0:0:0:
64,192,142870,1,0,0:0:0:0:
192,192,142929,1,8,0:0:0:0:
448,192,142929,128,0,143108:0:0:0:0:
64,192,143019,1,0,0:0:0:0:
320,192,143108,128,0,143376:0:0:0:0:
192,192,143197,1,0,0:0:0:0:
64,192,143286,1,0,0:0:0:0:
448,192,143376,1,0,0:0:0:0:
192,192,143465,1,0,0:0:0:0:
320,192,143554,1,0,0:0:0:0:
64,192,143644,1,2,0:0:0:0:
192,192,143644,1,0,0:0:0:0:
448,192,143703,1,0,0:0:0:0:
320,192,143763,1,0,0:0:0:0:
64,192,143822,1,0,0:0:0:0:
192,192,143882,1,0,0:0:0:0:
320,192,143941,1,0,0:0:0:0:
448,192,144001,1,0,0:0:0:0:
64,192,144060,1,0,0:0:0:0:
192,192,144120,1,0,0:0:0:0:
320,192,144179,1,2,0:0:0:0:
448,192,144179,1,0,0:0:0:0:
192,192,144358,1,8,0:0:0:0:
448,192,144358,1,0,0:0:0:0:
64,192,144447,1,0,0:0:0:0:
320,192,144536,1,0,0:0:0:0:
192,192,144626,1,0,0:0:0:0:
320,192,144715,1,2,0:0:0:0:
448,192,144715,1,0,0:0:0:0:
64,192,144804,1,0,0:0:0:0:
448,192,144894,128,0,144953:0:0:0:0:
192,192,144983,1,0,0:0:0:0:
64,192,145072,128,0,145251:0:0:0:0:
320,192,145251,128,2,145429:0:0:0:0:
448,192,145251,1,0,0:0:0:0:
64,192,145429,128,0,145786:0:0:0:0:
448,192,145608,1,0,0:0:0:0:
192,192,145786,1,8,0:0:0:0:
448,192,145786,1,0,0:0:0:0:
320,192,145965,1,0,0:0:0:0:
64,192,146054,128,0,146144:0:0:0:0:
192,192,146144,1,8,0:0:0:0:
448,192,146144,1,0,0:0:0:0:
64,192,146233,1,0,0:0:0:0:
448,192,146322,128,0,146382:0:0:0:0:
64,192,146501,1,2,0:0:0:0:
192,192,146501,1,0,0:0:0:0:
320,192,146590,1,0,0:0:0:0:
64,192,146679,1,0,0:0:0:0:
192,192,146769,1,0,0:0:0:0:
448,192,146858,1,0,0:0:0:0:
320,192,146947,1,0,0:0:0:0:
64,192,147036,1,2,0:0:0:0:
192,192,147036,1,0,0:0:0:0:
448,192,147126,1,0,0:0:0:0:
64,192,147215,1,8,0:0:0:0:
320,192,147215,1,0,0:0:0:0:
448,192,147304,1,0,0:0:0:0:
192,192,147394,1,0,0:0:0:0:
320,192,147483,1,0,0:0:0:0:
64,192,147572,1,2,0:0:0:0:
192,192,147572,1,0,0:0:0:0:
448,192,147661,1,0,0:0:0:0:
64,192,147751,128,0,147810:0:0:0:0:
320,192,147840,1,0,0:0:0:0:
192,192,147929,1,0,0:0:0:0:
448,192,148019,1,0,0:0:0:0:
64,192,148108,128,0,148167:0:0:0:0:
320,192,148197,1,0,0:0:0:0:
64,192,148286,1,2,0:0:0:0:
192,192,148286,1,0,0:0:0:0:
448,192,148376,1,0,0:0:0:0:
192,192,148465,1,0,0:0:0:0:
320,192,148554,1,0,0:0:0:0:
64,192,148644,1,8,0:0:0:0:
448,192,148644,1,0,0:0:0:0:
192,192,148822,1,0,0:0:0:0:
64,192,149001,1,8,0:0:0:0:
448,192,149001,128,0,149358:0:0:0:0:
320,192,149179,1,0,0:0:0:0:
64,192,149358,1,2,0:0:0:0:
192,192,149358,128,4,149447:0:0:0:0:
64,192,149536,128,0,149626:0:0:0:0:
64,192,149715,1,2,0:0:0:0:
192,192,149715,128,0,149804:0:0:0:0:
448,192,149894,1,0,0:0:0:0:
320,192,149938,1,0,0:0:0:0:
192,192,149983,1,0,0:0:0:0:
320,192,150028,1,0,0:0:0:0:
64,192,150072,1,8,0:0:0:0:
448,192,150072,128,0,150251:0:0:0:0:
320,192,150251,1,0,0:0:0:0:
192,192,150429,1,0,0:0:0:0:
320,192,150608,1,2,0:0:0:0:
448,192,150608,1,0,0:0:0:0:
64,192,150786,1,0,0:0:0:0:
192,192,150965,1,0,0:0:0:0:
448,192,151144,1,2,0:0:0:0:
320,192,151166,1,0,0:0:0:0:
320,192,151322,1,0,0:0:0:0:
192,192,151345,1,0,0:0:0:0:
64,192,151501,1,8,0:0:0:0:
448,192,151501,1,0,0:0:0:0:
192,192,151679,1,0,0:0:0:0:
320,192,151858,1,0,0:0:0:0:
448,192,152036,1,0,0:0:0:0:
64,192,152215,1,2,0:0:0:0:
192,192,152215,1,0,0:0:0:0:
448,192,152394,1,0,0:0:0:0:
64,192,152572,1,2,0:0:0:0:
192,192,152572,1,0,0:0:0:0:
320,192,152661,1,0,0:0:0:0:
448,192,152751,1,0,0:0:0:0:
192,192,152840,1,0,0:0:0:0:
64,192,152929,1,8,0:0:0:0:
320,192,152929,1,0,0:0:0:0:
448,192,153108,1,0,0:0:0:0:
64,192,153286,128,0,153376:0:0:0:0:
64,192,153465,128,2,153554:0:0:0:0:
192,192,153465,1,0,0:0:0:0:
320,192,153644,128,0,153822:0:0:0:0:
448,192,153822,1,0,0:0:0:0:
320,192,154001,1,2,0:0:0:0:
448,192,154001,128,0,154090:0:0:0:0:
320,192,154179,128,0,154269:0:0:0:0:
64,192,154358,1,8,0:0:0:0:
448,192,154358,128,0,154447:0:0:0:0:
64,192,154536,1,2,0:0:0:0:
192,192,154536,1,0,0:0:0:0:
320,192,154715,128,0,154804:0:0:0:0:
448,192,154737,1,0,0:0:0:0:
192,192,154894,128,2,154983:0:0:0:0:
320,192,154916,1,0,0:0:0:0:
64,192,155072,128,2,155161:0:0:0:0:
192,192,155072,1,0,0:0:0:0:
448,192,155251,1,0,0:0:0:0:
320,192,155429,1,2,0:0:0:0:
448,192,155429,1,0,0:0:0:0:
192,192,155519,1,0,0:0:0:0:
64,192,155608,128,0,155697:0:0:0:0:
320,192,155697,1,0,0:0:0:0:
192,192,155786,1,8,0:0:0:0:
448,192,155786,1,0,0:0:0:0:
320,192,155965,1,2,0:0:0:0:
448,192,155965,1,0,0:0:0:0:
64,192,156144,128,0,156233:0:0:0:0:
448,192,156233,1,0,0:0:0:0:
64,192,156322,1,2,0:0:0:0:
192,192,156322,1,0,0:0:0:0:
320,192,156411,1,0,0:0:0:0:
192,192,156501,1,0,0:0:0:0:
448,192,156679,1,0,0:0:0:0:
320,192,156858,1,2,0:0:0:0:
448,192,156858,128,0,156947:0:0:0:0:
320,192,157036,128,0,157126:0:0:0:0:
64,192,157215,1,8,0:0:0:0:
448,192,157215,128,0,157304:0:0:0:0:
192,192,157394,1,0,0:0:0:0:
320,192,157572,128,2,157661:0:0:0:0:
448,192,157572,1,0,0:0:0:0:
192,192,157751,128,0,157840:0:0:0:0:
448,192,157840,1,0,0:0:0:0:
64,192,157929,128,0,158286:0:0:0:0:
64,192,158465,128,0,158822:0:0:0:0:
64,192,159001,128,0,161590:0:0:0:100:AnimeSample8.wav
448,192,160072,128,0,161144:0:0:0:0:
