osu file format v14

[General]
AudioFilename: audio.mp3
AudioLeadIn: 0
PreviewTime: 85496
Countdown: 0
SampleSet: Soft
StackLeniency: 0.3
Mode: 0
LetterboxInBreaks: 0
WidescreenStoryboard: 0

[Editor]
DistanceSpacing: 1.3
BeatDivisor: 8
GridSize: 8
TimelineZoom: 3.999998

[Metadata]
Title:MARBLE TEA
TitleUnicode:MARBLE TEA
Artist:Shawn Wasabi
ArtistUnicode:Shawn Wasabi
Creator:jasontime12345
Version:on my way!
Source:
Tags:Raychel Jay pop electronic english xahlt yuhdj dora- doraemonelf launchpad midi fighter Justin Tranter
BeatmapID:2208111
BeatmapSetID:1056394

[Difficulty]
HPDrainRate:5
CircleSize:4.2
OverallDifficulty:8.6
ApproachRate:9
SliderMultiplier:2
SliderTickRate:2

[Events]
//Background and Video events
0,0,"b.jpg",0,0
//Break Periods
//Storyboard Layer 0 (Background)
//Storyboard Layer 1 (Fail)
//Storyboard Layer 2 (Pass)
//Storyboard Layer 3 (Foreground)
//Storyboard Layer 4 (Overlay)
//Storyboard Sound Samples

[TimingPoints]
0,754.716981132075,4,2,1,50,1,0
1132,-125,4,2,99,5,0,0
1510,759.493670886076,4,2,1,50,1,0
6066,-125,4,2,1,50,0,0
6160,-125,4,2,99,5,0,0
6256,-125,4,2,1,50,0,0
6350,-125,4,2,99,5,0,0
6446,-125,4,2,1,50,0,0
6540,-125,4,2,99,5,0,0
6636,-125,4,2,1,50,0,0
6730,-125,4,2,99,5,0,0
6826,-125,4,2,1,50,0,0
7396,-50,4,2,1,50,0,0
9104,-125,4,2,1,50,0,0
11383,-125,4,2,2,60,0,0
11763,-66.6666666666667,4,2,2,60,0,0
12142,759.493670886076,4,2,1,35,1,0
12142,-66.6666666666667,4,2,1,35,0,0
13281,-133.333333333333,4,2,1,35,0,0
14421,-133.333333333333,4,2,3,35,0,0
14801,-133.333333333333,4,2,1,35,0,0
15180,-66.6666666666667,4,2,1,35,0,0
16319,-133.333333333333,4,2,1,35,0,0
17459,-133.333333333333,4,2,3,35,0,0
17839,-133.333333333333,4,2,1,35,0,0
18218,-66.6666666666667,4,2,1,35,0,0
19358,-133.333333333333,4,2,1,35,0,0
20497,-133.333333333333,4,2,3,35,0,0
20877,-133.333333333333,4,2,1,35,0,0
21256,-66.6666666666667,4,2,1,35,0,0
22396,-111.111111111111,4,2,1,35,0,0
23535,-111.111111111111,4,2,3,35,0,0
23915,-111.111111111111,4,2,4,35,0,0
24294,-66.6666666666667,4,2,4,45,0,0
26573,-66.6666666666667,4,2,3,45,0,0
26952,-66.6666666666667,4,2,4,45,0,0
29611,-66.6666666666667,4,2,3,45,0,0
29990,-66.6666666666667,4,2,4,45,0,0
34547,-111.111111111111,4,2,4,45,0,0
36446,-66.6666666666667,4,2,4,50,0,0
48598,-62.5,4,2,4,50,0,0
50877,-62.5,4,2,3,50,0,0
51256,-62.5,4,2,4,50,0,0
53915,-62.5,4,2,3,50,0,0
54294,-62.5,4,2,4,50,0,0
60750,-50,4,2,4,55,0,0
69863,779.220779220779,4,2,4,50,1,0
69863,-50,4,2,4,50,0,0
71422,800,4,2,4,50,1,0
71622,-50,4,2,4,50,0,0
72222,845.070422535211,4,2,4,65,1,0
73068,857.142857142857,4,2,4,50,1,0
73068,-50,4,2,4,50,0,0
73175,-50,4,2,99,5,0,0
73282,-50,4,2,4,50,0,0
73389,-50,4,2,99,5,0,0
73496,-50,4,2,4,50,0,0
73603,-50,4,2,99,5,0,0
73710,-50,4,2,4,50,0,0
73817,-50,4,2,99,5,0,0
73925,-50,4,2,4,50,0,0
74032,-50,4,2,99,5,0,0
74139,-50,4,2,4,50,0,0
74246,-50,4,2,99,5,0,0
74353,-50,4,2,4,50,0,0
74460,-50,4,2,99,5,0,0
74568,-50,4,2,4,50,0,0
74675,-50,4,2,99,5,0,0
74782,-50,4,2,4,50,0,0
74889,-50,4,2,99,5,0,0
74996,-50,4,2,4,50,0,0
75103,-50,4,2,99,5,0,0
75210,-50,4,2,4,50,0,0
75317,-50,4,2,99,5,0,0
75425,-50,4,2,4,50,0,0
75532,-50,4,2,99,5,0,0
75639,-50,4,2,4,50,0,0
75746,-50,4,2,99,5,0,0
75853,-50,4,2,4,50,0,0
75960,-50,4,2,99,5,0,0
76068,-50,4,2,4,50,0,0
76175,-50,4,2,99,5,0,0
76282,-50,4,2,4,50,0,0
76389,-50,4,2,99,5,0,0
76496,-50,4,2,4,50,0,0
76603,-50,4,2,99,5,0,0
76710,-50,4,2,4,50,0,0
76817,-50,4,2,99,5,0,0
76925,-50,4,2,4,50,0,0
77032,-50,4,2,99,5,0,0
77139,-50,4,2,4,50,0,0
77246,-50,4,2,99,5,0,0
77353,-50,4,2,4,50,0,0
77460,-50,4,2,99,5,0,0
77568,-50,4,2,4,50,0,0
78960,-50,4,2,99,5,0,0
79068,-50,4,2,4,50,0,0
81317,-50,4,2,99,5,0,0
81425,-50,4,2,4,50,0,0
81746,-50,4,2,99,5,0,0
81853,-50,4,2,4,50,0,0
82175,-50,4,2,99,5,0,0
82282,-50,4,2,4,50,0,0
82603,-50,4,2,99,5,0,0
82710,-50,4,2,4,50,0,0
82817,-50,4,2,99,5,0,0
82925,-50,4,2,4,50,0,0
83032,-50,4,2,99,5,0,0
83139,-50,4,2,4,50,0,0
83246,-50,4,2,99,5,0,0
83353,-50,4,2,4,50,0,0
85925,-100,4,2,7,75,0,0
86782,-33.3333333333333,4,2,7,85,0,1
87317,-33.3333333333333,4,2,99,5,0,1
87425,-33.3333333333333,4,2,7,85,0,1
87532,-33.3333333333333,4,2,99,5,0,1
87639,-33.3333333333333,4,2,7,85,0,1
87960,-33.3333333333333,4,2,99,5,0,1
88068,-33.3333333333333,4,2,7,85,0,1
88603,-33.3333333333333,4,2,99,5,0,1
88710,-33.3333333333333,4,2,7,85,0,1
88817,-33.3333333333333,4,2,99,5,0,1
88925,-33.3333333333333,4,2,7,85,0,1
89353,-33.3333333333333,4,2,5,85,0,1
89888,-33.3333333333333,4,2,99,5,0,1
89996,-33.3333333333333,4,2,7,85,0,1
90103,-33.3333333333333,4,2,99,5,0,1
90210,-33.3333333333333,4,2,7,85,0,1
90745,-33.3333333333333,4,2,99,5,0,1
90853,-33.3333333333333,4,2,7,85,0,1
90960,-33.3333333333333,4,2,99,5,0,1
91068,-33.3333333333333,4,2,7,85,0,1
91603,-33.3333333333333,4,2,99,5,0,1
91710,-33.3333333333333,4,2,7,85,0,1
92031,-33.3333333333333,4,2,99,5,0,1
92139,-33.3333333333333,4,2,7,85,0,1
92674,-33.3333333333333,4,2,99,5,0,1
92782,-33.3333333333333,4,2,5,85,0,1
92889,-33.3333333333333,4,2,99,5,0,1
92996,-33.3333333333333,4,2,5,85,0,1
93103,-33.3333333333333,4,2,99,5,0,1
93210,-33.3333333333333,4,2,7,85,0,1
93317,-33.3333333333333,4,2,99,5,0,1
93425,-33.3333333333333,4,2,7,85,0,1
93532,-33.3333333333333,4,2,99,5,0,1
93639,-33.3333333333333,4,2,7,85,0,1
94174,-33.3333333333333,4,2,99,5,0,1
94282,-33.3333333333333,4,2,7,85,0,1
94389,-33.3333333333333,4,2,99,5,0,1
94496,-33.3333333333333,4,2,7,85,0,1
95031,-33.3333333333333,4,2,99,5,0,1
95139,-33.3333333333333,4,2,7,85,0,1
95460,-33.3333333333333,4,2,99,5,0,1
95568,-33.3333333333333,4,2,7,85,0,1
95675,-33.3333333333333,4,2,99,5,0,1
95782,-33.3333333333333,4,2,7,85,0,1
96103,-33.3333333333333,4,2,99,5,0,1
96210,-33.3333333333333,4,2,5,85,0,1
96531,-33.3333333333333,4,2,99,5,0,1
96639,-33.3333333333333,4,2,7,85,0,1
96960,-33.3333333333333,4,2,99,5,0,1
97068,-33.3333333333333,4,2,7,85,0,1
97603,-33.3333333333333,4,2,99,5,0,1
97710,-33.3333333333333,4,2,7,85,0,1
97817,-33.3333333333333,4,2,99,5,0,1
97925,-33.3333333333333,4,2,7,85,0,1
98246,-33.3333333333333,4,2,99,5,0,1
98353,-33.3333333333333,4,2,7,85,0,1
98460,-33.3333333333333,4,2,99,5,0,1
98568,-33.3333333333333,4,2,7,85,0,1
99531,-33.3333333333333,4,2,99,5,0,1
99639,-33.3333333333333,4,2,5,85,0,1
99746,-33.3333333333333,4,2,99,5,0,1
99853,-33.3333333333333,4,2,6,85,0,1
100174,-33.3333333333333,4,2,99,5,0,1
100282,-33.3333333333333,4,2,7,85,0,1
100389,-33.3333333333333,4,2,99,5,0,1
100496,-33.3333333333333,4,2,7,85,0,1
100603,-33.3333333333333,4,2,99,5,0,1
100710,-33.3333333333333,4,2,7,85,0,1
100817,-33.3333333333333,4,2,99,5,0,1
100925,-33.3333333333333,4,2,7,85,0,1
101032,-33.3333333333333,4,2,99,5,0,1
101139,-33.3333333333333,4,2,7,85,0,1
101246,-33.3333333333333,4,2,99,5,0,1
101353,-33.3333333333333,4,2,7,85,0,1
101674,-33.3333333333333,4,2,99,5,0,1
101782,-33.3333333333333,4,2,7,85,0,1
101889,-33.3333333333333,4,2,99,5,0,1
101996,-33.3333333333333,4,2,7,85,0,1
102103,-33.3333333333333,4,2,99,5,0,1
102210,-33.3333333333333,4,2,7,85,0,1
102531,-33.3333333333333,4,2,99,5,0,1
102639,-33.3333333333333,4,2,7,85,0,1
102960,-33.3333333333333,4,2,99,5,0,1
103068,-33.3333333333333,4,2,5,85,0,1
103817,-33.3333333333333,4,2,99,5,0,1
103925,-33.3333333333333,4,2,7,85,0,1
104032,-33.3333333333333,4,2,99,5,0,1
104139,-33.3333333333333,4,2,7,85,0,1
104246,-33.3333333333333,4,2,99,5,0,1
104353,-33.3333333333333,4,2,7,85,0,1
104460,-33.3333333333333,4,2,99,5,0,1
104568,-33.3333333333333,4,2,7,85,0,1
104675,-33.3333333333333,4,2,99,5,0,1
104782,-33.3333333333333,4,2,7,85,0,1
105103,-33.3333333333333,4,2,99,5,0,1
105210,-33.3333333333333,4,2,7,85,0,1
105317,-33.3333333333333,4,2,99,5,0,1
105425,-33.3333333333333,4,2,7,85,0,1
105532,-33.3333333333333,4,2,99,5,0,1
105639,-33.3333333333333,4,2,7,85,0,1
105960,-33.3333333333333,4,2,99,5,0,1
106068,-33.3333333333333,4,2,7,85,0,1
106389,-33.3333333333333,4,2,99,5,0,1
106496,-33.3333333333333,4,2,5,85,0,1
107246,-33.3333333333333,4,2,99,5,0,1
107353,-33.3333333333333,4,2,7,85,0,1
107460,-33.3333333333333,4,2,99,5,0,1
107568,-33.3333333333333,4,2,7,85,0,1
107675,-33.3333333333333,4,2,99,5,0,1
107782,-33.3333333333333,4,2,7,85,0,1
108531,-33.3333333333333,4,2,99,5,0,1
108639,-33.3333333333333,4,2,7,85,0,1
108746,-33.3333333333333,4,2,99,5,0,1
108853,-33.3333333333333,4,2,7,85,0,1
109603,-33.3333333333333,4,2,99,5,0,1
109710,-33.3333333333333,4,2,7,85,0,1
109924,-33.3333333333333,4,2,5,85,0,1
110246,-33.3333333333333,4,2,99,5,0,1
110353,-33.3333333333333,4,2,7,85,0,1
110674,-33.3333333333333,4,2,99,5,0,1
110782,-33.3333333333333,4,2,7,85,0,1
111317,-33.3333333333333,4,2,99,5,0,1
111425,-33.3333333333333,4,2,7,85,0,1
111532,-33.3333333333333,4,2,99,5,0,1
111639,-33.3333333333333,4,2,7,85,0,1
111960,-33.3333333333333,4,2,99,5,0,1
112068,-33.3333333333333,4,2,7,85,0,1
112175,-33.3333333333333,4,2,99,5,0,1
112282,-33.3333333333333,4,2,7,85,0,1
112603,-33.3333333333333,4,2,99,5,0,1
112710,-33.3333333333333,4,2,7,85,0,1
112817,-33.3333333333333,4,2,99,5,0,1
112925,-33.3333333333333,4,2,7,85,0,1
113246,-33.3333333333333,4,2,99,5,0,1
113353,-33.3333333333333,4,2,8,85,0,1
113460,-33.3333333333333,4,2,99,5,0,1
113568,-33.3333333333333,4,2,6,85,0,1
113675,-33.3333333333333,4,2,7,85,0,1
113888,-33.3333333333333,4,2,99,5,0,1
113996,-33.3333333333333,4,2,7,85,0,1
114103,-33.3333333333333,4,2,99,5,0,1
114210,-28.5714285714286,4,2,7,85,0,1
115603,-28.5714285714286,4,2,99,5,0,1
115710,-28.5714285714286,4,2,7,85,0,1
116031,-28.5714285714286,4,2,99,5,0,1
116139,-28.5714285714286,4,2,7,85,0,1
116246,-28.5714285714286,4,2,99,5,0,1
116353,-28.5714285714286,4,2,7,85,0,1
116674,-28.5714285714286,4,2,99,5,0,1
116782,-28.5714285714286,4,2,8,85,0,1
117103,-28.5714285714286,4,2,7,85,0,1
119032,-28.5714285714286,4,2,99,5,0,1
119139,-28.5714285714286,4,2,7,85,0,1
120103,-28.5714285714286,4,2,99,5,0,1
120210,-28.5714285714286,4,2,8,85,0,1
120531,-28.5714285714286,4,2,7,85,0,1
122460,-28.5714285714286,4,2,99,5,0,1
122568,-28.5714285714286,4,2,7,85,0,1
123531,-28.5714285714286,4,2,99,5,0,1
123639,-28.5714285714286,4,2,8,85,0,1
123960,-28.5714285714286,4,2,7,85,0,1
125889,-28.5714285714286,4,2,99,5,0,1
125996,-28.5714285714286,4,2,7,85,0,1
126531,-28.5714285714286,4,2,99,5,0,1
126639,-28.5714285714286,4,2,7,85,0,1
126960,-28.5714285714286,4,2,99,5,0,1
127068,-28.5714285714286,4,2,8,85,0,1
127175,-28.5714285714286,4,2,99,5,0,1
127282,-28.5714285714286,4,2,9,85,0,1
127496,-50,4,2,9,85,0,1
127710,-50,4,2,7,85,0,1
127925,-50,4,2,2,85,0,0

[Colours]
Combo1 : 117,49,162
Combo2 : 73,77,203
Combo3 : 136,216,247
Combo4 : 186,39,69

[HitObjects]
256,192,0,12,0,1132,2:0:0:0:
189,85,1509,5,14,2:0:0:0:
103,286,1889,1,8,2:0:0:0:
103,286,2269,1,8,2:0:0:0:
103,286,2649,1,8,2:0:0:0:
103,286,3028,1,8,2:0:0:0:
317,182,3408,5,10,2:0:0:0:
340,254,3598,1,0,2:0:0:0:
299,189,3788,1,10,2:0:0:0:
344,126,3978,1,0,2:0:0:0:
417,159,4168,5,10,2:0:0:0:
416,236,4358,1,0,2:0:0:0:
449,156,4547,1,10,2:0:0:0:
423,69,4737,1,0,2:0:0:0:
327,32,4927,5,10,2:0:0:0:
275,73,5117,1,0,2:0:0:0:
294,95,5307,1,10,2:0:0:0:
294,95,5687,1,8,2:0:0:0:
78,110,6066,6,0,L|84:85,1,20,10|0,2:0|2:0,2:0:0:0:
141,131,6256,2,0,L|117:141,1,20,2|0,2:0|2:0,2:0:0:0:
67,136,6446,2,0,L|74:155,1,20,10|0,2:0|2:0,2:0:0:0:
125,92,6636,2,0,L|145:82,1,20,2|0,2:0|2:0,2:0:0:0:
49,224,6826,5,8,2:0:0:0:
49,224,7206,1,8,2:0:0:0:
157,257,7396,6,0,L|120:252,3,25,0|0|0|0,2:0|2:0|2:0|2:0,2:0:0:0:
134,240,7585,1,10,2:0:0:0:
111,368,7965,5,8,2:0:0:0:
111,368,8345,1,8,2:0:0:0:
225,188,8725,1,8,2:0:0:0:
225,188,9104,6,0,L|312:173,1,80,8|8,2:0|2:0,2:0:0:0:
178,310,9864,6,0,L|91:295,1,80,8|8,2:0|2:0,2:0:0:0:
233,177,10623,6,0,L|320:162,1,80,8|8,2:0|2:0,2:0:0:0:
125,374,11383,5,10,2:0:0:0:
22,268,11573,1,10,2:0:0:0:
119,384,11763,2,0,P|105:341|115:304,1,75.0000028610231,2|0,2:0|2:0,2:0:0:0:
271,211,12142,6,0,P|211:234|208:170,1,150,2|0,2:0|2:0,2:0:0:0:
251,150,12712,1,0,2:0:0:0:
198,212,12902,1,2,2:0:0:0:
121,203,13092,1,0,2:0:0:0:
88,178,13281,6,0,L|77:11,1,150.000005722046,2|0,2:0|2:0,2:0:0:0:
69,207,14231,1,0,2:0:0:0:
160,327,14421,5,2,2:0:0:0:
46,228,14611,1,0,2:0:0:0:
54,312,14801,1,2,2:0:0:0:
195,242,14991,1,0,2:0:0:0:
81,160,15180,6,0,P|130:182|202:125,1,150.000005722046,2|0,2:0|2:0,2:0:0:0:
184,100,15750,1,0,2:0:0:0:
183,204,15940,1,2,2:0:0:0:
244,257,16130,1,0,2:0:0:0:
302,265,16319,6,0,L|458:243,1,150.000005722046,2|0,2:0|2:0,2:0:0:0:
270,230,17269,1,0,2:0:0:0:
318,366,17459,5,2,2:0:0:0:
355,239,17649,1,0,2:0:0:0:
227,185,17839,1,2,2:0:0:0:
243,292,18028,1,0,2:0:0:0:
314,129,18218,6,0,P|250:119|210:195,1,150.000005722046,2|0,2:0|2:0,2:0:0:0:
237,201,18788,1,0,2:0:0:0:
173,132,18978,1,2,2:0:0:0:
87,141,19168,1,0,2:0:0:0:
47,190,19358,6,0,L|38:354,1,150.000005722046,2|0,2:0|2:0,2:0:0:0:
88,168,20307,1,0,2:0:0:0:
183,320,20497,5,2,2:0:0:0:
233,191,20687,1,0,2:0:0:0:
257,298,20877,1,2,2:0:0:0:
153,232,21066,1,0,2:0:0:0:
57,278,21256,6,0,P|91:217|131:272,1,150.000005722046,2|0,2:0|2:0,2:0:0:0:
130,303,21826,1,0,2:0:0:0:
239,282,22016,2,0,P|196:268|165:273,1,75.0000028610231,2|0,2:0|2:0,2:0:0:0:
106,362,22396,6,0,P|84:247|53:178,1,179.999994506836,2|0,2:0|2:0,2:0:0:0:
148,384,23345,1,0,2:0:0:0:
287,348,23535,5,2,2:0:0:0:
189,279,23725,1,0,2:0:0:0:
326,273,23915,5,2,2:0:0:0:
212,356,24104,1,0,2:0:0:0:
369,355,24294,6,0,L|379:276,2,75.0000028610231,10|0|8,1:2|2:0|2:0,2:0:0:0:
450,207,24864,1,0,2:0:0:0:
306,236,25054,2,0,P|340:255|382:259,1,75.0000028610231,10|0,2:0|2:0,2:0:0:0:
265,144,25434,2,0,P|228:149|195:167,1,75.0000028610231,10|8,2:0|2:0,2:0:0:0:
165,274,25813,2,0,P|138:217|49:214,1,150.000005722046,8|0,1:2|2:0,2:0:0:0:
58,208,26383,5,0,2:0:0:0:
160,110,26573,2,0,P|163:173|219:143,1,150.000005722046,10|2,2:0|2:0,2:0:0:0:
219,143,27142,1,0,2:0:0:0:
312,74,27332,6,0,P|346:62|395:65,2,75.0000028610231,10|0|8,1:2|2:0|2:0,2:0:0:0:
287,168,27902,1,0,2:0:0:0:
379,219,28092,2,0,P|349:171|329:153,1,75.0000028610231,10|0,2:0|2:0,2:0:0:0:
445,299,28472,2,0,P|494:272|521:266,1,75.0000028610231,10|8,2:0|2:0,2:0:0:0:
349,337,28851,2,0,P|311:335|211:386,1,150.000005722046,8|0,1:2|2:0,2:0:0:0:
213,383,29421,5,0,2:0:0:0:
129,247,29611,2,0,B|142:205|142:205|155:313,1,150.000005722046,10|2,2:0|2:0,2:0:0:0:
148,326,30180,1,0,2:0:0:0:
18,337,30370,6,0,P|26:308|28:255,2,75.0000028610231,10|0|8,1:2|2:0|2:0,2:0:0:0:
97,227,30940,1,0,2:0:0:0:
35,157,31130,2,0,P|27:128|25:75,1,75.0000028610231,10|0,2:0|2:0,2:0:0:0:
84,0,31510,2,0,P|111:57|173:-2,1,150.000005722046,10|8,2:0|1:2,2:0:0:0:
177,5,32079,6,0,P|167:41|166:78,1,75.0000028610231,8|0,2:0|2:0,2:0:0:0:
227,160,32459,2,0,P|265:94|323:133,1,150.000005722046,8|0,2:0|2:0,2:0:0:0:
347,147,33028,2,0,P|339:118|337:65,1,75.0000028610231,10|0,2:0|2:0,2:0:0:0:
349,0,33408,6,0,P|319:85|336:166,1,150.000005722046,10|0,1:2|2:0,2:0:0:0:
336,155,33978,1,0,2:0:0:0:
219,111,34168,1,2,2:0:0:0:
141,149,34358,1,0,2:0:0:0:
115,196,34547,6,0,P|128:275|141:378,1,179.999994506836,2|0,2:0|2:0,2:0:0:0:
161,220,35497,1,0,2:0:0:0:
240,285,35687,5,10,2:0:0:0:
215,173,35877,1,0,2:0:0:0:
120,296,36066,1,10,2:0:0:0:
130,207,36256,1,0,2:0:0:0:
33,321,36446,6,0,P|57:258|-4:269,1,150.000005722046,10|0,1:2|2:0,2:0:0:0:
15,282,37016,1,0,2:0:0:0:
85,301,37206,1,2,2:0:0:0:
164,267,37396,1,0,2:0:0:0:
187,177,37585,6,0,P|152:74|289:108,1,300.000011444092,2|0,2:0|2:0,2:0:0:0:
314,237,38535,1,0,2:0:0:0:
397,164,38725,2,0,P|360:172|327:190,1,75.0000028610231,10|0,2:0|2:0,2:0:0:0:
201,68,39104,2,0,P|258:80|291:77,1,75.0000028610231,10|0,2:0|2:0,2:0:0:0:
117,142,39484,6,0,P|106:239|120:326,1,150.000005722046,10|0,1:2|2:0,2:0:0:0:
135,354,40054,1,0,2:0:0:0:
254,329,40244,2,0,P|210:317|159:325,1,75.0000028610231,2|0,2:0|2:0,2:0:0:0:
282,362,40623,6,0,P|347:333|222:264,1,300.000011444092,2|0,2:0|2:0,2:0:0:0:
220,280,41573,1,0,2:0:0:0:
317,272,41763,2,0,P|266:242|229:243,1,75.0000028610231,10|0,2:0|2:0,2:0:0:0:
361,353,42142,2,0,P|397:344|426:321,1,75.0000028610231,10|0,2:0|2:0,2:0:0:0:
512,185,42522,6,0,P|480:302|468:361,1,150.000005722046,10|0,1:2|2:0,2:0:0:0:
483,356,43092,1,0,2:0:0:0:
338,326,43282,2,0,P|382:305|427:305,1,75.0000028610231,2|0,2:0|2:0,2:0:0:0:
315,380,43661,6,0,P|327:257|218:314,1,300.000011444092,2|0,2:0|2:0,2:0:0:0:
247,341,44611,1,0,2:0:0:0:
370,323,44801,2,0,P|308:312|280:314,1,75.0000028610231,10|0,2:0|2:0,2:0:0:0:
153,367,45180,2,0,P|91:378|63:376,1,75.0000028610231,10|0,2:0|2:0,2:0:0:0:
176,253,45560,6,0,P|235:274|343:280,1,150.000005722046,10|0,1:2|2:0,2:0:0:0:
350,268,46130,1,0,2:0:0:0:
283,336,46320,1,10,2:0:0:0:
372,267,46510,1,0,2:0:0:0:
312,138,46699,6,0,P|373:260|472:175,1,300.000011444092,10|0,2:0|2:0,2:0:0:0:
465,132,47649,1,0,2:0:0:0:
385,185,47839,5,2,2:0:0:0:
350,93,48028,1,0,2:0:0:0:
259,173,48218,1,2,2:0:0:0:
279,59,48408,1,0,2:0:0:0:
165,94,48598,6,0,P|122:109|77:111,1,80,10|8,1:2|2:0,2:0:0:0:
259,173,48978,2,0,P|296:186|336:190,1,80,8|8,2:0|2:0,2:0:0:0:
146,208,49358,2,0,P|137:246|139:317,1,80,10|0,1:2|2:0,2:0:0:0:
200,377,49737,1,10,2:0:0:0:
200,377,49927,1,8,2:0:0:0:
375,270,50117,2,0,P|310:239|233:278,1,160,8|0,1:2|2:0,2:0:0:0:
235,274,50687,5,0,2:0:0:0:
356,125,50877,2,0,P|357:174|276:149,1,160,10|2,1:2|2:0,2:0:0:0:
276,129,51446,1,0,2:0:0:0:
332,25,51636,6,0,P|377:15|428:17,1,80,10|8,1:2|2:0,2:0:0:0:
225,109,52016,2,0,P|180:99|129:101,1,80,8|8,2:0|2:0,2:0:0:0:
352,247,52396,2,0,P|353:207|345:167,1,80,10|0,1:2|2:0,2:0:0:0:
284,55,52775,1,10,2:0:0:0:
284,55,52965,1,8,2:0:0:0:
139,171,53155,2,0,P|199:218|301:188,1,160,8|0,1:2|2:0,2:0:0:0:
277,207,53725,5,0,2:0:0:0:
185,320,53915,2,0,P|185:250|118:266,1,160,10|2,1:2|2:0,2:0:0:0:
117,266,54484,1,0,2:0:0:0:
52,374,54674,6,0,P|48:331|29:292,1,80,10|8,1:2|2:0,2:0:0:0:
199,286,55054,2,0,P|214:249|218:209,1,80,8|8,2:0|2:0,2:0:0:0:
316,366,55434,2,0,L|405:356,1,80,10|0,1:2|2:0,2:0:0:0:
483,259,55813,6,0,P|442:279|405:189,1,160,10|8,2:0|1:2,2:0:0:0:
427,169,56383,2,0,L|338:159,1,80,8|0,2:0|2:0,2:0:0:0:
238,172,56763,6,0,P|309:182|323:110,1,160,8|0,2:0|2:0,2:0:0:0:
294,80,57332,1,2,2:0:0:0:
294,80,57522,1,0,2:0:0:0:
413,211,57712,6,0,P|348:177|262:195,1,160,10|0,1:2|2:0,2:0:0:0:
287,226,58282,1,0,2:0:0:0:
359,73,58472,1,2,2:0:0:0:
265,123,58661,1,0,2:0:0:0:
202,58,58851,6,0,P|155:58|116:70,1,80,10|0,2:0|2:0,2:0:0:0:
33,155,59231,2,0,P|80:155|119:167,1,80,0|0,2:0|2:0,2:0:0:0:
215,234,59611,1,0,2:0:0:0:
126,305,59801,1,0,2:0:0:0:
228,209,59991,6,0,P|245:140|227:26,1,160,10|2,1:2|2:0,2:0:0:0:
318,176,60560,1,0,2:0:0:0:
507,74,60750,6,0,B|478:88|461:118|461:118|422:90|374:81|331:95,1,200,10|0,1:2|2:0,2:0:0:0:
277,252,61320,1,0,2:0:0:0:
244,144,61510,1,2,1:2:0:0:
266,282,61699,1,0,2:0:0:0:
223,118,61889,5,2,2:0:0:0:
164,185,62079,2,0,P|178:140|182:57,1,100,0|0,2:0|1:0,2:0:0:0:
298,294,62459,2,0,P|283:246|278:196,2,100,0|0|0,2:0|2:0|2:0,2:0:0:0:
160,344,63028,6,0,P|96:307|47:303,1,100,10|0,1:2|2:0,2:0:0:0:
265,270,63408,2,0,P|301:205|342:177,1,100,2|0,2:0|2:0,2:0:0:0:
158,211,63788,6,0,P|129:92|82:16,1,200,10|0,1:2|2:0,2:0:0:0:
200,71,64358,1,0,2:0:0:0:
287,10,64547,2,0,P|232:45|176:46,1,100,2|0,1:2|2:0,2:0:0:0:
46,12,64927,5,2,2:0:0:0:
145,93,65117,2,0,P|118:43|82:12,1,100,0|0,2:0|1:0,2:0:0:0:
248,161,65497,2,0,P|284:123|328:101,2,100,0|0|0,2:0|2:0|2:0,2:0:0:0:
133,209,66066,6,0,P|68:177|17:176,1,100,10|0,1:2|2:0,2:0:0:0:
244,128,66446,2,0,P|267:78|302:43,1,100,2|0,2:0|2:0,2:0:0:0:
126,83,66826,6,0,P|180:88|328:146,1,200,10|0,1:2|2:0,2:0:0:0:
371,269,67396,1,0,2:0:0:0:
245,307,67585,2,0,P|299:273|357:251,1,100,2|0,1:2|2:0,2:0:0:0:
492,294,67965,5,2,2:0:0:0:
467,383,68155,2,0,P|452:306|457:262,1,100,0|0,2:0|1:0,2:0:0:0:
499,179,68534,2,0,P|514:102|509:58,2,100,0|0|0,2:0|2:0|2:0,2:0:0:0:
317,167,69104,6,0,P|321:120|339:63,1,100,10|0,1:2|2:0,2:0:0:0:
198,202,69483,2,0,P|171:163|126:122,1,100,2|0,2:0|2:0,2:0:0:0:
288,278,69863,6,0,P|330:257|496:247,1,200,10|0,1:2|2:0,2:0:0:0:
361,195,70447,1,0,2:0:0:0:
386,89,70642,1,2,1:2:0:0:
375,225,70837,1,0,2:0:0:0:
269,300,71031,5,2,2:0:0:0:
173,234,71226,2,0,P|221:244|262:272,1,100,0|0,2:0|1:0,2:0:0:0:
90,128,71622,2,0,P|48:155|0:166,2,100,0|0|0,2:0|2:0|2:0,2:0:0:0:
250,0,72222,5,2,2:0:0:0:
320,123,72538,5,0,2:0:0:0:
360,189,72855,5,2,2:0:0:0:
435,96,73068,6,0,L|504:106,1,50,2|0,2:0|2:0,2:0:0:0:
415,123,73282,2,0,L|476:132,1,50,0|0,2:0|2:0,2:0:0:0:
343,10,73496,6,0,L|282:19,1,50,2|0,2:0|2:0,2:0:0:0:
327,33,73710,2,0,L|266:42,1,50,0|0,2:0|2:0,2:0:0:0:
174,133,73925,6,0,L|161:61,1,50,2|0,2:0|2:0,2:0:0:0:
306,162,74139,6,0,L|297:211,1,50,0|0,2:0|2:0,2:0:0:0:
329,177,74353,2,0,L|320:226,1,50,0|0,2:0|2:0,2:0:0:0:
188,270,74568,6,0,L|196:319,1,50,2|0,2:0|2:0,2:0:0:0:
165,285,74782,2,0,L|173:334,1,50,0|0,2:0|2:0,2:0:0:0:
48,170,74996,6,0,L|39:219,1,50,2|0,2:0|2:0,2:0:0:0:
71,185,75210,2,0,L|62:234,1,50,0|0,2:0|2:0,2:0:0:0:
186,131,75425,6,0,L|179:65,1,50,0|0,2:0|2:0,2:0:0:0:
309,204,75639,6,0,L|314:154,1,50,2|0,2:0|2:0,2:0:0:0:
289,216,75853,2,0,L|294:166,1,50,0|0,2:0|2:0,2:0:0:0:
446,273,76068,6,0,L|451:322,1,50,2|0,2:0|2:0,2:0:0:0:
426,261,76282,2,0,L|431:310,1,50,0|0,2:0|2:0,2:0:0:0:
486,146,76496,6,0,L|497:77,1,50,2|0,2:0|2:0,2:0:0:0:
505,140,76710,2,0,L|516:71,1,50,0|0,2:0|2:0,2:0:0:0:
376,35,76925,6,0,L|425:27,1,50,2|0,2:0|2:0,2:0:0:0:
367,101,77139,2,0,L|317:93,1,50,0|0,2:0|2:0,2:0:0:0:
230,34,77353,2,0,L|240:116,1,50,2|0,2:0|2:0,2:0:0:0:
187,156,77568,6,0,P|141:127|93:121,1,100,0|0,2:0|2:0,2:0:0:0:
17,168,77996,1,2,2:0:0:0:
41,93,78210,1,0,2:0:0:0:
149,233,78425,1,2,2:0:0:0:
137,149,78639,1,0,2:0:0:0:
240,297,78853,2,0,L|249:230,1,50,0|0,2:0|2:0,2:0:0:0:
260,173,79068,5,2,2:0:0:0:
281,54,79389,5,0,2:0:0:0:
291,2,79710,5,0,2:0:0:0:
403,132,79925,5,2,2:0:0:0:
393,50,80139,1,0,2:0:0:0:
313,169,80353,1,2,2:0:0:0:
297,92,80568,1,0,2:0:0:0:
245,228,80782,1,2,2:0:0:0:
205,159,80996,1,0,2:0:0:0:
331,294,81210,6,0,L|270:304,1,50,0|0,2:0|2:0,2:0:0:0:
239,309,81425,1,2,2:0:0:0:
148,222,81639,2,0,L|141:271,1,50,0|0,2:0|2:0,2:0:0:0:
135,304,81853,1,2,2:0:0:0:
64,148,82068,2,0,L|71:213,1,50,0|0,2:0|2:0,2:0:0:0:
70,230,82282,1,2,2:0:0:0:
142,99,82496,6,0,L|202:108,1,50,2|0,2:0|2:0,2:0:0:0:
290,133,82710,2,0,L|233:144,1,50,0|0,2:0|2:0,2:0:0:0:
216,186,82925,2,0,L|232:264,1,50,2|0,2:0|2:0,2:0:0:0:
202,281,83139,2,0,L|206:224,1,50,0|0,2:0|2:0,2:0:0:0:
143,202,83353,2,0,L|155:333,1,100,2|0,2:0|2:0,2:0:0:0:
250,384,83782,5,2,2:0:0:0:
281,270,83996,1,0,2:0:0:0:
163,181,84210,1,2,2:0:0:0:
168,217,84425,1,0,2:0:0:0:
254,121,84639,1,2,2:0:0:0:
284,316,84853,5,2,2:0:0:0:
416,239,85068,1,0,2:0:0:0:
406,197,85282,1,2,2:0:0:0:
359,353,85496,1,0,2:0:0:0:
289,171,85710,1,0,2:0:0:0:
197,261,85925,6,0,P|261:224|292:187,1,100,0|0,1:0|2:0,2:0:0:0:
307,36,86568,1,2,2:0:0:0:
435,281,86782,6,0,P|389:162|152:176,1,375.000014305115,2|0,3:2|2:0,2:0:0:0:
146,200,87425,2,0,P|120:164|75:142,1,75.0000028610231,0|0,2:0|2:0,2:0:0:0:
67,384,87639,6,0,P|166:322|284:287,1,225.000008583069,2|0,1:2|2:0,2:0:0:0:
338,322,88068,1,2,2:0:0:0:
341,70,88282,2,0,B|393:34|393:34|359:114|351:192,1,225.000008583069,0|0,3:0|2:0,2:0:0:0:
315,190,88710,2,0,P|279:170|222:161,1,75.0000028610231,0|0,2:0|2:0,2:0:0:0:
261,344,88925,2,0,P|336:315|410:310,1,150.000005722046,0|0,3:0|2:0,2:0:0:0:
396,41,89353,6,0,P|320:236|201:192,1,375.000014305115,10|0,1:2|2:0,2:0:0:0:
169,175,89996,2,0,P|187:237|189:292,1,75.0000028610231,0|0,2:0|2:0,2:0:0:0:
245,63,90210,6,0,B|307:99|411:104|493:65|493:65|458:34|402:27|365:42,1,375.000014305115,2|0,3:2|2:0,2:0:0:0:
274,119,90853,2,0,P|262:163|257:218,1,75.0000028610231,0|0,2:0|2:0,2:0:0:0:
422,372,91068,6,0,P|374:256|166:354,1,375.000014305115,2|0,1:2|2:0,2:0:0:0:
265,203,91710,6,0,P|178:146|165:252,1,225.000008583069,0|0,3:0|2:0,2:0:0:0:
214,104,92139,1,0,2:0:0:0:
452,146,92353,2,0,P|365:203|352:97,1,225.000008583069,0|0,3:0|2:0,2:0:0:0:
432,213,92782,6,0,L|449:324,1,75.0000028610231,10|0,1:2|2:0,2:0:0:0:
349,116,92996,2,0,L|360:41,1,75.0000028610231,0|0,2:0|2:0,2:0:0:0:
285,248,93210,2,0,L|296:322,1,75.0000028610231,2|0,2:0|2:0,2:0:0:0:
187,127,93425,2,0,L|198:52,1,75.0000028610231,0|0,2:0|2:0,2:0:0:0:
86,312,93639,6,0,B|119:218|92:117|32:85|32:85|8:133|18:186|58:225,1,375.000014305115,2|0,3:2|2:0,2:0:0:0:
146,132,94282,2,0,P|224:135|259:148,1,75.0000028610231,0|0,2:0|2:0,2:0:0:0:
397,312,94496,6,0,P|302:300|325:80,1,375.000014305115,2|0,1:2|2:0,2:0:0:0:
353,72,95139,6,0,P|272:73|115:16,1,225.000008583069,0|0,3:0|2:0,2:0:0:0:
129,5,95568,2,0,P|145:55|151:91,1,75.0000028610231,0|0,2:0|2:0,2:0:0:0:
82,231,95782,6,0,P|97:149|221:170,1,225.000008583069,0|0,3:0|2:0,2:0:0:0:
405,195,96210,2,0,P|305:220|271:124,1,225.000008583069,10|0,1:2|2:0,2:0:0:0:
326,22,96639,2,0,P|291:118|192:92,1,225.000008583069,2|0,2:0|2:0,2:0:0:0:
185,14,97068,6,0,B|218:108|191:209|131:241|131:241|107:193|117:140|157:101,1,375.000014305115,2|0,3:2|2:0,2:0:0:0:
245,89,97710,2,0,P|312:84|349:87,1,75.0000028610231,0|0,2:0|2:0,2:0:0:0:
493,187,97925,6,0,P|365:255|394:293,1,225.000008583069,2|0,1:2|2:0,2:0:0:0:
399,283,98353,2,0,P|381:242|383:200,1,75.0000028610231,2|0,2:0|2:0,2:0:0:0:
468,104,98568,6,0,P|359:178|306:47,1,300.000011444092,0|0,3:0|2:0,2:0:0:0:
143,287,99210,2,0,P|158:209|293:191,1,225.000008583069,0|0,3:0|2:0,2:0:0:0:
299,209,99639,6,0,P|263:166|254:131,1,75.0000028610231,10|0,1:2|2:0,2:0:0:0:
282,15,99853,2,0,P|246:84|302:234,1,225.000008583069,8|0,2:0|2:0,2:0:0:0:
321,231,100282,2,0,P|268:232|226:246,1,75.0000028610231,0|0,2:0|2:0,2:0:0:0:
163,333,100496,6,0,P|78:304|59:305,1,75.0000028610231,10|0,3:2|2:0,2:0:0:0:
288,269,100710,2,0,P|347:201|364:192,1,75.0000028610231,0|0,2:0|2:0,2:0:0:0:
163,187,100925,2,0,P|103:119|86:110,1,75.0000028610231,8|0,2:0|2:0,2:0:0:0:
304,116,101139,2,0,P|321:27|331:11,1,75.0000028610231,0|0,2:0|2:0,2:0:0:0:
136,17,101353,6,0,P|79:76|181:110,1,225.000008583069,10|0,1:2|2:0,2:0:0:0:
170,89,101782,2,0,P|136:117|103:172,1,75.0000028610231,10|0,2:0|2:0,2:0:0:0:
151,296,101996,2,0,P|143:252|112:196,1,75.0000028610231,8|0,3:2|2:0,2:0:0:0:
0,177,102210,2,0,P|87:219|94:124,1,225.000008583069,8|0,2:0|2:0,2:0:0:0:
71,107,102639,6,0,P|82:197|134:331,1,225.000008583069,0|0,3:0|2:0,2:0:0:0:
134,54,103068,2,0,P|194:79|199:7,1,150.000005722046,10|0,1:2|2:0,2:0:0:0:
266,137,103496,2,0,P|372:87|499:110,1,225.000008583069,2|0,2:0|2:0,2:0:0:0:
497,115,103925,6,0,P|469:198|469:217,1,75.0000028610231,10|0,3:2|2:0,2:0:0:0:
299,200,104139,2,0,P|364:258|373:275,1,75.0000028610231,0|0,2:0|2:0,2:0:0:0:
503,300,104353,2,0,P|416:318|400:327,1,75.0000028610231,8|0,2:0|2:0,2:0:0:0:
321,374,104568,2,0,P|234:355|218:346,1,75.0000028610231,0|0,2:0|2:0,2:0:0:0:
163,197,104782,6,0,P|250:165|231:262,1,225.000008583069,10|0,1:2|2:0,2:0:0:0:
226,132,105210,2,0,P|236:76|250:35,1,75.0000028610231,10|0,2:0|2:0,2:0:0:0:
104,182,105425,2,0,P|94:126|80:85,1,75.0000028610231,8|0,3:2|2:0,2:0:0:0:
215,261,105639,2,0,P|317:244|450:272,1,225.000008583069,8|0,2:0|2:0,2:0:0:0:
447,275,106068,6,0,P|373:201|248:202,1,225.000008583069,0|0,3:0|2:0,2:0:0:0:
385,345,106496,2,0,P|325:320|320:392,1,150.000005722046,10|0,1:2|2:0,2:0:0:0:
57,224,106925,2,0,P|126:250|222:144,1,225.000008583069,2|0,2:0|2:0,2:0:0:0:
204,129,107353,6,0,P|210:174|227:222,1,75.0000028610231,10|0,3:2|2:0,2:0:0:0:
102,68,107568,2,0,P|74:103|35:137,1,75.0000028610231,0|0,2:0|2:0,2:0:0:0:
212,12,107782,2,0,P|259:53|360:53,1,150.000005722046,8|0,2:0|2:0,2:0:0:0:
204,189,108210,6,0,P|207:111|330:116,1,225.000008583069,10|0,1:2|2:0,2:0:0:0:
317,142,108639,2,0,P|305:106|305:28,1,75.0000028610231,10|0,2:0|2:0,2:0:0:0:
454,11,108853,1,0,3:0:0:0:
411,150,109068,6,0,L|427:0,1,150.000005722046,8|8,2:0|2:0,2:0:0:0:
512,248,109496,2,0,P|507:198|499:155,1,75.0000028610231,0|0,3:0|2:0,2:0:0:0:
413,37,109710,2,0,P|348:18|329:83,1,150.000005722046,8|10,2:0|1:2,2:0:0:0:
355,102,110139,6,0,P|363:59|359:2,1,75.0000028610231,0|0,2:0|2:0,2:0:0:0:
271,140,110353,2,0,P|189:110|41:123,1,225.000008583069,10|0,2:0|2:0,2:0:0:0:
30,247,110782,6,0,B|82:188|92:53|49:-3|49:-3|12:24|-7:68|2:126,1,375.000014305115,10|0,3:2|2:0,2:0:0:0:
99,162,111425,2,0,P|155:180|190:178,1,75.0000028610231,0|0,2:0|2:0,2:0:0:0:
329,46,111639,6,0,P|223:118|292:194,1,225.000008583069,2|0,1:2|2:0,2:0:0:0:
297,183,112068,2,0,P|206:200|186:211,1,75.0000028610231,2|0,2:0|2:0,2:0:0:0:
149,302,112282,2,0,L|112:43,1,225.000008583069,0|0,3:0|2:0,2:0:0:0:
96,71,112710,2,0,L|110:159,1,75.0000028610231,0|0,2:0|2:0,2:0:0:0:
134,314,112925,2,0,P|230:267|374:276,1,225.000008583069,0|0,3:0|2:0,2:0:0:0:
374,302,113353,6,0,L|385:377,1,75.0000028610231,10|0,1:2|2:0,2:0:0:0:
303,172,113568,2,0,L|320:61,1,75.0000028610231,8|8,2:0|2:0,2:0:0:0:
213,310,113781,2,0,L|224:384,1,75.0000028610231,2|0,2:0|2:0,2:0:0:0:
150,134,113996,2,0,L|161:59,1,75.0000028610231,8|0,2:0|2:0,2:0:0:0:
65,320,114210,6,0,P|46:234|206:288,2,350.00000333786,2|0|2,3:2|2:0|1:2,2:0:0:0:
112,154,115282,1,0,2:0:0:0:
199,292,115496,6,0,P|212:247|257:188,1,87.500000834465,2|0,2:0|2:0,2:0:0:0:
447,153,115710,2,0,P|332:171|329:56,1,262.500002503395,0|0,3:0|2:0,2:0:0:0:
342,66,116139,2,0,P|275:76|230:59,1,87.500000834465,0|0,2:0|2:0,2:0:0:0:
61,5,116353,2,0,P|146:3|85:127,1,262.500002503395,0|0,3:0|2:0,2:0:0:0:
86,126,116782,6,0,B|246:93|188:211|356:180,2,262.500002503395,10|8|8,1:2|2:0|2:0,2:0:0:0:
91,304,117639,6,0,P|157:180|-15:207,2,350.00000333786,2|0|2,3:2|2:0|1:2,2:0:0:0:
193,235,118710,1,0,2:0:0:0:
388,348,118925,2,0,P|374:293|373:248,1,87.500000834465,2|0,2:0|2:0,2:0:0:0:
460,191,119139,6,0,P|305:186|354:48,1,350.00000333786,0|0,3:0|2:0,2:0:0:0:
413,265,119782,2,0,P|366:155|278:236,1,262.500002503395,0|0,3:0|2:0,2:0:0:0:
285,245,120210,6,0,B|318:85|200:143|231:-25,2,262.500002503395,10|8|8,1:2|2:0|2:0,2:0:0:0:
95,302,121068,6,0,P|167:206|230:368,2,350.00000333786,2|0|2,3:2|2:0|1:2,2:0:0:0:
201,179,122139,1,0,2:0:0:0:
58,35,122353,2,0,P|116:32|151:17,1,87.500000834465,2|0,2:0|2:0,2:0:0:0:
331,70,122568,6,0,P|190:8|158:157,1,350.00000333786,0|0,3:0|2:0,2:0:0:0:
325,171,123210,2,0,P|217:210|284:314,1,262.500002503395,0|0,3:0|2:0,2:0:0:0:
308,298,123639,6,0,B|148:265|206:383|38:352,2,262.500002503395,10|8|8,1:2|2:0|2:0,2:0:0:0:
423,383,124496,6,0,P|352:296|516:285,2,350.00000333786,2|0|2,3:2|2:0|1:2,2:0:0:0:
330,249,125568,1,0,2:0:0:0:
128,301,125782,2,0,P|166:252|177:218,1,87.500000834465,2|0,2:0|2:0,2:0:0:0:
110,101,125996,6,0,P|275:189|255:22,1,437.500004172325,0|0,3:0|2:0,2:0:0:0:
208,113,126639,2,0,P|344:107|328:6,1,262.500002503395,0|0,3:0|2:0,2:0:0:0:
317,0,127068,2,0,P|298:50|300:87,1,87.500000834465,10|0,1:2|2:0,2:0:0:0:
387,211,127282,1,8,2:0:0:0:
387,211,127496,6,0,P|338:204|280:206,1,100,2|8,2:0|2:0,2:0:0:0:
115,273,127925,5,4,2:0:0:0:
