osu file format v14

[General]
AudioFilename: audio.mp3
AudioLeadIn: 0
PreviewTime: 85496
Countdown: 0
SampleSet: Soft
StackLeniency: 0.8
Mode: 0
LetterboxInBreaks: 0
WidescreenStoryboard: 1

[Editor]
DistanceSpacing: 1
BeatDivisor: 4
GridSize: 8
TimelineZoom: 1.4

[Metadata]
Title:MARBLE TEA
TitleUnicode:MARBLE TEA
Artist:Shawn Wasabi
ArtistUnicode:Shawn Wasabi
Creator:jasontime12345
Version:Xahlt's Normal
Source:
Tags:Raychel Jay pop electronic english xahlt yuhdj dora- doraemonelf launchpad midi fighter Justin Tranter
BeatmapID:2210457
BeatmapSetID:1056394

[Difficulty]
HPDrainRate:4
CircleSize:3.3
OverallDifficulty:4
ApproachRate:5
SliderMultiplier:2.2
SliderTickRate:2

[Events]
//Background and Video events
0,0,"b.jpg",0,0
//Break Periods
//Storyboard Layer 0 (Background)
//Storyboard Layer 1 (Fail)
//Storyboard Layer 2 (Pass)
//Storyboard Layer 3 (Foreground)
//Storyboard Layer 4 (Overlay)
//Storyboard Sound Samples

[TimingPoints]
0,754.716981132075,4,2,1,50,1,0
1510,759.493670886076,4,2,1,50,1,0
11383,-100,4,2,2,60,0,0
12142,759.493670886076,4,2,1,35,1,0
12142,-125,4,2,1,35,0,0
14421,-125,4,2,3,35,0,0
14801,-125,4,2,1,35,0,0
17459,-125,4,2,3,35,0,0
17839,-125,4,2,1,35,0,0
20497,-125,4,2,3,35,0,0
20877,-125,4,2,1,35,0,0
23535,-125,4,2,3,35,0,0
23915,-125,4,2,4,35,0,0
24294,-111.111111111111,4,2,4,45,0,0
26573,-111.111111111111,4,2,3,45,0,0
26953,-111.111111111111,4,2,4,45,0,0
29611,-111.111111111111,4,2,3,45,0,0
29991,-111.111111111111,4,2,4,45,0,0
36446,-111.111111111111,4,2,4,50,0,0
50877,-111.111111111111,4,2,3,50,0,0
51256,-111.111111111111,4,2,4,50,0,0
53915,-111.111111111111,4,2,3,50,0,0
54294,-111.111111111111,4,2,4,50,0,0
60750,-111.111111111111,4,2,4,55,0,0
69863,779.220779220779,4,2,4,50,1,0
71422,800,4,2,4,50,1,0
72221,-100,4,2,4,65,0,0
72222,845.070422535211,4,2,4,65,1,0
73067,-100,4,2,4,50,0,0
73068,857.142857142857,4,2,4,50,1,0
85925,-125,4,2,7,75,0,0
86782,-90.9090909090909,4,2,7,85,0,1
89353,-90.9090909090909,4,2,5,85,0,1
90210,-90.9090909090909,4,2,7,85,0,1
92782,-90.9090909090909,4,2,5,85,0,1
93639,-90.9090909090909,4,2,7,85,0,1
96210,-90.9090909090909,4,2,5,85,0,1
97068,-90.9090909090909,4,2,7,85,0,1
99639,-90.9090909090909,4,2,5,85,0,1
99853,-90.9090909090909,4,2,6,85,0,1
100496,-90.9090909090909,4,2,7,85,0,1
103068,-90.9090909090909,4,2,5,85,0,1
103925,-90.9090909090909,4,2,7,85,0,1
106496,-90.9090909090909,4,2,5,85,0,1
107353,-90.9090909090909,4,2,7,85,0,1
113353,-90.9090909090909,4,2,8,85,0,1
113567,-90.9090909090909,4,2,6,85,0,1
113996,-90.9090909090909,4,2,7,85,0,1
116782,-90.9090909090909,4,2,8,85,0,1
117424,-90.9090909090909,4,2,7,85,0,1
120210,-90.9090909090909,4,2,8,85,0,1
120853,-90.9090909090909,4,2,7,85,0,1
123639,-90.9090909090909,4,2,8,85,0,1
124282,-90.9090909090909,4,2,7,85,0,1
127068,-90.9090909090909,4,2,8,85,0,1
127282,-90.9090909090909,4,2,9,85,0,1
127710,-90.9090909090909,4,2,7,85,0,1
127925,-90.9090909090909,4,2,2,85,0,0

[Colours]
Combo1 : 117,49,162
Combo2 : 73,77,203
Combo3 : 136,216,247
Combo4 : 186,39,69

[HitObjects]
459,86,1510,6,0,P|402:67|338:76,1,110,14|8,2:0|2:0,2:0:0:0:
299,140,2269,2,0,P|239:143|179:118,1,110,8|8,2:0|2:0,2:0:0:0:
119,77,3028,1,8,2:0:0:0:
51,133,3408,2,0,L|57:208,1,55,10|0,2:0|2:0,2:0:0:0:
83,221,3788,2,0,L|77:296,1,55,10|0,2:0|2:0,2:0:0:0:
101,313,4168,6,0,B|157:323|157:323|227:297,1,110,10|10,2:0|2:0,2:0:0:0:
266,239,4927,2,0,B|322:229|322:229|392:255,1,110,10|10,2:0|2:0,2:0:0:0:
457,225,5687,1,8,2:0:0:0:
402,143,6066,2,0,L|334:132,2,55,10|2|10,2:0|2:0|2:0,2:0:0:0:
432,59,6826,2,0,L|291:36,1,110,8|8,2:0|2:0,2:0:0:0:
236,28,7585,6,0,P|101:154|191:229,1,330,10|8,2:0|2:0,2:0:0:0:
211,243,8915,1,0,2:0:0:0:
211,243,9104,2,0,L|209:360,1,110,8|8,2:0|2:0,2:0:0:0:
295,333,9864,2,0,L|297:216,1,110,8|8,2:0|2:0,2:0:0:0:
362,164,10623,2,0,L|435:158,2,55,8|0|8,2:0|2:0|2:0,2:0:0:0:
369,76,11383,6,0,L|308:67,1,55,10|10,2:0|2:0,2:0:0:0:
271,59,11763,1,2,2:0:0:0:
196,105,12142,6,0,L|196:288,1,176,2|2,2:0|2:0,2:0:0:0:
196,369,13281,1,2,2:0:0:0:
37,236,14421,1,2,2:0:0:0:
89,165,14801,1,2,2:0:0:0:
83,77,15180,6,0,B|186:61|151:114|263:92,1,176,2|2,2:0|2:0,2:0:0:0:
339,69,16319,1,2,2:0:0:0:
350,332,17459,1,2,2:0:0:0:
431,364,17839,1,2,2:0:0:0:
498,310,18217,6,0,P|510:251|461:145,1,176,2|2,2:0|2:0,2:0:0:0:
394,95,19357,1,2,2:0:0:0:
140,21,20497,1,2,2:0:0:0:
98,98,20877,1,2,2:0:0:0:
145,172,21256,6,0,P|216:194|280:105,1,176,2|2,2:0|2:0,2:0:0:0:
283,39,22395,1,2,2:0:0:0:
277,303,23535,1,2,2:0:0:0:
357,339,23915,1,2,2:0:0:0:
414,258,24294,6,0,L|518:244,2,98.9999969787599,10|8|10,1:2|2:0|2:0,2:0:0:0:
329,206,25434,1,10,2:0:0:0:
359,112,25813,2,0,P|277:120|212:77,1,148.49999546814,8|0,1:2|2:0,2:0:0:0:
185,53,26573,1,10,2:0:0:0:
115,123,26953,1,2,2:0:0:0:
177,199,27332,6,0,P|168:240|171:328,2,98.9999969787599,10|8|10,1:2|2:0|2:0,2:0:0:0:
238,120,28472,1,10,2:0:0:0:
299,197,28851,2,0,P|369:216|439:174,1,148.49999546814,8|0,1:2|2:0,2:0:0:0:
473,154,29611,1,10,2:0:0:0:
435,62,29991,1,2,2:0:0:0:
336,64,30370,6,0,L|345:146,2,49.4999984893799,10|0|8,1:2|2:0|2:0,2:0:0:0:
290,42,30940,1,0,2:0:0:0:
290,42,31129,2,0,P|245:45|183:79,1,98.9999969787599,10|10,2:0|2:0,2:0:0:0:
130,141,31889,2,0,P|136:167|138:193,2,49.4999984893799,8|8|0,1:2|2:0|2:0,2:0:0:0:
82,124,32459,2,0,P|73:71|95:16,1,98.9999969787599,8|0,2:0|2:0,2:0:0:0:
131,8,33028,1,10,2:0:0:0:
213,62,33408,6,0,B|200:147|238:133|226:213,1,148.49999546814,10|0,1:2|2:0,2:0:0:0:
204,252,34168,1,2,2:0:0:0:
207,351,34547,2,0,P|96:369|73:243,1,247.4999924469,2|0,2:0|2:0,2:0:0:0:
82,213,35687,1,10,2:0:0:0:
47,121,36066,2,0,L|41:72,1,49.4999984893799,10|0,2:0|2:0,2:0:0:0:
82,44,36446,6,0,P|146:17|222:37,1,148.49999546814,10|0,1:2|2:0,2:0:0:0:
232,88,37206,1,2,2:0:0:0:
267,180,37585,2,0,P|314:222|380:95,1,247.4999924469,2|0,2:0|2:0,2:0:0:0:
365,66,38725,1,10,2:0:0:0:
450,17,39104,2,0,L|463:80,1,49.4999984893799,10|0,2:0|2:0,2:0:0:0:
494,101,39484,6,0,L|485:270,1,148.49999546814,10|0,1:2|2:0,2:0:0:0:
480,298,40244,1,2,2:0:0:0:
385,327,40623,2,0,P|260:359|190:277,1,247.4999924469,2|0,2:0|2:0,2:0:0:0:
181,230,41763,1,10,2:0:0:0:
251,158,42142,2,0,P|256:189|273:217,1,49.4999984893799,10|0,2:0|2:0,2:0:0:0:
312,216,42522,6,0,P|332:151|285:64,1,148.49999546814,10|0,1:2|2:0,2:0:0:0:
256,59,43282,1,2,2:0:0:0:
161,29,43661,2,0,P|27:105|24:232,1,247.4999924469,2|0,2:0|2:0,2:0:0:0:
27,234,44801,1,10,2:0:0:0:
99,300,45180,2,0,L|160:308,1,49.4999984893799,10|0,2:0|2:0,2:0:0:0:
195,333,45560,6,0,L|356:314,1,148.49999546814,10|0,1:2|2:0,2:0:0:0:
389,300,46320,1,10,2:0:0:0:
446,219,46699,2,0,P|455:159|311:71,1,247.4999924469,10|0,2:0|2:0,2:0:0:0:
272,90,47839,1,2,2:0:0:0:
188,143,48218,1,2,2:0:0:0:
101,92,48598,6,0,P|40:82|-8:51,2,98.9999969787599,10|8|10,1:2|2:0|1:2,2:0:0:0:
188,143,49737,1,10,2:0:0:0:
124,219,50117,2,0,L|130:387,1,148.49999546814,8|0,1:2|2:0,2:0:0:0:
178,376,50877,1,10,1:2:0:0:
257,317,51256,1,2,2:0:0:0:
352,344,51636,6,0,P|347:293|363:231,2,98.9999969787599,10|8|10,1:2|2:0|1:2,2:0:0:0:
448,364,52775,1,10,2:0:0:0:
496,277,53155,2,0,P|501:226|465:109,1,148.49999546814,8|0,1:2|2:0,2:0:0:0:
454,88,53915,1,10,1:2:0:0:
359,59,54294,1,2,2:0:0:0:
284,123,54674,6,0,L|288:181,2,49.4999984893799,10|8|8,1:2|2:0|2:0,2:0:0:0:
251,85,55244,1,8,2:0:0:0:
251,85,55434,2,0,P|199:73|145:84,1,98.9999969787599,10|10,1:2|2:0,2:0:0:0:
57,61,56193,2,0,L|60:9,2,49.4999984893799,8|8|0,1:2|2:0|2:0,2:0:0:0:
25,99,56763,2,0,L|30:215,1,98.9999969787599,8|0,2:0|2:0,2:0:0:0:
32,247,57332,1,2,2:0:0:0:
109,309,57712,6,0,P|178:280|251:324,1,148.49999546814,10|0,1:2|2:0,2:0:0:0:
264,353,58472,1,2,2:0:0:0:
361,336,58851,2,0,P|404:299|316:166,1,247.4999924469,10|0,2:0|2:0,2:0:0:0:
274,165,59991,1,10,1:2:0:0:
191,219,60370,2,0,L|134:202,1,49.4999984893799,2|0,2:0|2:0,2:0:0:0:
101,178,60750,6,0,P|68:122|127:53,1,148.49999546814,10|0,1:2|2:0,2:0:0:0:
158,63,61510,1,2,1:2:0:0:
244,110,61889,1,2,2:0:0:0:
244,110,62079,2,0,L|364:104,2,98.9999969787599,0|0|0,2:0|2:0|2:0,2:0:0:0:
204,139,63028,1,10,1:2:0:0:
261,219,63408,2,0,P|267:246|265:274,1,49.4999984893799,2|0,2:0|2:0,2:0:0:0:
229,301,63788,6,0,P|262:370|359:364,1,148.49999546814,10|0,1:2|2:0,2:0:0:0:
374,367,64547,1,2,1:2:0:0:
411,275,64927,1,2,2:0:0:0:
411,275,65117,2,0,P|462:262|515:275,2,98.9999969787599,0|0|0,2:0|2:0|2:0,2:0:0:0:
368,301,66066,1,10,1:2:0:0:
300,228,66446,2,0,L|240:228,1,49.4999984893799,2|0,2:0|2:0,2:0:0:0:
207,261,66826,6,0,L|58:261,1,148.49999546814,10|0,1:2|2:0,2:0:0:0:
20,229,67585,1,2,1:2:0:0:
90,158,67965,1,2,2:0:0:0:
90,158,68155,2,0,P|79:108|100:34,2,98.9999969787599,0|0|0,2:0|2:0|2:0,2:0:0:0:
123,194,69104,1,10,1:2:0:0:
198,130,69484,2,0,P|229:135|260:127,1,49.4999984893799,2|0,2:0|2:0,2:0:0:0:
294,121,69863,6,0,L|281:307,1,165,10|0,1:2|2:0,2:0:0:0:
278,329,70642,1,2,1:2:0:0:
256,192,71031,12,2,72221,2:0:0:0:
388,45,73067,5,2,2:0:0:0:
462,126,73496,1,2,2:0:0:0:
413,224,73925,2,0,L|420:283,2,55,2|0|0,2:0|2:0|2:0,2:0:0:0:
363,200,74568,2,0,L|299:193,1,55,2|0,2:0|2:0,2:0:0:0:
253,191,74996,1,2,2:0:0:0:
164,256,75425,1,0,2:0:0:0:
164,256,75639,1,2,2:0:0:0:
71,196,76068,1,2,2:0:0:0:
111,94,76496,6,0,B|163:112|163:112|219:96,1,110,2|2,2:0|2:0,2:0:0:0:
304,162,77353,2,0,L|300:237,2,55,2|0|0,2:0|2:0|2:0,2:0:0:0:
349,130,77996,2,0,L|337:72,1,55,2|0,2:0|2:0,2:0:0:0:
297,38,78425,2,0,L|416:36,1,110,2|0,2:0|2:0,2:0:0:0:
453,66,79068,1,2,2:0:0:0:
414,168,79496,1,2,2:0:0:0:
468,263,79925,6,0,P|414:286|347:249,1,110,2|2,2:0|2:0,2:0:0:0:
283,199,80782,1,2,2:0:0:0:
360,120,81210,2,0,P|414:97|481:134,2,110,0|0|0,2:0|2:0|2:0,2:0:0:0:
313,149,82282,1,2,2:0:0:0:
313,149,82496,2,0,P|275:110|270:56,2,110,2|2|2,2:0|2:0|2:0,2:0:0:0:
247,237,83782,6,0,P|199:210|146:220,1,110,2|2,2:0|2:0,2:0:0:0:
114,263,84425,2,0,L|120:317,2,55,0|2|2,2:0|2:0|2:0,2:0:0:0:
51,172,85282,1,2,2:0:0:0:
117,84,85710,1,0,2:0:0:0:
117,84,85925,6,0,B|151:83|180:101|180:101|214:80|256:86,1,132,0|2,1:0|2:0,2:0:0:0:
286,84,86782,6,0,B|274:161|295:227|295:227|329:195,1,181.500005538941,2|0,3:2|2:0,2:0:0:0:
372,167,87639,1,2,1:2:0:0:
484,212,88068,1,2,2:0:0:0:
484,212,88282,2,0,B|493:124|436:135|465:21,1,181.500005538941,0|0,3:0|3:0,2:0:0:0:
341,22,89353,1,10,1:2:0:0:
243,93,89782,1,2,2:0:0:0:
138,31,90210,6,0,P|67:7|41:108,1,181.500005538941,2|0,3:2|2:0,2:0:0:0:
49,146,91068,1,2,1:2:0:0:
129,236,91496,1,2,2:0:0:0:
129,236,91710,2,0,L|311:222,1,181.500005538941,0|0,3:0|3:0,2:0:0:0:
431,213,92782,1,10,1:2:0:0:
481,322,93210,1,2,2:0:0:0:
372,376,93639,6,0,L|187:366,1,181.500005538941,2|0,3:2|2:0,2:0:0:0:
130,358,94496,1,2,1:2:0:0:
46,270,94925,1,2,2:0:0:0:
46,270,95139,2,0,P|14:195|70:85,1,181.500005538941,0|0,3:0|3:0,2:0:0:0:
143,32,96210,1,10,1:2:0:0:
245,97,96639,1,2,2:0:0:0:
271,215,97068,6,0,B|331:205|360:228|360:228|388:205|457:219,1,181.500005538941,2|0,3:2|2:0,2:0:0:0:
506,217,97925,1,2,1:2:0:0:
442,114,98353,1,2,2:0:0:0:
442,114,98568,2,0,P|360:87|266:125,1,181.500005538941,0|0,3:0|3:0,2:0:0:0:
238,234,99639,2,0,L|238:310,1,60.5000018463135,10|8,1:2|2:0,2:0:0:0:
238,355,100068,1,2,2:0:0:0:
121,322,100496,6,0,L|60:325,2,60.5000018463135,10|0|8,3:2|2:0|2:0,2:0:0:0:
166,282,101139,1,0,2:0:0:0:
166,282,101353,1,10,1:2:0:0:
286,266,101782,2,0,P|282:236|264:196,1,60.5000018463135,10|8,2:0|3:2,2:0:0:0:
221,172,102210,2,0,P|217:117|245:27,1,121.000003692627,8|0,2:0|3:0,2:0:0:0:
347,14,103068,1,10,1:2:0:0:
440,91,103496,1,2,2:0:0:0:
370,190,103925,6,0,L|384:276,2,60.5000018463135,10|0|8,3:2|2:0|2:0,2:0:0:0:
360,129,104568,1,0,2:0:0:0:
360,129,104782,1,10,1:2:0:0:
281,220,105210,2,0,L|291:284,1,60.5000018463135,10|8,2:0|3:2,2:0:0:0:
298,339,105639,2,0,P|235:334|186:296,1,121.000003692627,8|0,2:0|3:0,2:0:0:0:
118,202,106496,1,10,1:2:0:0:
130,81,106925,1,2,2:0:0:0:
249,62,107353,6,0,L|242:-10,2,60.5000018463135,10|0|8,3:2|2:0|2:0,2:0:0:0:
255,122,107996,1,0,2:0:0:0:
255,122,108210,1,10,1:2:0:0:
362,177,108639,1,10,2:0:0:0:
453,97,109068,1,8,2:0:0:0:
453,97,109282,2,0,L|458:206,1,60.5000018463135,8|0,2:0|3:0,2:0:0:0:
458,217,109710,1,8,2:0:0:0:
377,307,110139,1,0,2:0:0:0:
377,307,110353,1,10,2:0:0:0:
255,302,110782,6,0,B|165:297|184:378|51:336,1,181.500005538941,10|0,3:2|2:0,2:0:0:0:
36,309,111639,1,2,1:2:0:0:
129,231,112068,1,2,2:0:0:0:
129,231,112282,2,0,P|174:166|49:93,1,242.000007385254,0|0,3:0|2:0,2:0:0:0:
23,43,113353,2,0,L|82:35,1,60.5000018463135,10|8,1:2|2:0,2:0:0:0:
134,3,113782,2,0,L|196:16,1,60.5000018463135,2|8,2:0|2:0,2:0:0:0:
239,53,114210,6,0,B|295:43|328:65|328:65|360:42|419:49,1,181.500005538941,2|0,3:2|2:0,2:0:0:0:
474,56,115068,1,2,1:2:0:0:
500,173,115496,1,2,2:0:0:0:
500,173,115710,2,0,P|480:260|353:236,1,242.000007385254,0|0,3:0|2:0,2:0:0:0:
330,182,116782,1,10,1:2:0:0:
234,253,117210,2,0,P|227:288|234:318,1,60.5000018463135,2|8,2:0|2:0,2:0:0:0:
255,367,117639,6,0,L|62:359,1,181.500005538941,2|0,3:2|2:0,2:0:0:0:
13,350,118496,1,2,1:2:0:0:
99,264,118925,1,2,2:0:0:0:
99,264,119139,2,0,B|125:136|39:179|84:25,1,242.000007385254,0|0,3:0|2:0,2:0:0:0:
140,12,120210,1,10,1:2:0:0:
230,92,120639,2,0,P|267:97|301:86,1,60.5000018463135,2|8,2:0|2:0,2:0:0:0:
344,66,121068,6,0,P|412:62|439:174,1,181.500005538941,2|0,3:2|2:0,2:0:0:0:
429,213,121925,1,2,1:2:0:0:
507,304,122353,1,2,2:0:0:0:
507,304,122568,2,0,P|450:377|327:322,1,242.000007385254,0|0,3:0|2:0,2:0:0:0:
301,273,123639,1,10,1:2:0:0:
346,160,124068,2,0,P|345:126|335:94,1,60.5000018463135,2|8,2:0|2:0,2:0:0:0:
286,68,124496,6,0,B|181:57|229:124|86:96,1,181.500005538941,2|0,3:2|2:0,2:0:0:0:
52,89,125353,1,2,1:2:0:0:
118,190,125782,1,2,2:0:0:0:
118,190,125996,2,0,B|176:176|234:212|234:212|280:176|363:189,1,242.000007385254,0|0,3:0|2:0,2:0:0:0:
409,182,127068,2,0,P|401:215|405:245,1,60.5000018463135,10|8,1:2|2:0,2:0:0:0:
454,273,127496,2,0,P|461:306|457:336,1,60.5000018463135,2|8,2:0|2:0,2:0:0:0:
414,364,127925,5,4,2:0:0:0:
