osu file format v14

[General]
AudioFilename: audio.mp3
AudioLeadIn: 0
PreviewTime: 24876
Countdown: 0
SampleSet: Soft
StackLeniency: 0.7
Mode: 3
LetterboxInBreaks: 0
SpecialStyle: 0
WidescreenStoryboard: 1

[Editor]
Bookmarks: 876,6876,12876,24876,33688,48876,72876,84876,96876
DistanceSpacing: 0.8
BeatDivisor: 4
GridSize: 8
TimelineZoom: 1.3

[Metadata]
Title:Burnt Rice
TitleUnicode:Burnt Rice
Artist:Shawn Wasabi
ArtistUnicode:Shawn Wasabi
Creator:Proxian
Version:Hard (WIP)
Source:
Tags:Electronic English
BeatmapID:1269530
BeatmapSetID:600862

[Difficulty]
HPDrainRate:9
CircleSize:4
OverallDifficulty:5
ApproachRate:5
SliderMultiplier:1.4
SliderTickRate:1

[Events]
//Background and Video events
0,0,"unnamed1.png",0,0
//Break Periods
//Storyboard Layer 0 (Background)
//Storyboard Layer 1 (Fail)
//Storyboard Layer 2 (Pass)
//Storyboard Layer 3 (Foreground)
//Storyboard Sound Samples

[TimingPoints]
876,375,4,2,0,100,1,0

[HitObjects]
448,192,6876,128,0,7251:0:0:0:0:
320,192,7251,1,0,0:0:0:0:
64,192,7251,1,0,0:0:0:0:
64,192,7438,1,0,0:0:0:0:
192,192,7438,1,0,0:0:0:0:
448,192,7626,128,0,8001:0:0:0:0:
64,192,8001,1,0,0:0:0:0:
192,192,8001,1,0,0:0:0:0:
192,192,8376,1,0,0:0:0:0:
320,192,8563,1,0,0:0:0:0:
448,192,8563,1,0,0:0:0:0:
192,192,8657,1,0,0:0:0:0:
64,192,8751,1,0,0:0:0:0:
320,192,8938,1,0,0:0:0:0:
192,192,9126,1,0,0:0:0:0:
448,192,9126,1,0,0:0:0:0:
320,192,9313,1,0,0:0:0:0:
64,192,9501,1,0,0:0:0:0:
320,192,9501,1,0,0:0:0:0:
64,192,9688,128,0,9876:0:0:0:0:
448,192,9782,1,0,0:0:0:0:
320,192,9876,128,0,10251:0:0:0:0:
192,192,10251,1,0,0:0:0:0:
64,192,10251,1,0,0:0:0:0:
320,192,10438,1,0,0:0:0:0:
448,192,10626,128,0,11001:0:0:0:0:
64,192,10813,1,0,0:0:0:0:
192,192,10813,1,0,0:0:0:0:
320,192,11001,1,0,0:0:0:0:
192,192,11001,1,0,0:0:0:0:
448,192,11188,1,0,0:0:0:0:
192,192,11376,1,0,0:0:0:0:
64,192,11376,1,0,0:0:0:0:
320,192,11563,1,0,0:0:0:0:
448,192,11563,1,0,0:0:0:0:
64,192,11751,1,0,0:0:0:0:
192,192,11938,1,0,0:0:0:0:
64,192,12126,128,0,12501:0:0:0:0:
192,192,12501,1,0,0:0:0:0:
320,192,12501,1,0,0:0:0:0:
448,192,12688,1,0,0:0:0:0:
192,192,12688,1,0,0:0:0:0:
64,192,12876,1,0,0:0:0:0:
192,192,12876,1,0,0:0:0:0:
320,192,13063,1,0,0:0:0:0:
448,192,13063,1,0,0:0:0:0:
64,192,13251,128,0,13626:0:0:0:0:
320,192,13251,128,0,13626:0:0:0:0:
192,192,13626,1,0,0:0:0:0:
448,192,13626,1,0,0:0:0:0:
192,192,13813,1,0,0:0:0:0:
320,192,14001,1,0,0:0:0:0:
64,192,14188,128,0,14376:0:0:0:0:
192,192,14376,1,0,0:0:0:0:
448,192,14376,1,0,0:0:0:0:
320,192,14563,128,0,14751:0:0:0:0:
192,192,14751,1,0,0:0:0:0:
448,192,14751,1,0,0:0:0:0:
64,192,14938,128,0,15126:0:0:0:0:
192,192,15126,1,0,0:0:0:0:
448,192,15126,1,0,0:0:0:0:
64,192,15313,1,0,0:0:0:0:
320,192,15501,1,0,0:0:0:0:
448,192,15501,1,0,0:0:0:0:
64,192,15688,1,0,0:0:0:0:
192,192,15782,1,0,0:0:0:0:
448,192,15876,128,0,16063:0:0:0:0:
320,192,16063,1,0,0:0:0:0:
64,192,16251,1,0,0:0:0:0:
320,192,16438,1,0,0:0:0:0:
448,192,16532,1,0,0:0:0:0:
192,192,16626,128,0,16813:0:0:0:0:
320,192,16813,1,0,0:0:0:0:
448,192,17001,1,0,0:0:0:0:
192,192,17188,1,0,0:0:0:0:
320,192,17282,1,0,0:0:0:0:
64,192,17376,128,0,17751:0:0:0:0:
448,192,17563,1,0,0:0:0:0:
192,192,17657,1,0,0:0:0:0:
320,192,17751,1,0,0:0:0:0:
448,192,17938,128,0,18313:0:0:0:0:
64,192,17938,1,0,0:0:0:0:
320,192,18032,1,0,0:0:0:0:
64,192,18126,1,0,0:0:0:0:
320,192,18313,1,0,0:0:0:0:
64,192,18501,128,0,18876:0:0:0:0:
192,192,18501,1,0,0:0:0:0:
192,192,18688,1,0,0:0:0:0:
448,192,18688,1,0,0:0:0:0:
192,192,18876,1,0,0:0:0:0:
320,192,18876,1,0,0:0:0:0:
64,192,19063,1,0,0:0:0:0:
192,192,19251,128,0,19626:0:0:0:0:
320,192,19438,1,0,0:0:0:0:
448,192,19626,1,0,0:0:0:0:
320,192,19626,1,0,0:0:0:0:
64,192,19813,1,0,0:0:0:0:
320,192,20001,1,0,0:0:0:0:
64,192,20188,128,0,20376:0:0:0:0:
320,192,20188,1,0,0:0:0:0:
192,192,20376,1,0,0:0:0:0:
448,192,20376,1,0,0:0:0:0:
448,192,20563,128,0,20751:0:0:0:0:
320,192,20751,1,0,0:0:0:0:
64,192,20938,128,0,21501:0:0:0:0:
320,192,20938,1,0,0:0:0:0:
448,192,21126,1,0,0:0:0:0:
320,192,21313,1,0,0:0:0:0:
192,192,21501,1,0,0:0:0:0:
320,192,21688,1,0,0:0:0:0:
448,192,21688,1,0,0:0:0:0:
192,192,21782,1,0,0:0:0:0:
448,192,21876,128,0,22251:0:0:0:0:
320,192,22063,1,0,0:0:0:0:
192,192,22251,1,0,0:0:0:0:
64,192,22251,1,0,0:0:0:0:
320,192,22438,1,0,0:0:0:0:
192,192,22532,1,0,0:0:0:0:
64,192,22626,128,0,23001:0:0:0:0:
192,192,22813,1,0,0:0:0:0:
320,192,23001,1,0,0:0:0:0:
448,192,23001,1,0,0:0:0:0:
192,192,23188,1,0,0:0:0:0:
64,192,23282,1,0,0:0:0:0:
320,192,23376,1,0,0:0:0:0:
448,192,23376,1,0,0:0:0:0:
64,192,23563,1,0,0:0:0:0:
320,192,23751,1,0,0:0:0:0:
192,192,23751,1,0,0:0:0:0:
448,192,23938,1,0,0:0:0:0:
448,192,24126,1,0,0:0:0:0:
320,192,24219,1,0,0:0:0:0:
192,192,24313,1,0,0:0:0:0:
64,192,24407,1,0,0:0:0:0:
448,192,24501,1,0,0:0:0:0:
320,192,24594,1,0,0:0:0:0:
192,192,24688,1,0,0:0:0:0:
64,192,24782,1,0,0:0:0:0:
320,192,24876,128,0,25251:0:0:0:0:
448,192,24876,128,0,25251:0:0:0:0:
64,192,25063,1,0,0:0:0:0:
192,192,25251,128,0,25626:0:0:0:0:
64,192,25251,128,0,25626:0:0:0:0:
448,192,25438,1,0,0:0:0:0:
448,192,25626,128,0,26001:0:0:0:0:
320,192,25626,128,0,26001:0:0:0:0:
64,192,25813,1,0,0:0:0:0:
192,192,26001,128,0,26188:0:0:0:0:
320,192,26188,128,0,26376:0:0:0:0:
448,192,26376,128,0,26751:0:0:0:0:
64,192,26376,128,0,26751:0:0:0:0:
192,192,26563,1,0,0:0:0:0:
320,192,26751,128,0,27126:0:0:0:0:
192,192,26751,128,0,27126:0:0:0:0:
448,192,26938,1,0,0:0:0:0:
64,192,27126,128,0,27407:0:0:0:0:
320,192,27407,128,0,27688:0:0:0:0:
448,192,27688,128,0,27876:0:0:0:0:
64,192,27876,128,0,28251:0:0:0:0:
320,192,27876,128,0,28251:0:0:0:0:
192,192,28063,1,0,0:0:0:0:
192,192,28251,128,0,28626:0:0:0:0:
448,192,28251,128,0,28626:0:0:0:0:
64,192,28438,1,0,0:0:0:0:
320,192,28626,128,0,29001:0:0:0:0:
64,192,28626,128,0,29001:0:0:0:0:
448,192,28813,1,0,0:0:0:0:
192,192,29001,128,0,29188:0:0:0:0:
64,192,29188,128,0,29376:0:0:0:0:
192,192,29376,128,0,29751:0:0:0:0:
448,192,29376,128,0,29751:0:0:0:0:
64,192,29563,1,0,0:0:0:0:
320,192,29751,128,0,30126:0:0:0:0:
64,192,29751,128,0,30126:0:0:0:0:
448,192,29938,1,0,0:0:0:0:
192,192,30219,128,0,30407:0:0:0:0:
320,192,30407,128,0,30688:0:0:0:0:
448,192,30688,128,0,30876:0:0:0:0:
192,192,30876,128,0,31251:0:0:0:0:
64,192,30876,128,0,31251:0:0:0:0:
448,192,31063,1,0,0:0:0:0:
320,192,31251,128,0,31626:0:0:0:0:
448,192,31251,128,0,31626:0:0:0:0:
192,192,31438,1,0,0:0:0:0:
192,192,31626,128,0,32001:0:0:0:0:
64,192,31626,128,0,32001:0:0:0:0:
320,192,31813,1,0,0:0:0:0:
320,192,32001,128,0,32188:0:0:0:0:
192,192,32188,128,0,32376:0:0:0:0:
64,192,32376,128,0,32751:0:0:0:0:
448,192,32376,128,0,32751:0:0:0:0:
320,192,32563,1,0,0:0:0:0:
320,192,32751,128,0,33126:0:0:0:0:
192,192,32751,128,0,33126:0:0:0:0:
448,192,32938,1,0,0:0:0:0:
64,192,33126,128,0,33501:0:0:0:0:
448,192,33126,128,0,33501:0:0:0:0:
192,192,33313,1,0,0:0:0:0:
320,192,33501,1,0,0:0:0:0:
192,192,33501,1,0,0:0:0:0:
64,192,33688,1,0,0:0:0:0:
448,192,33876,1,0,0:0:0:0:
192,192,33876,1,0,0:0:0:0:
192,192,34063,1,0,0:0:0:0:
64,192,34251,1,0,0:0:0:0:
320,192,34251,1,0,0:0:0:0:
64,192,34438,1,0,0:0:0:0:
448,192,34626,1,0,0:0:0:0:
192,192,34626,1,0,0:0:0:0:
320,192,34813,1,0,0:0:0:0:
64,192,35001,1,0,0:0:0:0:
192,192,35001,1,0,0:0:0:0:
448,192,35188,1,0,0:0:0:0:
448,192,35376,1,0,0:0:0:0:
320,192,35469,1,0,0:0:0:0:
192,192,35563,1,0,0:0:0:0:
64,192,35657,1,0,0:0:0:0:
448,192,35751,1,0,0:0:0:0:
320,192,35844,1,0,0:0:0:0:
192,192,35938,1,0,0:0:0:0:
64,192,36032,1,0,0:0:0:0:
320,192,36126,1,0,0:0:0:0:
192,192,36219,1,0,0:0:0:0:
448,192,36313,1,0,0:0:0:0:
320,192,36407,1,0,0:0:0:0:
64,192,36501,1,0,0:0:0:0:
192,192,36594,1,0,0:0:0:0:
320,192,36688,1,0,0:0:0:0:
448,192,36782,1,0,0:0:0:0:
64,192,36876,1,0,0:0:0:0:
192,192,36876,1,0,0:0:0:0:
448,192,37063,1,0,0:0:0:0:
320,192,37157,1,0,0:0:0:0:
192,192,37157,1,0,0:0:0:0:
64,192,37438,128,0,37626:0:0:0:0:
192,192,37438,1,0,0:0:0:0:
320,192,37438,1,0,0:0:0:0:
320,192,37626,1,0,0:0:0:0:
448,192,37626,1,0,0:0:0:0:
192,192,37813,1,0,0:0:0:0:
320,192,37813,1,0,0:0:0:0:
64,192,38001,1,0,0:0:0:0:
320,192,38001,1,0,0:0:0:0:
320,192,38188,1,0,0:0:0:0:
192,192,38188,1,0,0:0:0:0:
448,192,38282,1,0,0:0:0:0:
64,192,38376,1,0,0:0:0:0:
192,192,38376,1,0,0:0:0:0:
320,192,38376,1,0,0:0:0:0:
64,192,38563,1,0,0:0:0:0:
448,192,38657,1,0,0:0:0:0:
192,192,38657,1,0,0:0:0:0:
192,192,38938,1,0,0:0:0:0:
448,192,39126,1,0,0:0:0:0:
192,192,39126,128,0,39501:0:0:0:0:
64,192,39126,1,0,0:0:0:0:
448,192,39313,1,0,0:0:0:0:
448,192,39501,1,0,0:0:0:0:
320,192,39501,1,0,0:0:0:0:
448,192,39688,1,0,0:0:0:0:
192,192,39688,1,0,0:0:0:0:
320,192,39782,1,0,0:0:0:0:
192,192,39876,1,0,0:0:0:0:
448,192,39876,1,0,0:0:0:0:
64,192,39876,1,0,0:0:0:0:
192,192,40063,1,0,0:0:0:0:
448,192,40157,1,0,0:0:0:0:
320,192,40157,1,0,0:0:0:0:
