osu file format v14

[General]
AudioFilename: audio.mp3
AudioLeadIn: 0
PreviewTime: -1
Countdown: 1
SampleSet: Normal
StackLeniency: 1
Mode: 0
LetterboxInBreaks: 0
WidescreenStoryboard: 1

[Editor]
DistanceSpacing: 0.8
BeatDivisor: 4
GridSize: 8
TimelineZoom: 1

[Metadata]
Title:Burnt Rice
TitleUnicode:Burnt Rice
Artist:Shawn Wasabi
ArtistUnicode:Shawn Wasabi
Creator:Kotoburd76
Version:Easy
Source:Shawn Wasabi
Tags:idk if this is dupstep or drumstep
BeatmapID:1077746
BeatmapSetID:506662

[Difficulty]
HPDrainRate:2
CircleSize:3
OverallDifficulty:3
ApproachRate:4
SliderMultiplier:1.6
SliderTickRate:3

[Events]
//Background and Video events
0,0,"easyBG.jpg",0,0
//Break Periods
2,61230,68710
//Storyboard Layer 0 (Background)
//Storyboard Layer 1 (Fail)
//Storyboard Layer 2 (Pass)
//Storyboard Layer 3 (Foreground)
//Storyboard Sound Samples

[TimingPoints]
1030,375,4,1,0,65,1,0
12937,-100,4,1,0,65,0,0
13037,-100,4,1,0,45,0,0
38062,-100,4,1,0,45,0,1
60937,-100,4,1,0,45,0,0
89624,-100,4,1,0,65,0,0
90937,-100,4,1,0,45,0,0
92812,-100,4,1,0,45,0,0
93187,-100,4,1,0,45,0,0
96562,-100,4,1,0,5,0,0
96937,-100,4,1,0,45,0,0

[Colours]
Combo1 : 255,128,64
Combo2 : 255,0,128
Combo3 : 0,255,172
Combo4 : 242,255,0
Combo5 : 255,128,191
Combo6 : 119,255,238
Combo7 : 94,174,255
Combo8 : 128,64,64

[HitObjects]
80,80,1030,5,0,0:0:0:0:
176,80,1405,2,0,B|288:64|288:64|360:80,1,160
440,112,2155,1,0,0:0:0:0:
440,208,2530,1,0,0:0:0:0:
368,280,2905,2,0,P|312:296|216:272,2,160
368,168,4030,5,0,0:0:0:0:
272,160,4405,2,0,B|192:144|192:144|112:152,1,160
24,168,5155,1,0,0:0:0:0:
32,272,5530,2,0,P|64:312|104:320,2,80
120,216,6280,2,0,B|168:208|224:264|296:248,1,160
392,216,7030,5,0,0:0:0:0:
448,120,7405,1,0,0:0:0:0:
376,48,7780,2,0,P|312:0|248:64,1,160
208,112,8530,1,0,0:0:0:0:
136,64,8905,1,0,0:0:0:0:
56,64,9280,1,0,0:0:0:0:
40,152,9655,2,0,P|24:208|64:304,1,160
192,352,10405,6,0,P|232:352|296:336,1,80
296,336,10780,2,0,P|360:288|368:208,1,160
336,112,11530,2,0,P|336:64|344:24,2,80
208,120,12280,1,0,0:0:0:0:
96,72,12655,1,0,0:0:0:0:
72,176,13030,6,0,B|56:240|112:272|80:336,1,160
192,336,13780,1,0,0:0:0:0:
272,312,14155,1,0,0:0:0:0:
336,256,14530,1,0,0:0:0:0:
376,184,14905,1,0,0:0:0:0:
384,104,15280,2,0,P|376:40|360:8,2,80
376,184,16030,6,0,P|312:168|264:80,1,160
256,40,16780,2,0,L|88:40,1,160
96,72,17530,2,0,L|96:160,1,80
96,184,17905,2,0,L|96:264,1,80
96,296,18280,1,0,0:0:0:0:
192,296,18655,1,0,0:0:0:0:
272,352,19030,6,0,P|352:320|440:320,1,160
432,240,19780,1,0,0:0:0:0:
464,168,20155,2,0,P|488:88|464:0,1,160
352,16,20905,1,0,0:0:0:0:
264,32,21280,1,0,0:0:0:0:
200,88,21655,1,0,0:0:0:0:
256,192,22030,12,0,24655,0:0:0:0:
88,48,25780,5,0,0:0:0:0:
24,128,26155,2,0,P|32:176|144:232,1,160
216,224,26905,1,0,0:0:0:0:
296,168,27280,1,0,0:0:0:0:
328,80,27655,1,0,0:0:0:0:
432,48,28030,6,0,L|432:144,1,80
432,168,28405,1,0,0:0:0:0:
336,208,28780,6,0,L|336:312,1,80
336,328,29155,1,0,0:0:0:0:
200,328,29530,6,0,P|96:320|48:248,1,160
32,200,30280,1,0,0:0:0:0:
48,120,30655,1,0,0:0:0:0:
96,56,31030,6,0,B|216:40|216:40|280:64,1,160
336,96,31780,1,0,0:0:0:0:
424,120,32155,2,0,P|464:176|440:272,1,160
384,344,32905,1,0,0:0:0:0:
272,360,33280,1,0,0:0:0:0:
176,320,33655,1,0,0:0:0:0:
256,192,34030,12,0,35530,0:0:0:0:
56,64,37030,5,0,0:0:0:0:
152,64,37311,2,0,L|280:64,1,120
376,80,37780,1,0,0:0:0:0:
432,168,38155,6,0,P|400:232|312:272,1,160
256,192,38905,2,0,P|192:160|160:168,1,80
64,192,39467,2,0,P|32:264|40:288,1,80
104,344,40030,6,0,L|280:344,1,160
344,344,40780,2,0,P|440:304|448:240,1,160
440,192,41530,1,0,0:0:0:0:
400,120,41905,1,0,0:0:0:0:
336,64,42280,1,0,0:0:0:0:
256,40,42655,1,0,0:0:0:0:
160,40,43030,6,0,P|80:48|24:56,2,120
280,40,44155,6,0,P|360:72|376:144,1,160
368,224,44905,1,0,0:0:0:0:
352,304,45280,2,0,P|288:352|184:336,1,160
72,328,46030,6,0,P|40:264|48:160,1,160
56,136,46592,1,0,0:0:0:0:
104,64,47155,2,0,P|224:32|288:32,1,160
336,40,47811,2,0,P|416:64|448:88,1,120
448,224,48655,1,0,0:0:0:0:
368,312,49030,5,0,0:0:0:0:
336,320,49311,2,0,P|280:320|192:304,1,120
56,304,50155,2,0,B|96:240|16:200|72:128,1,160
104,72,50905,1,0,0:0:0:0:
176,24,51280,2,0,P|248:16|336:24,1,160
432,104,52030,6,0,P|456:168|456:232,1,120
448,264,52592,1,0,0:0:0:0:
360,192,52967,2,0,L|272:208,1,80
216,336,53530,2,0,P|160:272|144:216,1,120
144,200,54092,1,0,0:0:0:0:
152,80,54467,2,0,P|200:56|232:64,3,80
304,96,55311,2,0,L|424:152,1,120
472,232,55967,6,0,P|440:288|400:312,1,80
344,344,56530,2,0,P|232:360|152:336,1,160
88,320,57280,2,0,P|32:208|40:144,1,160
48,80,58030,1,0,0:0:0:0:
120,168,58405,1,0,0:0:0:0:
192,80,58780,1,0,0:0:0:0:
256,168,59155,1,0,0:0:0:0:
256,192,59530,12,0,61030,0:0:0:0:
112,64,70030,6,0,B|96:128|160:176|120:312,1,240
40,248,70780,6,0,P|88:168|232:120,1,240
216,200,71530,6,0,P|352:144|384:56,1,240
296,40,72280,6,0,P|320:208|352:288,1,240
416,328,73030,5,0,0:0:0:0:
328,352,73405,2,0,P|200:368|136:360,1,160
64,304,74155,2,0,P|48:224|64:128,1,160
96,72,74905,1,0,0:0:0:0:
168,40,75280,1,0,0:0:0:0:
248,48,75655,1,0,0:0:0:0:
328,56,76030,6,0,P|392:72|424:96,2,80
240,128,76780,2,0,P|232:168|208:208,2,80
248,48,77530,2,0,P|176:40|72:64,1,160
40,136,78280,2,0,P|32:232|56:296,1,160
120,344,79030,6,0,P|208:328|280:280,1,160
336,240,79780,1,0,0:0:0:0:
384,168,80155,1,0,0:0:0:0:
400,80,80530,2,0,P|360:32|240:32,1,160
168,72,81280,2,0,P|176:152|216:192,1,120
288,248,81842,1,0,0:0:0:0:
256,192,82030,12,0,83530,0:0:0:0:
72,296,85030,6,0,P|56:224|80:128,1,160
120,56,85592,2,0,P|184:32|224:40,1,80
208,168,86155,2,0,P|224:256|264:320,1,160
352,344,86905,2,0,P|456:288|472:232,1,160
464,152,87655,1,0,0:0:0:0:
448,64,88030,2,0,P|384:8|304:40,1,160
256,112,88780,1,0,0:0:0:0:
312,160,89155,2,0,P|336:232|280:288,1,160
200,304,89905,1,0,0:0:0:0:
120,280,90280,1,0,0:0:0:0:
72,216,90655,1,0,0:0:0:0:
40,144,91030,1,0,0:0:0:0:
