osu file format v14

[General]
AudioFilename: audio.mp3
AudioLeadIn: 0
PreviewTime: -1
Countdown: 1
SampleSet: Normal
StackLeniency: 0.7
Mode: 0
LetterboxInBreaks: 0
WidescreenStoryboard: 0

[Editor]
DistanceSpacing: 1
BeatDivisor: 3
GridSize: 4
TimelineZoom: 1

[Metadata]
Title:Burnt Rice
TitleUnicode:Burnt Rice
Artist:Shawn Wasabi
ArtistUnicode:Shawn Wasabi
Creator:ILostMyAc
Version:Insane
Source:
Tags:
BeatmapID:1745556
BeatmapSetID:833321

[Difficulty]
HPDrainRate:7
CircleSize:5
OverallDifficulty:9
ApproachRate:9
SliderMultiplier:1.4
SliderTickRate:1

[Events]
//Background and Video events
0,0,"shawn.jpg",0,0
//Break Periods
2,79116,83402
2,109980,114105
//Storyboard Layer 0 (Background)
//Storyboard Layer 1 (Fail)
//Storyboard Layer 2 (Pass)
//Storyboard Layer 3 (Foreground)
//Storyboard Sound Samples

[TimingPoints]
1621.23134328358,298.507462686567,4,1,0,100,1,0

[HitObjects]
112,112,1138,6,0,P|296:126|296:173,1,280
297,162,2249,2,0,P|188:246|143:172,1,210
157,219,3175,2,0,P|271:114|350:195,1,280
344,175,4286,2,0,P|274:275|210:253,1,140
272,275,5027,1,0,0:0:0:0:
272,275,5953,2,0,P|164:168|287:136,1,280
298,126,6879,1,0,0:0:0:0:
303,39,7249,1,0,0:0:0:0:
372,40,7620,1,0,0:0:0:0:
365,137,7805,2,0,P|269:213|181:194,1,210
189,199,8731,1,0,0:0:0:0:
181,268,8916,1,0,0:0:0:0:
250,277,9101,1,0,0:0:0:0:
267,209,9286,2,0,P|344:138|410:235,1,210
411,193,10212,2,0,P|252:306|265:164,1,420
108,113,12805,1,0,0:0:0:0:
176,126,12990,2,0,P|319:174|300:228,1,210
318,189,13916,2,0,P|188:269|165:193,1,280
163,202,14842,2,0,B|265:108|267:108|403:164,1,210
345,141,15583,2,0,B|473:51|473:51|474:214,1,280
439,310,16694,1,0,0:0:0:0:
376,278,17064,1,0,0:0:0:0:
407,215,17434,1,0,0:0:0:0:
483,240,17805,2,0,P|410:71|238:129,1,350
191,284,19286,2,0,B|182:50|182:50|301:275|301:275|339:42,1,700
335,66,21508,1,0,0:0:0:0:
335,66,21694,1,0,0:0:0:0:
335,66,21879,2,0,P|355:229|339:69,1,630
168,154,23916,2,0,L|98:154,1,70
378,160,24471,2,0,L|277:158,1,70
167,152,25027,2,0,L|73:160,1,70
376,156,25583,2,0,L|270:159,1,70
155,214,26138,2,0,L|236:143,1,70
258,216,26508,2,0,L|204:161,1,70
160,216,26879,2,0,L|211:160,1,70
255,214,27249,2,0,L|206:151,1,70
212,158,27805,1,0,0:0:0:0:
215,88,28175,1,0,0:0:0:0:
284,88,28545,1,0,0:0:0:0:
280,158,28731,2,0,P|296:313|219:312,1,280
90,258,29842,2,0,L|137:197,1,70
175,258,30212,2,0,L|131:197,1,70
90,256,30583,2,0,L|137:195,1,70
173,257,30953,2,0,L|127:191,1,70
86,251,31323,2,0,L|134:197,1,70
183,247,31694,2,0,L|126:189,1,70
133,197,32249,1,0,0:0:0:0:
145,128,32620,1,0,0:0:0:0:
212,199,32990,1,0,0:0:0:0:
215,130,33360,1,0,0:0:0:0:
281,205,33731,1,0,0:0:0:0:
256,192,36138,12,0,36879,0:0:0:0:
130,145,37805,6,0,P|273:89|128:160,1,560
197,169,39471,1,0,0:0:0:0:
198,98,39842,1,0,0:0:0:0:
267,98,40212,1,0,0:0:0:0:
270,167,40583,1,0,0:0:0:0:
260,236,40953,1,0,0:0:0:0:
190,243,41323,1,0,0:0:0:0:
163,173,41508,2,0,P|269:48|361:194,1,350
354,222,42620,1,0,0:0:0:0:
214,211,42990,1,0,0:0:0:0:
226,71,43360,1,0,0:0:0:0:
94,118,43731,1,0,0:0:0:0:
124,254,44101,2,0,B|303:160|359:252|359:252|395:75|299:70|299:70|217:119,1,560
334,146,45953,2,0,B|168:202|168:202|210:339|210:339|463:277|423:106|423:106|215:89|297:311|297:311|406:220,1,1120
221,178,49471,2,0,P|351:150|354:177,1,210
221,178,50212,2,0,P|301:97|345:202,1,210
154,213,51323,2,0,L|192:138,1,70
224,209,51694,2,0,L|183:144,1,70
153,211,52064,2,0,L|188:134,1,70
220,205,52434,2,0,L|181:138,1,70
150,206,52805,2,0,L|184:139,1,70
215,204,53175,6,0,L|182:135,1,70
324,128,53731,1,0,0:0:0:0:
317,197,54101,1,0,0:0:0:0:
385,208,54471,1,0,0:0:0:0:
398,139,54842,1,0,0:0:0:0:
398,139,55953,2,0,B|142:89|402:138,1,210
341,268,56879,2,0,P|149:191|301:167,1,490
244,145,58360,1,0,0:0:0:0:
244,145,58545,1,0,0:0:0:0:
244,145,58731,1,0,0:0:0:0:
244,145,58916,2,0,P|348:196|360:102,1,210
374,136,60397,1,0,0:0:0:0:
326,84,60768,1,0,0:0:0:0:
283,139,61138,1,0,0:0:0:0:
326,193,61508,1,0,0:0:0:0:
272,237,61879,1,0,0:0:0:0:
305,298,62249,1,0,0:0:0:0:
366,264,62620,1,0,0:0:0:0:
333,201,62990,1,0,0:0:0:0:
290,145,63360,1,0,0:0:0:0:
345,102,63731,1,0,0:0:0:0:
327,194,64286,2,0,P|179:282|224:147,1,420
223,147,65768,2,0,P|350:118|345:195,1,210
359,153,66508,2,0,P|293:72|219:189,1,280
214,180,67434,2,0,P|261:53|360:180,1,350
366,166,68545,2,0,P|273:39|225:198,1,350
197,155,69842,1,0,0:0:0:0:
210,223,70212,1,0,0:0:0:0:
279,221,70583,1,0,0:0:0:0:
271,151,70953,1,0,0:0:0:0:
341,149,71323,1,0,0:0:0:0:
353,217,71694,1,0,0:0:0:0:
422,214,72064,1,0,0:0:0:0:
256,192,73175,12,0,78916,0:0:0:0:
140,238,84842,6,0,P|411:71|415:233,1,630
429,198,86694,1,0,0:0:0:0:
429,198,86879,1,0,0:0:0:0:
429,198,87064,1,0,0:0:0:0:
429,198,87249,1,0,0:0:0:0:
429,198,87434,1,0,0:0:0:0:
429,198,87620,1,0,0:0:0:0:
429,198,87805,2,0,P|230:258|223:140,1,350
209,184,88916,1,0,0:0:0:0:
209,184,89101,1,0,0:0:0:0:
209,184,89286,1,0,0:0:0:0:
209,184,89471,1,0,0:0:0:0:
209,184,89657,1,0,0:0:0:0:
209,184,89842,1,0,0:0:0:0:
209,184,90027,2,0,P|361:239|299:108,1,350
338,121,91138,1,0,0:0:0:0:
338,121,91323,1,0,0:0:0:0:
338,121,91508,1,0,0:0:0:0:
382,177,91694,1,0,0:0:0:0:
348,238,91879,2,0,P|190:317|197:128,1,420
179,138,93175,1,0,0:0:0:0:
179,138,93360,1,0,0:0:0:0:
179,138,93545,1,0,0:0:0:0:
179,138,93731,1,0,0:0:0:0:
179,138,93916,1,0,0:0:0:0:
179,138,94101,1,0,0:0:0:0:
179,138,94286,1,0,0:0:0:0:
179,138,94471,2,0,P|365:283|339:80,1,560
347,84,96323,2,0,P|155:127|357:93,1,770
335,122,98545,1,0,0:0:0:0:
285,171,98731,1,0,0:0:0:0:
237,222,98916,1,0,0:0:0:0:
290,267,99101,1,0,0:0:0:0:
242,317,99286,2,0,P|86:244|208:105,1,350
145,115,100583,2,0,P|334:124|360:178,1,210
101,128,102516,1,0,0:0:0:0:
147,125,102616,1,0,0:0:0:0:
190,109,102715,1,0,0:0:0:0:
236,101,102815,1,0,0:0:0:0:
264,137,102914,1,0,0:0:0:0:
281,180,103014,1,0,0:0:0:0:
320,204,103113,1,0,0:0:0:0:
361,182,103213,1,0,0:0:0:0:
373,137,103312,1,0,0:0:0:0:
357,92,103412,1,0,0:0:0:0:
318,66,103511,1,0,0:0:0:0:
271,59,103611,1,0,0:0:0:0:
226,72,103710,1,0,0:0:0:0:
186,96,103810,1,0,0:0:0:0:
156,131,103909,1,0,0:0:0:0:
114,153,104009,1,0,0:0:0:0:
69,140,104108,1,0,0:0:0:0:
70,93,104208,1,0,0:0:0:0:
91,51,104307,1,0,0:0:0:0:
132,29,104407,1,0,0:0:0:0:
178,28,104506,1,0,0:0:0:0:
223,37,104606,1,0,0:0:0:0:
250,74,104705,1,0,0:0:0:0:
253,120,104805,1,0,0:0:0:0:
261,165,104904,1,0,0:0:0:0:
328,202,105103,1,2,0:0:0:0:
369,118,105302,1,2,0:0:0:0:
455,153,105501,1,2,0:0:0:0:
418,238,105700,1,2,0:0:0:0:
342,293,105899,1,2,0:0:0:0:
269,234,106098,1,2,0:0:0:0:
343,177,106297,1,2,0:0:0:0:
409,242,106496,1,2,0:0:0:0:
471,172,106695,1,2,0:0:0:0:
405,106,106894,1,2,0:0:0:0:
343,177,107093,1,2,0:0:0:0:
409,242,107292,1,2,0:0:0:0:
343,308,107491,1,2,0:0:0:0:
274,244,107690,1,2,0:0:0:0:
343,177,107889,1,2,0:0:0:0:
393,59,108188,1,2,0:0:0:0:
346,54,108287,1,2,0:0:0:0:
301,69,108387,1,0,0:0:0:0:
268,102,108486,1,2,0:0:0:0:
235,136,108586,1,2,0:0:0:0:
215,178,108685,1,2,0:0:0:0:
224,224,108785,1,2,0:0:0:0:
264,247,108884,1,2,0:0:0:0:
310,243,108984,1,2,0:0:0:0:
351,221,109083,1,2,0:0:0:0:
376,181,109183,1,2,0:0:0:0:
375,134,109282,1,2,0:0:0:0:
396,92,109382,1,2,0:0:0:0:
439,107,109481,1,2,0:0:0:0:
459,149,109581,1,2,0:0:0:0:
469,194,109680,1,2,0:0:0:0:
465,240,109780,1,0,0:0:0:0:
43,159,114855,6,0,P|212:41|41:169,3,933.333333333333
