osu file format v14

[General]
AudioFilename: audio.mp3
AudioLeadIn: 0
PreviewTime: -1
Countdown: 1
SampleSet: None
StackLeniency: 0.7
Mode: 3
LetterboxInBreaks: 0
SpecialStyle: 0
WidescreenStoryboard: 0

[Editor]
DistanceSpacing: 0.8
BeatDivisor: 1
GridSize: 32
TimelineZoom: 1

[Metadata]
Title:Burnt Rice
TitleUnicode:Burnt Rice
Artist:Shawn Wasabi
ArtistUnicode:Shawn Wasabi
Creator:Harpball
Version:Easy
Source:
Tags:
BeatmapID:1700357
BeatmapSetID:810432

[Difficulty]
HPDrainRate:1
CircleSize:4
OverallDifficulty:1
ApproachRate:1
SliderMultiplier:0.9
SliderTickRate:1

[Events]
//Background and Video events
//Break Periods
//Storyboard Layer 0 (Background)
//Storyboard Layer 1 (Fail)
//Storyboard Layer 2 (Pass)
//Storyboard Layer 3 (Foreground)
//Storyboard Sound Samples

[TimingPoints]
4,500,4,1,0,100,1,0

[HitObjects]
320,192,504,5,0,0:0:0:0:
448,192,504,1,0,0:0:0:0:
64,192,1004,1,0,0:0:0:0:
192,192,1004,1,0,0:0:0:0:
320,192,1504,1,0,0:0:0:0:
448,192,1504,1,0,0:0:0:0:
64,192,2004,1,0,0:0:0:0:
192,192,2004,1,0,0:0:0:0:
320,192,2504,1,0,0:0:0:0:
448,192,2504,1,0,0:0:0:0:
448,192,3004,1,0,0:0:0:0:
64,192,3504,1,0,0:0:0:0:
320,192,4004,1,0,0:0:0:0:
448,192,4504,1,0,0:0:0:0:
320,192,5004,1,0,0:0:0:0:
64,192,5504,1,0,0:0:0:0:
192,192,6004,1,0,0:0:0:0:
448,192,6504,1,0,0:0:0:0:
64,192,6504,128,0,12004:0:0:0:0:
448,192,7004,1,0,0:0:0:0:
320,192,7504,1,0,0:0:0:0:
448,192,8004,1,0,0:0:0:0:
448,192,8504,1,0,0:0:0:0:
320,192,9004,1,0,0:0:0:0:
448,192,9504,1,0,0:0:0:0:
320,192,10004,1,0,0:0:0:0:
448,192,10504,1,0,0:0:0:0:
320,192,11004,1,0,0:0:0:0:
448,192,11504,1,0,0:0:0:0:
320,192,12004,1,0,0:0:0:0:
64,192,12504,1,0,0:0:0:0:
192,192,13004,1,0,0:0:0:0:
320,192,13504,1,0,0:0:0:0:
448,192,14004,1,0,0:0:0:0:
320,192,14504,1,0,0:0:0:0:
64,192,15004,1,0,0:0:0:0:
448,192,15504,1,0,0:0:0:0:
320,192,16004,1,0,0:0:0:0:
192,192,16504,1,0,0:0:0:0:
64,192,16504,1,0,0:0:0:0:
320,192,17504,1,0,0:0:0:0:
448,192,17504,1,0,0:0:0:0:
64,192,17504,128,0,21004:0:0:0:0:
448,192,19504,1,0,0:0:0:0:
448,192,20004,1,0,0:0:0:0:
448,192,20504,1,0,0:0:0:0:
192,192,21004,128,0,26504:0:0:0:0:
448,192,21004,1,0,0:0:0:0:
448,192,21504,1,0,0:0:0:0:
448,192,22004,1,0,0:0:0:0:
448,192,22504,1,0,0:0:0:0:
448,192,23004,1,0,0:0:0:0:
448,192,23504,1,0,0:0:0:0:
448,192,24004,1,0,0:0:0:0:
448,192,24504,1,0,0:0:0:0:
448,192,25004,1,0,0:0:0:0:
448,192,25504,128,0,26004:0:0:0:0:
320,192,26504,1,0,0:0:0:0:
64,192,27004,128,0,29504:0:0:0:0:
448,192,27004,1,0,0:0:0:0:
320,192,27504,1,0,0:0:0:0:
448,192,28004,1,0,0:0:0:0:
320,192,28504,1,0,0:0:0:0:
448,192,29004,1,0,0:0:0:0:
192,192,29504,128,0,32004:0:0:0:0:
320,192,29504,1,0,0:0:0:0:
448,192,30004,1,0,0:0:0:0:
320,192,30504,1,0,0:0:0:0:
448,192,31004,1,0,0:0:0:0:
320,192,31504,1,0,0:0:0:0:
448,192,32004,1,0,0:0:0:0:
64,192,32504,128,0,38504:0:0:0:0:
320,192,32504,1,0,0:0:0:0:
448,192,33004,1,0,0:0:0:0:
320,192,33504,1,0,0:0:0:0:
448,192,34004,1,0,0:0:0:0:
320,192,34504,1,0,0:0:0:0:
320,192,35004,1,0,0:0:0:0:
320,192,35504,1,0,0:0:0:0:
448,192,36004,1,0,0:0:0:0:
448,192,36504,1,0,0:0:0:0:
448,192,37004,1,0,0:0:0:0:
320,192,37504,1,0,0:0:0:0:
320,192,38004,1,0,0:0:0:0:
192,192,38504,128,0,40004:0:0:0:0:
448,192,38504,1,0,0:0:0:0:
320,192,39004,1,0,0:0:0:0:
448,192,40004,1,0,0:0:0:0:
64,192,40504,128,0,42504:0:0:0:0:
320,192,40504,1,0,0:0:0:0:
448,192,41004,1,0,0:0:0:0:
320,192,41504,1,0,0:0:0:0:
192,192,42004,128,0,46004:0:0:0:0:
448,192,42004,1,0,0:0:0:0:
320,192,42504,1,0,0:0:0:0:
448,192,43004,1,0,0:0:0:0:
320,192,43504,1,0,0:0:0:0:
448,192,44004,1,0,0:0:0:0:
320,192,44504,1,0,0:0:0:0:
448,192,45004,1,0,0:0:0:0:
320,192,45504,1,0,0:0:0:0:
64,192,46004,128,0,49004:0:0:0:0:
448,192,46004,1,0,0:0:0:0:
320,192,46504,1,0,0:0:0:0:
448,192,47004,1,0,0:0:0:0:
320,192,47504,1,0,0:0:0:0:
448,192,48004,1,0,0:0:0:0:
320,192,48504,1,0,0:0:0:0:
192,192,49004,128,0,49504:0:0:0:0:
320,192,49504,128,0,50004:0:0:0:0:
448,192,49504,1,0,0:0:0:0:
192,192,50004,128,0,50504:0:0:0:0:
320,192,50504,128,0,51004:0:0:0:0:
192,192,51004,128,0,51504:0:0:0:0:
64,192,51504,128,0,55004:0:0:0:0:
192,192,52504,1,0,0:0:0:0:
448,192,53004,1,0,0:0:0:0:
192,192,53504,1,0,0:0:0:0:
448,192,54504,1,0,0:0:0:0:
192,192,55004,128,0,57004:0:0:0:0:
448,192,55504,1,0,0:0:0:0:
448,192,56004,1,0,0:0:0:0:
448,192,56504,1,0,0:0:0:0:
320,192,57004,128,0,57504:0:0:0:0:
448,192,57504,128,0,58004:0:0:0:0:
320,192,58004,128,0,58504:0:0:0:0:
192,192,58504,128,0,59004:0:0:0:0:
64,192,59004,128,0,59504:0:0:0:0:
192,192,59504,128,0,60004:0:0:0:0:
320,192,60004,128,0,60504:0:0:0:0:
448,192,60504,128,0,61004:0:0:0:0:
64,192,61004,1,0,0:0:0:0:
64,192,61504,1,0,0:0:0:0:
64,192,62004,1,0,0:0:0:0:
64,192,62504,1,0,0:0:0:0:
448,192,62504,1,0,0:0:0:0:
448,192,63004,1,0,0:0:0:0:
448,192,63504,1,0,0:0:0:0:
448,192,64004,1,0,0:0:0:0:
448,192,64504,1,0,0:0:0:0:
448,192,65004,1,0,0:0:0:0:
448,192,65504,1,0,0:0:0:0:
448,192,66004,1,0,0:0:0:0:
448,192,66504,1,0,0:0:0:0:
64,192,67004,1,0,0:0:0:0:
64,192,67504,1,0,0:0:0:0:
64,192,68004,1,0,0:0:0:0:
64,192,68504,1,0,0:0:0:0:
64,192,69004,1,0,0:0:0:0:
64,192,69504,1,0,0:0:0:0:
64,192,70004,1,0,0:0:0:0:
64,192,70504,1,0,0:0:0:0:
320,192,71004,1,0,0:0:0:0:
448,192,71504,1,0,0:0:0:0:
192,192,72004,1,0,0:0:0:0:
64,192,72504,128,0,74004:0:0:0:0:
192,192,74004,128,0,75504:0:0:0:0:
64,192,75504,128,0,77504:0:0:0:0:
448,192,75504,1,0,0:0:0:0:
448,192,76004,1,0,0:0:0:0:
448,192,76504,1,0,0:0:0:0:
192,192,77504,128,0,79504:0:0:0:0:
448,192,77504,1,0,0:0:0:0:
320,192,78004,1,0,0:0:0:0:
448,192,79004,1,0,0:0:0:0:
64,192,79504,128,0,81504:0:0:0:0:
320,192,79504,1,0,0:0:0:0:
192,192,80004,1,0,0:0:0:0:
320,192,80504,1,0,0:0:0:0:
448,192,81004,1,0,0:0:0:0:
192,192,81504,128,0,83504:0:0:0:0:
448,192,82504,1,0,0:0:0:0:
64,192,83504,128,0,85504:0:0:0:0:
320,192,83504,1,0,0:0:0:0:
448,192,84004,1,0,0:0:0:0:
320,192,84504,1,0,0:0:0:0:
192,192,85504,128,0,87504:0:0:0:0:
448,192,85504,1,0,0:0:0:0:
320,192,86504,1,0,0:0:0:0:
64,192,87504,128,0,89504:0:0:0:0:
448,192,87504,1,0,0:0:0:0:
192,192,88004,1,0,0:0:0:0:
448,192,89004,1,0,0:0:0:0:
192,192,89504,128,0,90504:0:0:0:0:
448,192,90004,1,0,0:0:0:0:
64,192,90504,128,0,91504:0:0:0:0:
320,192,90504,1,0,0:0:0:0:
192,192,91504,128,0,93004:0:0:0:0:
448,192,91504,1,0,0:0:0:0:
320,192,92504,1,0,0:0:0:0:
64,192,93004,128,0,95004:0:0:0:0:
448,192,93004,1,0,0:0:0:0:
320,192,94004,1,0,0:0:0:0:
320,192,94504,1,0,0:0:0:0:
192,192,95004,128,0,97504:0:0:0:0:
320,192,95004,1,0,0:0:0:0:
320,192,96004,1,0,0:0:0:0:
448,192,96504,1,0,0:0:0:0:
320,192,97004,1,0,0:0:0:0:
64,192,97504,128,0,98004:0:0:0:0:
192,192,98004,128,0,100504:0:0:0:0:
448,192,98004,1,0,0:0:0:0:
320,192,99004,1,0,0:0:0:0:
448,192,99504,1,0,0:0:0:0:
448,192,100004,1,0,0:0:0:0:
64,192,100504,128,0,102004:0:0:0:0:
320,192,100504,1,0,0:0:0:0:
320,192,101004,1,0,0:0:0:0:
320,192,101504,1,0,0:0:0:0:
192,192,102004,128,0,104004:0:0:0:0:
448,192,102004,1,0,0:0:0:0:
448,192,102504,1,0,0:0:0:0:
448,192,103004,1,0,0:0:0:0:
320,192,103504,1,0,0:0:0:0:
64,192,104004,128,0,105504:0:0:0:0:
448,192,104004,1,0,0:0:0:0:
320,192,104504,1,0,0:0:0:0:
192,192,105004,1,0,0:0:0:0:
192,192,105504,128,0,107004:0:0:0:0:
320,192,105504,1,0,0:0:0:0:
448,192,105504,1,0,0:0:0:0:
320,192,106004,1,0,0:0:0:0:
320,192,106504,1,0,0:0:0:0:
64,192,107004,128,0,108504:0:0:0:0:
448,192,107004,1,0,0:0:0:0:
192,192,107504,1,0,0:0:0:0:
448,192,108004,1,0,0:0:0:0:
192,192,108504,128,0,110504:0:0:0:0:
448,192,109004,1,0,0:0:0:0:
320,192,109004,1,0,0:0:0:0:
64,192,110504,128,0,112004:0:0:0:0:
320,192,110504,1,0,0:0:0:0:
320,192,111004,1,0,0:0:0:0:
320,192,111504,1,0,0:0:0:0:
192,192,112004,128,0,114004:0:0:0:0:
448,192,112004,1,0,0:0:0:0:
448,192,112504,1,0,0:0:0:0:
320,192,113004,1,0,0:0:0:0:
320,192,113504,1,0,0:0:0:0:
64,192,114004,128,0,115504:0:0:0:0:
320,192,114004,1,0,0:0:0:0:
448,192,114504,1,0,0:0:0:0:
448,192,115004,1,0,0:0:0:0:
320,192,115504,1,0,0:0:0:0:
