osu file format v14

[General]
AudioFilename: audio.mp3
AudioLeadIn: 0
PreviewTime: 83365
Countdown: 0
SampleSet: Soft
StackLeniency: 0.7
Mode: 0
LetterboxInBreaks: 0
WidescreenStoryboard: 0

[Editor]
DistanceSpacing: 1
BeatDivisor: 4
GridSize: 4
TimelineZoom: 2.3

[Metadata]
Title:Burnt Rice
TitleUnicode:Burnt Rice
Artist:Shawn Wasabi
ArtistUnicode:Shawn Wasabi
Creator:Greedy_Panda
Version:Normal
Source:
Tags:trap electronic electro remix YDG yung gemmy
BeatmapID:1154533
BeatmapSetID:544853

[Difficulty]
HPDrainRate:4
CircleSize:3
OverallDifficulty:4
ApproachRate:4
SliderMultiplier:1.2
SliderTickRate:1

[Events]
//Background and Video events
0,0,"rice_buddy_town_by_orangecircle-d4ui744.jpg",0,0
//Break Periods
//Storyboard Layer 0 (Background)
//Storyboard Layer 1 (Fail)
//Storyboard Layer 2 (Pass)
//Storyboard Layer 3 (Foreground)
//Storyboard Sound Samples

[TimingPoints]
871,375,4,2,0,60,1,0
871,-117.647058823529,4,2,0,60,0,0
7808,-117.647058823529,4,2,0,30,0,0
7902,-117.647058823529,4,2,0,60,0,0
8558,-117.647058823529,4,2,0,30,0,0
8652,-117.647058823529,4,2,0,60,0,0
10808,-117.647058823529,4,2,0,30,0,0
10902,-117.647058823529,4,2,0,60,0,0
11558,-117.647058823529,4,2,0,30,0,0
11652,-117.647058823529,4,2,0,60,0,0
12871,-100,4,2,0,60,0,0
24308,-100,4,2,0,30,0,0
24402,-100,4,2,0,60,0,0
24683,-100,4,2,0,30,0,0
24777,-100,4,2,0,60,0,0
36871,-100,4,3,0,60,0,1
60871,-100,4,2,0,60,0,0
84871,-100,4,3,0,60,0,1
108871,-117.647058823529,4,2,0,60,0,0

[Colours]
Combo1 : 185,192,50
Combo2 : 236,81,36
Combo3 : 123,234,184
Combo4 : 242,128,13

[HitObjects]
164,160,871,70,0,P|204:192|264:192,1,102.000001945496,8|0,0:0|0:0,0:0:0:0:
336,196,1621,1,0,0:0:0:0:
296,124,1996,1,0,0:0:0:0:
253,195,2371,6,0,P|264:243|301:277,2,102.000001945496,8|0|0,0:0|0:0|0:0,0:0:0:0:
296,124,3496,1,0,0:0:0:0:
336,196,3871,6,0,P|376:228|436:228,1,102.000001945496,8|0,0:0|0:0,0:0:0:0:
484,168,4621,1,0,0:0:0:0:
404,152,4996,1,0,0:0:0:0:
425,231,5371,6,0,P|410:280|361:314,2,102.000001945496,8|0|0,0:0|0:0|0:0,0:0:0:0:
404,152,6496,1,0,0:0:0:0:
332,112,6871,5,8,0:0:0:0:
284,268,7621,2,0,L|284:328,2,51.0000009727478
268,188,8371,2,0,L|220:136,2,51.0000009727478
348,212,9121,2,0,P|378:171|377:111,1,102.000001945496
360,44,9871,5,8,0:0:0:0:
224,136,10621,2,0,L|224:192,2,51.0000009727478
156,88,11371,2,0,L|96:60,2,51.0000009727478
224,136,12121,2,0,P|243:182|227:240,1,102.000001945496,8|0,0:0|0:0,0:0:0:0:
208,324,12871,5,8,0:0:0:0:
127,271,13246,2,0,P|182:231|250:237,1,120
328,252,13996,1,0,0:0:0:0:
412,204,14371,6,0,B|443:219|443:219|471:254,2,60,8|0|0,0:0|0:0|0:0,0:0:0:0:
328,156,15121,1,0,0:0:0:0:
328,252,15496,1,2,0:0:0:0:
244,208,15871,5,8,0:0:0:0:
152,240,16246,2,0,B|135:271|135:271|132:314,2,60,8|0|0,0:0|0:0|0:0,0:0:0:0:
168,148,16996,1,0,0:0:0:0:
236,80,17371,6,0,B|255:50|255:50|293:27,2,60,8|0|0,0:0|0:0|0:0,0:0:0:0:
260,172,18121,1,0,0:0:0:0:
168,148,18496,1,2,0:0:0:0:
141,59,18871,5,8,0:0:0:0:
72,128,19246,2,0,B|41:145|41:145|14:180,2,60,8|0|0,0:0|0:0|0:0,0:0:0:0:
168,148,19996,1,0,0:0:0:0:
176,244,20371,6,0,B|165:277|165:277|171:321,2,60,8|0|0,0:0|0:0|0:0,0:0:0:0:
256,188,21121,1,0,0:0:0:0:
340,236,21496,1,2,0:0:0:0:
256,284,21871,5,8,0:0:0:0:
256,188,22246,2,0,B|232:162|232:162|191:144,2,60,8|0|0,0:0|0:0|0:0,0:0:0:0:
340,236,22996,1,0,0:0:0:0:
433,215,23371,6,0,B|464:228|464:228|493:260,2,60,8|0|0,0:0|0:0|0:0,0:0:0:0:
407,308,24121,2,0,L|343:315,1,60,8|0,0:0|0:0,0:0:0:0:
289,323,24496,2,0,L|225:330,1,60,8|0,0:0|0:0,0:0:0:0:
170,336,24871,5,8,0:0:0:0:
82,254,25246,1,0,0:0:0:0:
192,204,25621,1,8,0:0:0:0:
84,151,25996,2,0,L|118:93,1,60,0|2,0:0|0:0,0:0:0:0:
144,47,26371,5,8,0:0:0:0:
252,100,26746,1,0,0:0:0:0:
192,204,27121,2,0,P|237:218|286:215,1,90,8|0,0:0|0:0,0:0:0:0:
365,192,27683,2,0,L|433:156,1,60,2|8,0:0|0:0,0:0:0:0:
484,64,28246,5,0,0:0:0:0:
364,60,28621,1,8,0:0:0:0:
418,163,28996,2,0,L|449:228,1,60,0|2,0:0|0:0,0:0:0:0:
464,273,29371,5,8,0:0:0:0:
360,336,29746,1,0,0:0:0:0:
340,216,30121,2,0,P|290:234|256:279,1,90,8|0,0:0|0:0,0:0:0:0:
197,319,30683,2,0,L|120:328,1,60,2|8,0:0|0:0,0:0:0:0:
168,209,31246,5,0,2:0:0:0:
53,241,31621,1,8,0:0:0:0:
84,124,31996,2,0,L|168:100,1,60,0|2,0:0|0:0,0:0:0:0:
199,89,32371,5,8,0:0:0:0:
312,49,32746,1,0,0:0:0:0:
424,91,33121,2,0,P|388:143|343:161,1,90,8|2,0:0|0:0,0:0:0:0:
284,188,33683,5,0,0:0:0:0:
228,208,33871,2,0,B|220:242|220:242|228:285,2,60,8|0|0,0:0|0:0|0:0,0:0:0:0:
208,152,34433,1,0,0:0:0:0:
188,96,34621,2,0,B|193:61|193:61|219:24,2,60,8|0|0,0:0|0:0|0:0,0:0:0:0:
304,124,35371,6,0,L|368:168,1,60,8|0,0:0|0:0,0:0:0:0:
402,192,35746,1,0,0:0:0:0:
359,281,36121,2,0,L|295:237,1,60,8|0,0:0|0:0,0:0:0:0:
260,212,36496,1,0,0:0:0:0:
148,168,36871,6,0,B|100:180|100:180|84:225,1,90,8|0,0:0|0:0,0:0:0:0:
116,304,37433,2,0,L|192:300,1,60,8|0,0:0|0:0,0:0:0:0:
260,212,37996,2,0,B|293:201|293:201|337:207,2,60,8|2|0,0:0|0:0|0:0,0:0:0:0:
175,300,38746,5,0,0:0:0:0:
87,219,39121,1,10,0:0:0:0:
172,132,39496,2,0,L|228:84,1,60,0|2,0:0|0:0,0:0:0:0:
265,56,39871,5,0,0:0:0:0:
381,63,40246,1,0,0:0:0:0:
379,183,40621,1,8,0:0:0:0:
259,180,40996,2,0,B|232:203|232:203|214:243,2,60,8|2|0,0:0|0:0|0:0,0:0:0:0:
379,183,41746,6,0,L|390:267,1,60
376,301,42121,2,0,L|306:322,1,60,8|0,0:0|0:0,0:0:0:0:
259,331,42496,1,0,0:0:0:0:
236,216,42871,6,0,B|198:183|198:183|152:196,1,90,8|0,0:0|0:0,0:0:0:0:
106,267,43433,2,0,L|152:326,1,60,8|0,0:0|0:0,0:0:0:0:
259,331,43996,2,0,B|293:327|293:327|332:306,2,60,8|2|0,0:0|0:0|0:0,0:0:0:0:
142,314,44746,5,0,0:0:0:0:
159,194,45121,1,10,0:0:0:0:
40,172,45496,2,0,L|52:88,1,60,0|2,0:0|0:0,0:0:0:0:
58,53,45871,5,0,0:0:0:0:
176,84,46246,1,0,0:0:0:0:
276,152,46621,1,10,0:0:0:0:
159,194,46996,2,0,B|147:227|147:227|150:271,2,60,8|2|0,0:0|0:0|0:0,0:0:0:0:
276,152,47746,6,0,L|352:152,1,60
395,143,48121,2,0,L|445:104,1,60,8|0,0:0|0:0,0:0:0:0:
489,68,48496,1,0,0:0:0:0:
500,188,48871,6,0,B|489:236|489:236|451:251,1,90,8|0,0:0|0:0,0:0:0:0:
362,234,49433,2,0,L|369:174,1,60,8|0,0:0|0:0,0:0:0:0:
283,92,49996,2,0,L|275:156,1,60,8|2,0:0|0:0,0:0:0:0:
267,211,50371,5,0,0:0:0:0:
260,332,50746,1,0,0:0:0:0:
144,304,51121,1,8,0:0:0:0:
144,184,51496,2,0,L|92:116,1,60,0|2,0:0|0:0,0:0:0:0:
72,87,51871,5,0,0:0:0:0:
191,71,52246,1,0,0:0:0:0:
144,184,52621,1,10,0:0:0:0:
262,167,52996,2,0,B|288:143|288:143|306:103,2,60,8|2|0,0:0|0:0|0:0,0:0:0:0:
144,184,53746,6,0,L|83:241,1,60
60,270,54121,2,0,L|110:319,1,60,8|0,0:0|0:0,0:0:0:0:
148,351,54496,1,0,0:0:0:0:
236,268,54871,6,0,B|272:233|272:233|318:245,1,90,8|0,0:0|0:0,0:0:0:0:
300,336,55433,2,0,L|380:336,1,60,8|2,0:0|0:0,0:0:0:0:
436,244,55996,2,0,L|436:164,1,60,8|2,0:0|0:0,0:0:0:0:
437,123,56371,5,0,0:0:0:0:
346,43,56746,1,0,0:0:0:0:
320,161,57121,1,8,0:0:0:0:
236,76,57496,2,0,L|168:112,1,60,0|2,0:0|0:0,0:0:0:0:
136,144,57871,6,0,P|102:189|97:236,1,90,8|2,0:0|0:0,0:0:0:0:
188,220,58433,1,0,0:0:0:0:
248,228,58621,2,0,P|278:259|289:305,1,90,8|2,0:0|0:0,0:0:0:0:
200,304,59183,1,0,0:0:0:0:
141,291,59371,6,0,P|98:246|103:192,1,90,8|2,0:0|0:0,0:0:0:0:
100,132,59933,1,0,0:0:0:0:
152,104,60121,2,0,L|231:137,1,60,8|2,0:0|0:0,0:0:0:0:
264,152,60496,2,0,L|344:188,1,60,8|2,0:0|0:0,0:0:0:0:
374,203,60871,5,8,0:0:0:0:
268,256,61246,1,0,0:0:0:0:
368,324,61621,1,8,0:0:0:0:
374,203,61996,2,0,L|440:168,1,60,0|2,0:0|0:0,0:0:0:0:
481,148,62371,5,8,0:0:0:0:
379,83,62746,1,0,0:0:0:0:
374,203,63121,2,0,B|333:211|333:211|299:175,1,90,8|0,0:0|0:0,0:0:0:0:
256,96,63683,2,0,L|180:80,1,60,2|8,0:0|0:0,0:0:0:0:
80,60,64246,5,0,0:0:0:0:
60,180,64621,1,8,0:0:0:0:
180,200,64996,2,0,L|179:264,1,60,0|2,0:0|0:0,0:0:0:0:
180,320,65371,5,8,0:0:0:0:
284,260,65746,1,0,0:0:0:0:
180,200,66121,2,0,B|192:161|192:161|239:146,1,90,8|0,0:0|0:0,0:0:0:0:
328,148,66683,2,0,B|392:196,1,60,2|8,0:0|0:0,0:0:0:0:
284,260,67246,5,0,0:0:0:0:
396,304,67621,1,8,0:0:0:0:
376,184,67996,2,0,L|432:144,1,60,0|2,0:0|0:0,0:0:0:0:
479,123,68371,6,0,P|494:175|481:242,1,120,8|2,0:0|0:0,0:0:0:0:
376,184,69121,2,0,P|363:244|377:289,1,90,8|2,0:0|0:0,0:0:0:0:
304,336,69683,1,0,0:0:0:0:
244,336,69871,6,0,L|176:336,1,60,8|0,0:0|0:0,0:0:0:0:
123,336,70246,1,0,0:0:0:0:
36,256,70621,2,0,L|36:188,1,60,8|0,0:0|0:0,0:0:0:0:
36,136,70996,1,0,0:0:0:0:
130,63,71371,6,0,L|198:63,1,60,8|0,0:0|0:0,0:0:0:0:
249,54,71746,2,0,L|327:33,2,60,2|0|8,0:0|0:0|0:0,0:0:0:0:
228,110,72308,2,0,L|201:186,2,60,2|0|0,0:0|0:0|0:0,0:0:0:0:
288,120,72871,5,8,0:0:0:0:
408,132,73246,1,0,0:0:0:0:
344,236,73621,1,8,0:0:0:0:
464,236,73996,2,0,B|489:260|489:260|505:301,2,60,0|0|8,0:0|0:0|0:0,0:0:0:0:
344,236,74746,5,0,0:0:0:0:
284,132,75121,2,0,L|228:92,1,60,8|0,0:0|0:0,0:0:0:0:
183,65,75496,2,0,L|111:65,1,60,0|2,0:0|0:0,0:0:0:0:
62,65,75871,5,8,0:0:0:0:
62,185,76246,1,0,0:0:0:0:
182,185,76621,1,8,0:0:0:0:
122,289,76996,2,0,B|110:322|110:322|113:366,2,60,0|0|8,0:0|0:0|0:0,0:0:0:0:
242,289,77746,5,0,0:0:0:0:
322,200,78121,2,0,L|374:248,1,60,8|0,0:0|0:0,0:0:0:0:
418,269,78496,2,0,L|459:226,1,60,0|2,0:0|0:0,0:0:0:0:
494,178,78871,5,8,0:0:0:0:
400,104,79246,1,0,0:0:0:0:
324,196,79621,1,8,0:0:0:0:
284,84,79996,2,0,B|264:54|264:54|227:30,2,60,0|0|8,0:0|0:0|0:0,0:0:0:0:
400,104,80746,5,0,0:0:0:0:
324,196,81121,2,0,L|272:256,1,60,8|0,0:0|0:0,0:0:0:0:
245,287,81496,2,0,L|165:295,1,60
128,307,81871,6,0,L|60:340,2,60,8|2|0,0:0|0:0|0:0,0:0:0:0:
136,248,82433,1,0,0:0:0:0:
140,188,82621,2,0,L|206:153,2,60,8|2|0,0:0|0:0|0:0,0:0:0:0:
122,69,83371,6,0,L|192:43,1,60,8|2,0:0|0:0,0:0:0:0:
235,30,83746,1,0,0:0:0:0:
354,34,84121,2,0,L|410:54,1,60,8|2,0:0|0:0,0:0:0:0:
466,75,84496,1,0,0:0:0:0:
372,156,84871,6,0,B|325:172|325:172|313:217,1,90,8|0,0:0|0:0,0:0:0:0:
400,244,85433,2,0,L|476:236,1,60,8|0,0:0|0:0,0:0:0:0:
409,347,85996,2,0,L|353:323,1,60,8|0,0:0|0:0,0:0:0:0:
300,296,86371,5,0,0:0:0:0:
180,296,86746,1,0,0:0:0:0:
240,192,87121,1,8,0:0:0:0:
120,192,87496,2,0,L|84:128,1,60,0|2,0:0|0:0,0:0:0:0:
64,85,87871,5,0,0:0:0:0:
183,91,88246,1,0,0:0:0:0:
120,192,88621,1,8,0:0:0:0:
188,292,88996,2,0,L|264:292,1,60,0|2,0:0|0:0,0:0:0:0:
368,288,89558,6,0,L|408:228,1,60,0|8,0:0|0:0,0:0:0:0:
428,184,89933,1,0,0:0:0:0:
384,144,90121,1,0,0:0:0:0:
335,107,90308,2,0,L|351:43,2,60,0|8|0,0:0|0:0|0:0,0:0:0:0:
305,159,90871,6,0,B|263:186|263:186|264:233,1,90,8|0,0:0|0:0,0:0:0:0:
352,232,91433,2,0,L|375:306,1,60,8|2,0:0|0:0,0:0:0:0:
256,320,91996,2,0,L|192:293,1,60,8|0,0:0|0:0,0:0:0:0:
145,272,92371,5,0,0:0:0:0:
154,152,92746,1,0,0:0:0:0:
52,216,93121,1,8,0:0:0:0:
52,96,93496,2,0,L|108:44,1,60
141,16,93871,5,0,0:0:0:0:
244,76,94246,1,0,0:0:0:0:
156,156,94621,1,8,0:0:0:0:
272,192,94996,2,0,L|332:156,1,60
440,188,95558,6,0,L|439:253,1,60,8|0,0:0|0:0,0:0:0:0:
415,303,95933,1,0,0:0:0:0:
354,306,96121,1,0,0:0:0:0:
309,266,96308,2,0,L|238:286,2,60,8|0|0,0:0|0:0|0:0,0:0:0:0:
322,208,96871,5,8,0:0:0:0:
300,88,97246,1,0,0:0:0:0:
212,164,97621,2,0,B|176:167|176:167|134:154,2,60,8|0|0,0:0|0:0|0:0,0:0:0:0:
300,88,98371,5,0,0:0:0:0:
188,48,98746,1,0,0:0:0:0:
212,164,99121,2,0,B|210:198|210:198|229:239,2,60,8|0|0,0:0|0:0|0:0,0:0:0:0:
301,83,99871,5,0,0:0:0:0:
412,124,100246,1,0,0:0:0:0:
436,240,100621,2,0,B|424:273|424:273|394:305,2,60,8|0|0,0:0|0:0|0:0,0:0:0:0:
324,204,101371,5,0,0:0:0:0:
302,322,101746,2,0,L|246:290,1,60
210,247,102121,2,0,L|204:177,1,60,8|2,0:0|0:0,0:0:0:0:
227,131,102496,1,0,0:0:0:0:
324,204,102871,5,0,0:0:0:0:
210,247,103246,1,0,0:0:0:0:
115,173,103621,2,0,B|95:202|95:202|88:246,2,60,8|0|0,0:0|0:0|0:0,0:0:0:0:
226,129,104371,5,0,0:0:0:0:
337,85,104746,1,0,0:0:0:0:
419,172,105121,2,0,B|442:145|442:145|456:103,2,60,8|0|0,0:0|0:0|0:0,0:0:0:0:
309,220,105871,5,0,0:0:0:0:
226,129,106246,1,0,0:0:0:0:
187,242,106621,2,0,B|194:276|194:276|221:311,2,60,8|0|0,0:0|0:0|0:0,0:0:0:0:
100,160,107371,5,0,0:0:0:0:
40,55,107746,1,0,0:0:0:0:
160,55,108121,2,0,L|224:55,1,60,8|0,0:0|0:0,0:0:0:0:
280,55,108496,2,0,L|344:55,1,60,8|0,0:0|0:0,0:0:0:0:
391,55,108871,5,8,0:0:0:0:
488,86,109246,2,0,P|499:117|495:147,1,51.0000009727478
488,184,109621,1,8,0:0:0:0:
386,185,109996,1,2,0:0:0:0:
378,290,110371,6,0,P|359:318|324:331,1,51.0000009727478,8|0,0:0|0:0,0:0:0:0:
297,344,110746,2,0,P|252:340|227:326,1,51.0000009727478
204,309,111121,1,8,0:0:0:0:
284,241,111496,1,2,0:0:0:0:
197,186,111871,5,8,0:0:0:0:
120,252,112246,2,0,P|101:224|98:193,1,51.0000009727478
99,156,112621,1,8,0:0:0:0:
173,85,112996,1,2,0:0:0:0:
197,186,113371,6,0,P|225:204|262:202,1,51.0000009727478,8|0,0:0|0:0,0:0:0:0:
292,212,113746,2,0,P|336:208|361:194,1,51.0000009727478
388,186,114121,2,0,B|436:155|436:155|423:91,1,102.000001945496
