osu file format v14

[General]
AudioFilename: audio.mp3
AudioLeadIn: 0
PreviewTime: 83365
Countdown: 0
SampleSet: Soft
StackLeniency: 0.7
Mode: 0
LetterboxInBreaks: 0
WidescreenStoryboard: 0

[Editor]
DistanceSpacing: 2.1
BeatDivisor: 6
GridSize: 4
TimelineZoom: 2.799999

[Metadata]
Title:Burnt Rice
TitleUnicode:Burnt Rice
Artist:Shawn Wasabi
ArtistUnicode:Shawn Wasabi
Creator:Greedy_Panda
Version:Insane
Source:
Tags:trap electronic electro remix YDG yung gemmy
BeatmapID:1154532
BeatmapSetID:544853

[Difficulty]
HPDrainRate:6
CircleSize:4
OverallDifficulty:7
ApproachRate:9
SliderMultiplier:1.4
SliderTickRate:1

[Events]
//Background and Video events
0,0,"rice_buddy_town_by_orangecircle-d4ui744.jpg",0,0
//Break Periods
//Storyboard Layer 0 (Background)
//Storyboard Layer 1 (Fail)
//Storyboard Layer 2 (Pass)
//Storyboard Layer 3 (Foreground)
//Storyboard Sound Samples

[TimingPoints]
871,375,4,2,0,60,1,0
7808,-100,4,2,0,30,0,0
7902,-100,4,2,0,60,0,0
10808,-100,4,2,0,30,0,0
10902,-100,4,2,0,60,0,0
13621,-58.8235294117647,4,2,0,60,0,0
13714,-100,4,2,0,60,0,0
13808,-66.6666666666667,4,2,0,60,0,0
14558,-66.6666666666667,4,2,0,40,0,0
14652,-66.6666666666667,4,2,0,15,0,0
14746,-66.6666666666667,4,2,0,40,0,0
14839,-66.6666666666667,4,2,0,15,0,0
14933,-66.6666666666667,4,2,0,60,0,0
15121,-58.8235294117647,4,2,0,60,0,0
15214,-66.6666666666667,4,2,0,30,0,0
15308,-66.6666666666667,4,2,0,60,0,0
15683,-66.6666666666667,4,2,0,40,0,0
15777,-66.6666666666667,4,2,0,15,0,0
15871,-66.6666666666667,4,2,0,40,0,0
15964,-66.6666666666667,4,2,0,15,0,0
16058,-66.6666666666667,4,2,0,60,0,0
16621,-58.8235294117647,4,2,0,60,0,0
16714,-66.6666666666667,4,2,0,30,0,0
16808,-66.6666666666667,4,2,0,60,0,0
17558,-66.6666666666667,4,2,0,40,0,0
17652,-66.6666666666667,4,2,0,15,0,0
17746,-66.6666666666667,4,2,0,40,0,0
17839,-66.6666666666667,4,2,0,15,0,0
17933,-66.6666666666667,4,2,0,60,0,0
18121,-58.8235294117647,4,2,0,60,0,0
18214,-66.6666666666667,4,2,0,30,0,0
18308,-66.6666666666667,4,2,0,60,0,0
18683,-66.6666666666667,4,2,0,40,0,0
18777,-66.6666666666667,4,2,0,15,0,0
18871,-66.6666666666667,4,2,0,40,0,0
18964,-66.6666666666667,4,2,0,15,0,0
19058,-66.6666666666667,4,2,0,60,0,0
19621,-58.8235294117647,4,2,0,60,0,0
19714,-66.6666666666667,4,2,0,30,0,0
19808,-66.6666666666667,4,2,0,60,0,0
20558,-66.6666666666667,4,2,0,40,0,0
20652,-66.6666666666667,4,2,0,15,0,0
20746,-66.6666666666667,4,2,0,40,0,0
20839,-66.6666666666667,4,2,0,15,0,0
20933,-66.6666666666667,4,2,0,60,0,0
21121,-58.8235294117647,4,2,0,60,0,0
21214,-66.6666666666667,4,2,0,30,0,0
21308,-66.6666666666667,4,2,0,60,0,0
26089,-66.6666666666667,4,2,0,30,0,0
26183,-66.6666666666667,4,2,0,60,0,0
26277,-66.6666666666667,4,2,0,30,0,0
26371,-66.6666666666667,4,2,0,60,0,0
27214,-66.6666666666667,4,2,0,30,0,0
27308,-66.6666666666667,4,2,0,60,0,0
27496,-66.6666666666667,4,2,0,30,0,0
27589,-66.6666666666667,4,2,0,60,0,0
27777,-66.6666666666667,4,2,0,30,0,0
27871,-66.6666666666667,4,2,0,60,0,0
29089,-66.6666666666667,4,2,0,30,0,0
29183,-66.6666666666667,4,2,0,60,0,0
29277,-66.6666666666667,4,2,0,30,0,0
29371,-66.6666666666667,4,2,0,60,0,0
30214,-66.6666666666667,4,2,0,30,0,0
30308,-66.6666666666667,4,2,0,60,0,0
30496,-66.6666666666667,4,2,0,30,0,0
30589,-66.6666666666667,4,2,0,60,0,0
30777,-66.6666666666667,4,2,0,30,0,0
30871,-66.6666666666667,4,2,0,60,0,0
32089,-66.6666666666667,4,2,0,30,0,0
32183,-66.6666666666667,4,2,0,60,0,0
32277,-66.6666666666667,4,2,0,30,0,0
32371,-66.6666666666667,4,2,0,60,0,0
32464,-66.6666666666667,4,2,0,30,0,0
32558,-66.6666666666667,4,2,0,60,0,0
33214,-66.6666666666667,4,2,0,30,0,0
33308,-66.6666666666667,4,2,0,60,0,0
33496,-66.6666666666667,4,2,0,30,0,0
33589,-66.6666666666667,4,2,0,60,0,0
34339,-66.6666666666667,4,2,0,30,0,0
34433,-66.6666666666667,4,2,0,60,0,0
34527,-66.6666666666667,4,2,0,30,0,0
34621,-66.6666666666667,4,2,0,60,0,0
35089,-66.6666666666667,4,2,0,30,0,0
35183,-66.6666666666667,4,2,0,60,0,0
35277,-66.6666666666667,4,2,0,30,0,0
35371,-66.6666666666667,4,2,0,60,0,0
36871,-66.6666666666667,4,3,0,60,0,1
36964,-66.6666666666667,4,3,0,30,0,1
37058,-66.6666666666667,4,3,0,60,0,1
37246,-66.6666666666667,4,3,0,30,0,1
37339,-66.6666666666667,4,3,0,60,0,1
37527,-66.6666666666667,4,3,0,30,0,1
37621,-66.6666666666667,4,3,0,60,0,1
38746,-66.6666666666667,4,3,0,30,0,1
38839,-66.6666666666667,4,3,0,60,0,1
39027,-66.6666666666667,4,3,0,30,0,1
39121,-66.6666666666667,4,3,0,60,0,1
40527,-66.6666666666667,4,3,0,30,0,1
40621,-66.6666666666667,4,3,0,60,0,1
41746,-66.6666666666667,4,3,0,30,0,1
41839,-66.6666666666667,4,3,0,60,0,1
42027,-66.6666666666667,4,3,0,30,0,1
42121,-66.6666666666667,4,3,0,60,0,1
42964,-66.6666666666667,4,3,0,30,0,1
43058,-66.6666666666667,4,3,0,60,0,1
43246,-66.6666666666667,4,3,0,30,0,1
43339,-66.6666666666667,4,3,0,60,0,1
43527,-66.6666666666667,4,3,0,30,0,1
43621,-66.6666666666667,4,3,0,60,0,1
44746,-66.6666666666667,4,3,0,30,0,1
44839,-66.6666666666667,4,3,0,60,0,1
45027,-66.6666666666667,4,3,0,30,0,1
45121,-66.6666666666667,4,3,0,60,0,1
46527,-66.6666666666667,4,3,0,30,0,1
46621,-66.6666666666667,4,3,0,60,0,1
48027,-66.6666666666667,4,3,0,30,0,1
48121,-66.6666666666667,4,3,0,60,0,1
48402,-66.6666666666667,4,3,0,30,0,1
48496,-66.6666666666667,4,3,0,60,0,1
48964,-66.6666666666667,4,3,0,30,0,1
49058,-66.6666666666667,4,3,0,60,0,1
49246,-66.6666666666667,4,3,0,30,0,1
49339,-66.6666666666667,4,3,0,60,0,1
49527,-66.6666666666667,4,3,0,30,0,1
49621,-66.6666666666667,4,3,0,60,0,1
50558,-66.6666666666667,4,3,0,30,0,1
50652,-66.6666666666667,4,3,0,60,0,1
51027,-66.6666666666667,4,3,0,30,0,1
51121,-66.6666666666667,4,3,0,60,0,1
52058,-66.6666666666667,4,3,0,30,0,1
52152,-66.6666666666667,4,3,0,60,0,1
52527,-66.6666666666667,4,3,0,30,0,1
52621,-66.6666666666667,4,3,0,60,0,1
53558,-66.6666666666667,4,3,0,30,0,1
53652,-66.6666666666667,4,3,0,60,0,1
53839,-66.6666666666667,4,3,0,30,0,1
53933,-66.6666666666667,4,3,0,60,0,1
54027,-66.6666666666667,4,3,0,30,0,1
54121,-66.6666666666667,4,3,0,60,0,1
54964,-66.6666666666667,4,3,0,30,0,1
55058,-66.6666666666667,4,3,0,60,0,1
55246,-66.6666666666667,4,3,0,30,0,1
55339,-66.6666666666667,4,3,0,60,0,1
55527,-66.6666666666667,4,3,0,30,0,1
55621,-66.6666666666667,4,3,0,60,0,1
56746,-66.6666666666667,4,3,0,30,0,1
56839,-66.6666666666667,4,3,0,60,0,1
57027,-66.6666666666667,4,3,0,30,0,1
57121,-66.6666666666667,4,3,0,60,0,1
57964,-66.6666666666667,4,3,0,30,0,1
58058,-66.6666666666667,4,3,0,60,0,1
58714,-66.6666666666667,4,3,0,30,0,1
58808,-66.6666666666667,4,3,0,60,0,1
59464,-66.6666666666667,4,3,0,30,0,1
59558,-66.6666666666667,4,3,0,60,0,1
60871,-66.6666666666667,4,2,0,60,0,0
63214,-66.6666666666667,4,2,0,30,0,0
63308,-66.6666666666667,4,2,0,60,0,0
63496,-66.6666666666667,4,2,0,30,0,0
63589,-66.6666666666667,4,2,0,60,0,0
63777,-66.6666666666667,4,2,0,30,0,0
63871,-66.6666666666667,4,2,0,60,0,0
66308,-66.6666666666667,4,2,0,30,0,0
66402,-66.6666666666667,4,2,0,60,0,0
71746,-66.6666666666667,4,2,0,60,0,0
72121,-66.6666666666667,4,2,0,60,0,0
72308,-66.6666666666667,4,2,0,30,0,0
72402,-66.6666666666667,4,2,0,60,0,0
72589,-66.6666666666667,4,2,0,30,0,0
72683,-66.6666666666667,4,2,0,60,0,0
75214,-66.6666666666667,4,2,0,30,0,0
75308,-66.6666666666667,4,2,0,60,0,0
75496,-66.6666666666667,4,2,0,30,0,0
75589,-66.6666666666667,4,2,0,60,0,0
75777,-66.6666666666667,4,2,0,30,0,0
75871,-66.6666666666667,4,2,0,60,0,0
78214,-66.6666666666667,4,2,0,30,0,0
78308,-66.6666666666667,4,2,0,60,0,0
78496,-66.6666666666667,4,2,0,30,0,0
78589,-66.6666666666667,4,2,0,60,0,0
81214,-66.6666666666667,4,2,0,30,0,0
81308,-66.6666666666667,4,2,0,60,0,0
81496,-66.6666666666667,4,2,0,30,0,0
81589,-66.6666666666667,4,2,0,60,0,0
83371,-66.6666666666667,4,2,0,60,0,0
84871,-66.6666666666667,4,3,0,60,0,1
85246,-66.6666666666667,4,3,0,30,0,1
85339,-66.6666666666667,4,3,0,60,0,1
85339,-66.6666666666667,4,3,0,30,0,1
85902,-66.6666666666667,4,3,0,30,0,1
85996,-66.6666666666667,4,3,0,60,0,1
88058,-66.6666666666667,4,3,0,30,0,1
88152,-66.6666666666667,4,3,0,60,0,1
88339,-66.6666666666667,4,3,0,30,0,1
88433,-66.6666666666667,4,3,0,60,0,1
91058,-66.6666666666667,4,3,0,30,0,1
91152,-66.6666666666667,4,3,0,60,0,1
91339,-66.6666666666667,4,3,0,30,0,1
91433,-66.6666666666667,4,3,0,60,0,1
92746,-66.6666666666667,4,3,0,30,0,1
92839,-66.6666666666667,4,3,0,60,0,1
94058,-66.6666666666667,4,3,0,30,0,1
94152,-66.6666666666667,4,3,0,60,0,1
94339,-66.6666666666667,4,3,0,30,0,1
94433,-66.6666666666667,4,3,0,60,0,1
108402,-66.6666666666667,4,3,0,30,0,1
108496,-66.6666666666667,4,3,0,60,0,1
108777,-66.6666666666667,4,3,0,30,0,1
108871,-66.6666666666667,4,2,0,60,0,0
109808,-66.6666666666667,4,2,0,30,0,0
109902,-66.6666666666667,4,2,0,60,0,0
111308,-66.6666666666667,4,2,0,30,0,0
111402,-66.6666666666667,4,2,0,60,0,0
112808,-66.6666666666667,4,2,0,30,0,0
112902,-100,4,2,0,60,0,0

[Colours]
Combo1 : 185,192,50
Combo2 : 236,81,36
Combo3 : 123,234,184
Combo4 : 242,128,13

[HitObjects]
92,284,871,5,0,0:0:0:0:
164,88,1246,2,0,B|187:69|187:69|227:69,1,70
340,72,1621,1,8,0:0:0:0:
424,280,1996,1,0,0:0:0:0:
204,288,2371,5,0,0:0:0:0:
292,224,2558,1,0,0:0:0:0:
380,152,2746,2,0,B|371:112|371:112|338:82,1,70
244,44,3121,1,8,0:0:0:0:
104,216,3496,1,0,0:0:0:0:
300,112,3871,5,0,0:0:0:0:
340,332,4246,2,0,B|300:343|300:343|272:333,1,70
168,292,4621,1,8,0:0:0:0:
368,204,4996,1,0,0:0:0:0:
160,120,5371,5,0,0:0:0:0:
264,80,5558,1,0,0:0:0:0:
376,96,5746,2,0,B|410:112|410:112|426:139,1,70
464,244,6121,1,8,0:0:0:0:
265,148,6496,1,0,0:0:0:0:
60,248,6871,5,0,0:0:0:0:
283,213,7246,2,0,B|286:182|286:182|265:148,1,70,8|0,0:0|0:0,0:0:0:0:
171,86,7621,2,0,B|140:90|140:90|112:119,1,70,8|0,0:0|0:0,0:0:0:0:
48,200,7996,1,8,0:0:0:0:
340,88,8371,5,0,0:0:0:0:
264,160,8558,2,0,B|247:186|247:186|251:226,1,70,8|0,0:0|0:0,0:0:0:0:
304,320,8933,1,0,0:0:0:0:
452,316,9121,1,0,0:0:0:0:
396,100,9496,1,8,0:0:0:0:
232,220,9871,5,0,0:0:0:0:
72,312,10246,2,0,B|81:282|81:282|116:262,1,70,8|0,0:0|0:0,0:0:0:0:
232,220,10621,2,0,B|262:224|262:224|288:255,1,70,8|0,0:0|0:0,0:0:0:0:
352,352,10996,1,8,0:0:0:0:
460,156,11371,5,0,0:0:0:0:
352,140,11558,2,0,B|341:111|341:111|305:93,1,70,8|0,0:0|0:0,0:0:0:0:
196,96,11933,1,0,0:0:0:0:
200,228,12121,2,0,B|170:236|170:236|134:217,1,70,8|0,0:0|0:0,0:0:0:0:
196,96,12496,1,8,0:0:0:0:
304,176,12683,1,0,0:0:0:0:
57,109,12871,5,0,0:0:0:0:
86,294,13246,1,0,0:0:0:0:
193,325,13433,1,0,0:0:0:0:
306,328,13621,2,0,L|352:271,1,59.5000011348725,8|0,0:0|0:0,0:0:0:0:
458,118,13996,1,0,0:0:0:0:
282,220,14371,5,0,0:0:0:0:
167,213,14558,2,0,P|142:195|130:166,1,52.5000020027161,8|0,3:0|0:0,0:0:0:0:
93,187,14746,2,0,P|86:157|96:128,1,52.5000020027161,8|0,3:0|0:0,0:0:0:0:
133,32,14933,1,0,0:0:0:0:
223,96,15121,2,0,L|293:144,1,59.5000011348725,8|0,0:0|0:0,0:0:0:0:
431,238,15496,1,0,0:0:0:0:
237,209,15683,2,0,P|207:217|186:240,1,52.5000020027161,8|0,3:0|0:0,0:0:0:0:
158,208,15871,6,0,P|141:233|140:264,1,52.5000020027161,8|0,3:0|0:0,0:0:0:0:
301,355,16246,1,0,0:0:0:0:
344,256,16433,1,0,0:0:0:0:
325,149,16621,2,0,L|241:103,1,59.5000011348725,8|0,0:0|0:0,0:0:0:0:
108,35,16996,1,0,0:0:0:0:
219,193,17371,5,0,0:0:0:0:
321,218,17558,2,0,P|351:214|376:195,1,52.5000020027161,8|0,3:0|0:0,0:0:0:0:
398,232,17746,2,0,P|419:209|424:179,1,52.5000020027161,8|0,3:0|0:0,0:0:0:0:
449,87,17933,1,0,0:0:0:0:
343,97,18121,2,0,L|276:124,1,59.5000011348725,8|0,0:0|0:0,0:0:0:0:
100,190,18496,1,0,0:0:0:0:
147,91,18683,2,0,P|173:75|204:76,1,52.5000020027161,8|0,3:0|0:0,0:0:0:0:
200,33,18871,6,0,P|230:38|252:59,1,52.5000020027161,8|0,3:0|0:0,0:0:0:0:
392,189,19246,1,0,0:0:0:0:
354,290,19433,1,0,0:0:0:0:
261,344,19621,2,0,L|190:293,1,59.5000011348725,8|0,0:0|0:0,0:0:0:0:
57,193,19996,1,0,0:0:0:0:
269,232,20371,5,0,0:0:0:0:
372,232,20558,2,0,P|398:246|412:275,1,52.5000020027161,8|0,3:0|0:0,0:0:0:0:
448,250,20746,2,0,P|457:278|449:308,1,52.5000020027161,8|0,3:0|0:0,0:0:0:0:
404,320,20933,1,0,0:0:0:0:
301,283,21121,2,0,L|254:209,1,59.5000011348725,8|0,0:0|0:0,0:0:0:0:
360,124,21496,1,8,0:0:0:0:
395,122,21589,1,0,0:0:0:0:
429,132,21683,1,0,0:0:0:0:
457,152,21777,1,0,0:0:0:0:
476,182,21871,1,8,0:0:0:0:
92,288,22246,5,8,0:0:0:0:
216,192,22433,1,0,0:0:0:0:
348,280,22621,1,8,0:0:0:0:
436,96,22996,1,2,0:0:0:0:
120,108,23371,5,8,0:0:0:0:
284,176,23558,1,0,0:0:0:0:
124,236,23746,1,8,0:0:0:0:
232,84,23933,1,0,0:0:0:0:
228,274,24121,1,8,0:0:0:0:
120,108,24496,1,2,0:0:0:0:
360,288,24871,5,8,0:0:0:0:
232,84,25246,1,0,0:0:0:0:
119,300,25621,1,8,0:0:0:0:
360,288,25996,2,0,L|408:217,1,52.5000020027161
410,188,26183,2,0,L|458:117,1,52.5000020027161
448,84,26371,5,8,0:0:0:0:
244,192,26746,1,0,0:0:0:0:
452,296,27121,2,0,B|476:276|476:276|468:244,1,52.5000020027161,8|0,0:0|0:0,0:0:0:0:
344,88,27402,2,0,B|320:108|320:108|327:140,1,52.5000020027161,2|0,0:0|0:0,0:0:0:0:
120,88,27683,2,0,B|89:92|89:92|70:65,1,52.5000020027161
72,192,27871,5,8,0:0:0:0:
264,64,28246,1,0,0:0:0:0:
284,296,28621,1,8,0:0:0:0:
72,192,28996,2,0,L|156:176,1,52.5000020027161
178,156,29183,2,0,L|262:140,1,52.5000020027161
284,128,29371,5,8,0:0:0:0:
60,68,29746,1,0,0:0:0:0:
132,288,30121,2,0,B|156:308|156:308|148:340,1,52.5000020027161,8|0,0:0|0:0,0:0:0:0:
352,284,30402,2,0,B|371:308|371:308|403:301,1,52.5000020027161,2|0,0:0|0:0,0:0:0:0:
440,104,30683,2,0,B|464:84|464:84|456:52,1,52.5000020027161
350,48,30871,5,8,0:0:0:0:
233,248,31246,1,0,0:0:0:0:
463,248,31621,1,8,0:0:0:0:
350,48,31996,2,0,L|265:66,1,52.5000020027161
248,84,32183,2,0,L|163:102,1,52.5000020027161
141,115,32371,6,0,B|139:136|139:136|110:148,1,52.5000020027161,8|0,0:0|0:0,0:0:0:0:
250,242,32746,1,0,0:0:0:0:
326,94,33121,2,0,B|355:82|355:82|358:50,1,52.5000020027161,8|0,0:0|0:0,0:0:0:0:
338,291,33402,2,0,B|354:317|354:317|336:345,1,52.5000020027161,8|0,0:0|0:0,0:0:0:0:
426,212,33683,1,0,0:0:0:0:
220,316,33871,5,8,0:0:0:0:
191,295,33964,1,0,0:0:0:0:
171,267,34058,1,0,0:0:0:0:
161,233,34152,1,0,0:0:0:0:
160,199,34246,2,0,L|200:156,3,52.5000020027161,8|0|0|0,0:0|0:0|0:0|0:0,0:0:0:0:
261,209,34621,5,8,0:0:0:0:
278,180,34714,1,0,0:0:0:0:
283,146,34808,1,0,0:0:0:0:
276,114,34902,1,0,0:0:0:0:
266,80,34996,2,0,L|224:36,3,52.5000020027161,8|0|0|0,0:0|0:0|0:0|0:0,0:0:0:0:
161,62,35371,5,12,0:0:0:0:
377,100,35558,1,0,0:0:0:0:
148,130,35746,1,8,0:0:0:0:
364,169,35933,1,0,0:0:0:0:
183,280,36121,5,12,0:0:0:0:
85,83,36308,1,8,0:0:0:0:
279,183,36496,1,8,0:0:0:0:
65,223,36683,1,8,0:0:0:0:
212,60,36871,6,0,B|238:43|238:43|266:60,1,52.5000020027161
437,181,37152,2,0,B|457:204|457:204|444:234,1,52.5000020027161
249,323,37433,2,0,B|219:316|219:316|211:284,1,52.5000020027161
211,258,37621,1,0,0:0:0:0:
351,103,37808,1,8,0:0:0:0:
145,147,37996,1,0,0:0:0:0:
330,264,38183,5,0,0:0:0:0:
330,264,38277,1,0,0:0:0:0:
330,264,38371,1,8,0:0:0:0:
132,195,38652,2,0,P|134:161|164:131,1,52.5000020027161,8|0,0:0|0:0,0:0:0:0:
234,60,38933,2,0,P|267:56|303:79,1,52.5000020027161,8|0,0:0|0:0,0:0:0:0:
378,103,39121,1,0,0:0:0:0:
205,191,39308,1,8,0:0:0:0:
407,200,39496,1,0,0:0:0:0:
209,285,39683,5,0,0:0:0:0:
209,285,39777,1,0,0:0:0:0:
209,285,39871,1,8,0:0:0:0:
378,103,40152,1,0,0:0:0:0:
174,80,40433,2,0,P|146:100|136:141,1,52.5000020027161,8|0,0:0|0:0,0:0:0:0:
111,213,40621,1,0,0:0:0:0:
303,295,40808,1,8,0:0:0:0:
284,62,40996,1,0,0:0:0:0:
111,213,41183,5,0,0:0:0:0:
111,213,41277,1,0,0:0:0:0:
111,213,41371,1,8,0:0:0:0:
384,36,41652,2,0,P|411:78|407:109,1,52.5000020027161,8|0,0:0|0:0,0:0:0:0:
432,232,41933,2,0,P|407:276|377:286,1,52.5000020027161,8|0,0:0|0:0,0:0:0:0:
316,320,42121,1,0,0:0:0:0:
168,314,42308,1,0,0:0:0:0:
73,201,42496,1,12,0:0:0:0:
256,84,42871,6,0,B|267:54|267:54|299:52,1,52.5000020027161
369,258,43152,2,0,B|392:278|392:278|383:309,1,52.5000020027161
168,262,43433,2,0,B|137:259|137:259|124:229,1,52.5000020027161
106,135,43621,1,0,0:0:0:0:
271,263,43808,1,8,0:0:0:0:
182,71,43996,1,0,0:0:0:0:
323,159,44183,6,0,L|391:160,2,52.5000020027161
149,315,44652,2,0,P|179:329|220:320,1,52.5000020027161,8|0,0:0|0:0,0:0:0:0:
353,306,44933,2,0,P|383:291|402:253,1,52.5000020027161,8|0,0:0|0:0,0:0:0:0:
449,192,45121,1,0,0:0:0:0:
283,63,45308,1,8,0:0:0:0:
335,237,45496,1,0,0:0:0:0:
382,67,45683,6,0,L|445:55,2,52.5000020027161
152,81,46152,1,0,0:0:0:0:
194,281,46433,2,0,P|170:305|128:310,1,52.5000020027161,8|0,0:0|0:0,0:0:0:0:
52,321,46621,1,0,0:0:0:0:
260,344,46808,1,8,0:0:0:0:
124,184,46996,1,0,0:0:0:0:
287,227,47183,6,0,L|338:250,2,52.5000020027161
141,114,47558,1,0,0:0:0:0:
141,114,47652,2,0,P|108:110|74:133,1,52.5000020027161,8|0,0:0|0:0,0:0:0:0:
268,64,47933,2,0,P|301:64|332:90,1,52.5000020027161,8|0,0:0|0:0,0:0:0:0:
401,120,48121,1,8,0:0:0:0:
317,227,48308,2,0,P|350:227|381:253,1,52.5000020027161,8|0,0:0|0:0,0:0:0:0:
450,283,48496,1,0,0:0:0:0:
401,120,48871,6,0,B|404:99|404:99|441:83,1,52.5000020027161,10|0,0:0|0:0,0:0:0:0:
244,148,49152,2,0,B|243:127|243:127|213:106,1,52.5000020027161,2|0,0:0|0:0,0:0:0:0:
298,317,49433,2,0,B|288:333|288:333|248:336,1,52.5000020027161,10|0,0:0|0:0,0:0:0:0:
153,335,49621,1,0,0:0:0:0:
65,144,49808,1,8,0:0:0:0:
288,112,49996,1,8,0:0:0:0:
172,216,50183,5,0,0:0:0:0:
154,229,50277,1,0,0:0:0:0:
138,244,50371,2,0,P|176:277|239:276,1,105.000004005432,8|0,0:0|0:0,0:0:0:0:
264,276,50652,2,0,L|334:258,1,52.5000020027161,8|0,0:0|0:0,0:0:0:0:
400,120,50933,2,0,P|374:98|332:96,1,52.5000020027161,8|0,0:0|0:0,0:0:0:0:
256,88,51121,1,0,0:0:0:0:
420,220,51308,1,8,0:0:0:0:
220,152,51496,1,0,0:0:0:0:
324,240,51683,5,0,0:0:0:0:
341,261,51777,1,0,0:0:0:0:
352,285,51871,2,0,P|320:324|258:332,1,105.000004005432,8|0,0:0|0:0,0:0:0:0:
232,332,52152,1,0,0:0:0:0:
84,192,52433,2,0,P|94:159|129:136,1,52.5000020027161,8|0,0:0|0:0,0:0:0:0:
180,80,52621,1,0,0:0:0:0:
368,172,52808,1,8,0:0:0:0:
224,20,52996,1,0,0:0:0:0:
216,156,53183,5,0,0:0:0:0:
216,179,53277,1,0,0:0:0:0:
217,205,53371,2,0,P|249:243|311:249,1,105.000004005432,8|0,0:0|0:0,0:0:0:0:
382,289,53652,2,0,L|369:345,2,52.5000020027161
292,172,53933,2,0,L|289:112,1,52.5000020027161,10|0,0:0|0:0,0:0:0:0:
284,31,54121,1,0,0:0:0:0:
467,81,54308,1,8,0:0:0:0:
221,83,54496,2,0,L|181:149,1,52.5000020027161,10|0,0:0|0:0,0:0:0:0:
384,296,54871,6,0,B|387:275|387:275|424:259,1,52.5000020027161,8|0,0:0|0:0,0:0:0:0:
289,119,55152,2,0,B|267:121|267:121|241:91,1,52.5000020027161
100,248,55433,2,0,B|106:227|106:227|145:218,1,52.5000020027161,10|0,0:0|0:0,0:0:0:0:
236,204,55621,1,0,0:0:0:0:
379,290,55808,1,10,0:0:0:0:
401,291,55902,1,0,0:0:0:0:
423,290,55996,2,0,B|455:253|455:253|443:179,1,105.000004005432,0|0,0:0|0:0,0:0:0:0:
442,171,56277,1,0,0:0:0:0:
438,144,56371,1,8,0:0:0:0:
204,73,56652,6,0,P|178:74|155:87,1,52.5000020027161,8|0,0:0|0:0,0:0:0:0:
43,240,56933,2,0,P|43:266|55:289,1,52.5000020027161,8|0,0:0|0:0,0:0:0:0:
144,323,57121,1,0,0:0:0:0:
156,88,57308,1,10,0:0:0:0:
213,268,57496,1,0,0:0:0:0:
242,90,57683,5,0,0:0:0:0:
267,83,57777,1,0,0:0:0:0:
292,76,57871,2,0,L|366:88,1,52.5000020027161,8|0,0:0|0:0,0:0:0:0:
490,110,58152,1,0,0:0:0:0:
359,285,58433,1,10,0:0:0:0:
343,305,58527,1,0,0:0:0:0:
323,322,58621,2,0,L|263:328,1,52.5000020027161,8|0,0:0|0:0,0:0:0:0:
123,331,58902,1,0,0:0:0:0:
302,181,59183,5,10,0:0:0:0:
290,158,59277,1,0,0:0:0:0:
275,137,59371,2,0,L|219:121,1,52.5000020027161,8|0,0:0|0:0,0:0:0:0:
91,89,59652,1,0,0:0:0:0:
113,258,59933,1,2,0:0:0:0:
248,152,60121,5,8,0:0:0:0:
272,316,60308,1,0,0:0:0:0:
113,258,60496,1,8,0:0:0:0:
392,184,60683,1,2,0:0:0:0:
152,116,60871,5,12,0:0:0:0:
296,296,61246,1,0,0:0:0:0:
380,76,61621,1,8,0:0:0:0:
152,116,61996,1,0,0:0:0:0:
228,204,62183,1,0,0:0:0:0:
264,96,62371,5,8,0:0:0:0:
384,292,62746,1,0,0:0:0:0:
152,292,63121,2,0,B|132:283|132:283|125:244,1,52.5000020027161,8|0,0:0|0:0,0:0:0:0:
180,148,63402,2,0,B|199:138|199:138|234:157,1,52.5000020027161
328,208,63683,2,0,B|348:199|348:199|355:160,1,52.5000020027161,2|0,0:0|0:0,0:0:0:0:
376,116,63871,5,8,0:0:0:0:
156,188,64246,1,0,0:0:0:0:
328,340,64621,1,8,0:0:0:0:
376,116,64996,1,0,0:0:0:0:
352,228,65183,1,0,0:0:0:0:
264,152,65371,5,8,0:0:0:0:
47,232,65746,1,0,0:0:0:0:
203,59,66121,2,0,P|253:45|305:52,1,105,8|0,0:0|0:0,0:0:0:0:
332,63,66402,1,0,0:0:0:0:
352,85,66496,1,0,0:0:0:0:
370,114,66589,1,0,0:0:0:0:
376,148,66683,1,2,0:0:0:0:
372,184,66777,1,0,0:0:0:0:
357,213,66871,1,8,0:0:0:0:
203,59,67246,5,0,0:0:0:0:
323,255,67621,1,8,0:0:0:0:
435,51,67996,1,0,0:0:0:0:
319,55,68183,1,0,0:0:0:0:
203,59,68371,6,0,L|191:111,1,52.5000020027161,8|0,0:0|0:0,0:0:0:0:
151,279,68746,1,0,0:0:0:0:
304,52,69121,6,0,L|316:104,1,52.5000020027161,8|0,0:0|0:0,0:0:0:0:
356,244,69402,1,0,0:0:0:0:
127,205,69683,1,2,0:0:0:0:
203,59,69871,5,12,0:0:0:0:
215,215,70058,1,0,0:0:0:0:
315,103,70246,1,8,0:0:0:0:
356,244,70433,1,2,0:0:0:0:
206,139,70621,5,12,0:0:0:0:
196,295,70808,1,0,0:0:0:0:
54,224,70996,1,8,0:0:0:0:
215,215,71183,1,2,0:0:0:0:
79,48,71371,5,12,0:0:0:0:
136,220,71558,1,0,0:0:0:0:
221,120,71746,6,0,L|214:67,1,35.0000013351441
249,96,71871,6,0,L|242:43,1,35.0000013351441
277,72,71996,6,0,L|270:19,1,35.0000013351441
323,65,72121,6,0,P|345:110|430:145,1,105.000004005432,8|0,0:0|0:0,0:0:0:0:
462,155,72371,2,0,B|488:184|488:184|494:247,1,105.000004005432,8|0,0:0|0:0,0:0:0:0:
501,323,72621,1,10,0:0:0:0:
300,224,72871,5,12,0:0:0:0:
124,76,73246,1,0,0:0:0:0:
80,304,73621,1,8,0:0:0:0:
296,232,73996,2,0,L|374:198,1,52.5000020027161
387,172,74183,2,0,L|465:138,1,52.5000020027161
476,109,74371,5,8,0:0:0:0:
364,309,74746,1,0,0:0:0:0:
288,93,75121,2,0,B|281:71|281:71|244:59,1,52.5000020027161,8|0,0:0|0:0,0:0:0:0:
148,256,75402,2,0,B|128:265|128:265|121:304,1,52.5000020027161
343,277,75683,2,0,B|363:268|363:268|370:229,1,52.5000020027161,2|0,0:0|0:0,0:0:0:0:
385,138,75871,5,8,0:0:0:0:
155,164,76246,1,0,0:0:0:0:
293,349,76621,1,8,0:0:0:0:
368,130,76996,2,0,L|284:114,1,52.5000020027161
262,99,77183,2,0,L|178:83,1,52.5000020027161
155,70,77371,5,8,0:0:0:0:
390,63,77746,1,0,0:0:0:0:
191,186,78121,2,0,B|169:183|169:183|142:212,1,52.5000020027161,8|0,0:0|0:0,0:0:0:0:
368,186,78402,2,0,B|389:183|389:183|416:212,1,52.5000020027161
218,315,78683,2,0,B|239:312|239:312|256:276,1,52.5000020027161
285,188,78871,5,8,0:0:0:0:
100,49,79246,1,0,0:0:0:0:
73,278,79621,1,8,0:0:0:0:
285,188,79996,2,0,L|366:161,1,52.5000020027161
386,145,80183,2,0,L|467:118,1,52.5000020027161
485,98,80371,6,0,B|504:87|504:87|510:49,1,52.5000020027161,8|0,0:0|0:0,0:0:0:0:
176,64,80746,1,0,0:0:0:0:
113,275,81121,2,0,B|107:296|107:296|71:310,1,52.5000020027161,8|0,0:0|0:0,0:0:0:0:
275,207,81402,2,0,B|296:204|296:204|323:233,1,52.5000020027161
406,334,81683,1,2,0:0:0:0:
480,232,81871,6,0,L|465:166,3,52.5000020027161
450,148,82246,2,0,L|403:103,1,52.5000020027161
377,98,82433,2,0,L|322:107,1,52.5000020027161
291,118,82621,6,0,L|225:152,3,52.5000020027161
214,158,82996,1,0,0:0:0:0:
183,174,83089,1,0,0:0:0:0:
152,191,83183,1,0,0:0:0:0:
121,208,83277,1,0,0:0:0:0:
89,223,83371,5,12,0:0:0:0:
168,88,83558,1,0,0:0:0:0:
260,240,83746,1,8,0:0:0:0:
344,60,83933,1,0,0:0:0:0:
432,260,84120,5,12,0:0:0:0:
244,144,84308,1,8,0:0:0:0:
464,144,84496,1,8,0:0:0:0:
308,268,84683,1,8,0:0:0:0:
404,56,84871,5,8,0:0:0:0:
137,78,85152,2,0,B|116:80|116:80|94:112,1,52.5000020027161,2|0,0:0|0:0,0:0:0:0:
62,180,85433,1,8,0:0:0:0:
244,144,85621,1,0,0:0:0:0:
336,328,85808,2,0,B|323:344|323:344|284:345,1,52.5000020027161,2|0,0:0|0:0,0:0:0:0:
218,338,85996,1,8,0:0:0:0:
40,320,86183,5,0,0:0:0:0:
40,320,86277,1,0,0:0:0:0:
40,320,86370,1,8,0:0:0:0:
186,187,86652,1,0,0:0:0:0:
186,187,86746,2,0,P|225:217|275:208,1,105.000004005432,0|10,0:0|0:0,0:0:0:0:
495,168,87121,1,0,0:0:0:0:
317,114,87308,1,0,0:0:0:0:
408,144,87496,1,0,0:0:0:0:
360,276,87683,5,0,0:0:0:0:
344,308,87776,1,0,0:0:0:0:
324,340,87871,2,0,B|271:320|271:320|255:273,1,105.000004005432,8|0,0:0|0:0,0:0:0:0:
225,195,88152,2,0,B|172:214|172:214|156:261,1,105.000004005432,8|0,0:0|0:0,0:0:0:0:
139,342,88433,1,10,0:0:0:0:
135,110,88621,1,0,0:0:0:0:
309,72,88808,1,8,0:0:0:0:
447,185,88996,1,0,0:0:0:0:
357,287,89183,5,0,0:0:0:0:
338,306,89277,1,0,0:0:0:0:
312,80,89558,5,2,0:0:0:0:
184,204,89746,1,8,0:0:0:0:
364,264,89933,1,8,0:0:0:0:
216,128,90120,5,0,0:0:0:0:
256,322,90307,1,8,0:0:0:0:
317,130,90496,1,2,0:0:0:0:
124,184,90684,1,8,0:0:0:0:
328,200,90871,6,0,P|369:227|378:277,1,105.000004005432,8|0,0:0|0:0,0:0:0:0:
448,224,91152,2,0,L|428:120,1,105.000004005432,8|0,0:0|0:0,0:0:0:0:
415,37,91433,1,10,0:0:0:0:
181,102,91621,1,0,0:0:0:0:
275,200,91808,1,8,0:0:0:0:
299,228,91901,1,0,0:0:0:0:
319,260,91996,2,0,B|289:309|289:309|240:315,1,105.000004005432
211,317,92276,5,0,0:0:0:0:
179,317,92370,1,8,0:0:0:0:
99,176,92652,2,0,L|144:145,1,52.5000020027161,8|0,0:0|0:0,0:0:0:0:
275,43,92933,1,10,0:0:0:0:
35,78,93121,1,0,0:0:0:0:
219,117,93308,1,8,0:0:0:0:
286,293,93496,1,8,0:0:0:0:
410,238,93683,5,0,0:0:0:0:
442,220,93776,1,0,0:0:0:0:
472,199,93871,2,0,B|476:143|476:143|440:108,1,105.000004005432,8|2,0:0|0:0,0:0:0:0:
370,63,94152,6,0,B|328:100|328:100|329:149,1,105.000004005432,8|0,0:0|0:0,0:0:0:0:
331,233,94433,1,8,0:0:0:0:
89,220,94621,1,0,0:0:0:0:
247,339,94808,1,8,0:0:0:0:
185,148,94996,1,0,0:0:0:0:
117,289,95183,5,0,0:0:0:0:
106,316,95277,1,0,0:0:0:0:
187,78,95558,5,12,0:0:0:0:
397,165,95746,1,2,0:0:0:0:
205,221,95933,1,8,0:0:0:0:
405,97,96121,5,0,0:0:0:0:
231,27,96308,1,8,0:0:0:0:
332,224,96496,1,2,0:0:0:0:
127,142,96683,1,8,0:0:0:0:
260,324,96871,5,12,0:0:0:0:
220,131,97152,1,0,0:0:0:0:
220,131,97246,2,0,P|173:116|129:139,1,105.000004005432,8|2,0:0|0:0,0:0:0:0:
84,260,97621,1,0,0:0:0:0:
84,260,97714,1,0,0:0:0:0:
84,260,97808,1,8,0:0:0:0:
283,294,97996,1,0,0:0:0:0:
120,194,98183,6,0,L|36:155,2,52.5000020027161
219,65,98652,1,0,0:0:0:0:
219,65,98746,2,0,P|268:65|303:100,1,105.000004005432,8|2,0:0|0:0,0:0:0:0:
319,239,99121,1,0,0:0:0:0:
319,239,99215,1,0,0:0:0:0:
319,239,99309,1,8,0:0:0:0:
424,70,99496,1,0,0:0:0:0:
437,247,99683,6,0,L|474:317,2,52.5000020027161
307,172,100152,1,0,0:0:0:0:
307,172,100246,2,0,P|259:156|215:181,1,105.000004005432,8|2,0:0|0:0,0:0:0:0:
288,296,100621,1,0,0:0:0:0:
288,296,100715,1,0,0:0:0:0:
288,296,100809,1,8,0:0:0:0:
89,291,100996,1,0,0:0:0:0:
92,115,101183,6,0,L|71:62,2,52.5000020027161
258,151,101652,1,0,0:0:0:0:
289,162,101746,2,0,B|344:160|344:160|374:121,1,105.000004005432,8|2,0:0|0:0,0:0:0:0:
478,194,102121,1,0,0:0:0:0:
470,230,102214,1,0,0:0:0:0:
458,266,102308,2,0,B|402:274|402:274|376:316,1,105.000004005432,8|0,0:0|0:0,0:0:0:0:
208,302,102683,5,0,0:0:0:0:
208,302,102777,1,0,0:0:0:0:
208,302,102871,1,8,0:0:0:0:
202,113,103152,1,0,0:0:0:0:
202,113,103246,2,0,P|171:72|121:67,1,105.000004005432,8|2,0:0|0:0,0:0:0:0:
115,193,103621,1,0,0:0:0:0:
115,193,103714,1,0,0:0:0:0:
115,193,103808,1,0,0:0:0:0:
289,105,103996,1,0,0:0:0:0:
240,254,104183,5,0,0:0:0:0:
228,283,104277,1,0,0:0:0:0:
217,312,104371,1,8,0:0:0:0:
372,204,104652,1,0,0:0:0:0:
372,204,104746,2,0,P|341:163|291:158,1,105.000004005432,8|2,0:0|0:0,0:0:0:0:
170,198,105121,1,0,0:0:0:0:
170,198,105214,1,0,0:0:0:0:
170,198,105308,1,0,0:0:0:0:
334,84,105496,1,0,0:0:0:0:
178,103,105683,5,0,0:0:0:0:
147,107,105777,1,0,0:0:0:0:
116,112,105871,1,8,0:0:0:0:
227,264,106152,1,0,0:0:0:0:
227,264,106246,2,0,P|272:285|319:266,1,105.000004005432,8|2,0:0|0:0,0:0:0:0:
426,197,106621,1,0,0:0:0:0:
426,197,106714,1,0,0:0:0:0:
426,197,106808,1,0,0:0:0:0:
325,120,106996,2,0,L|275:152,1,52.5000020027161
251,168,107183,5,0,0:0:0:0:
221,188,107277,1,0,0:0:0:0:
191,207,107371,1,8,0:0:0:0:
379,209,107652,1,0,0:0:0:0:
404,203,107746,1,8,0:0:0:0:
246,80,107933,5,2,0:0:0:0:
121,158,108121,1,8,0:0:0:0:
91,180,108214,1,0,0:0:0:0:
61,202,108308,2,0,B|51:220|51:220|66:248,1,52.5000020027161,8|0,0:0|0:0,0:0:0:0:
88,278,108496,1,2,0:0:0:0:
229,196,108683,2,0,L|269:244,1,52.5000020027161
334,323,108871,1,10,0:0:0:0:
128,92,109246,5,8,0:0:0:0:
140,228,109433,1,0,0:0:0:0:
272,124,109621,2,0,L|339:211,1,105.000004005432
416,304,109996,1,2,0:0:0:0:
188,260,110371,5,8,0:0:0:0:
272,124,110558,1,0,0:0:0:0:
136,204,110746,1,8,0:0:0:0:
221,72,110933,1,0,0:0:0:0:
143,105,111121,2,0,L|225:189,1,105.000004005432
327,276,111496,1,2,0:0:0:0:
450,216,111683,5,0,0:0:0:0:
450,216,111777,1,0,0:0:0:0:
450,216,111871,1,8,0:0:0:0:
309,104,112246,1,8,0:0:0:0:
185,204,112433,1,0,0:0:0:0:
181,48,112621,2,0,L|246:152,1,105.000004005432
292,226,112996,1,2,0:0:0:0:
181,48,113371,5,8,0:0:0:0:
57,144,113558,1,0,0:0:0:0:
209,192,113746,1,8,0:0:0:0:
105,76,113933,1,0,0:0:0:0:
125,260,114121,2,0,B|117:270|117:270|133:273|133:273|118:281|118:281|134:284|134:284|120:293|120:293|134:298|134:298|127:302|127:302|129:322|130:344,1,140,8|0,0:0|0:0,0:0:0:0:
