osu file format v14

[General]
AudioFilename: audio.mp3
AudioLeadIn: 0
PreviewTime: 83365
Countdown: 0
SampleSet: Soft
StackLeniency: 0.5
Mode: 0
LetterboxInBreaks: 0
WidescreenStoryboard: 0

[Editor]
DistanceSpacing: 2.1
BeatDivisor: 4
GridSize: 4
TimelineZoom: 3.799998

[Metadata]
Title:Burnt Rice
TitleUnicode:Burnt Rice
Artist:Shawn Wasabi
ArtistUnicode:Shawn Wasabi
Creator:Greedy_Panda
Version:Extra
Source:
Tags:trap electronic electro remix YDG yung gemmy
BeatmapID:1154530
BeatmapSetID:544853

[Difficulty]
HPDrainRate:6
CircleSize:5
OverallDifficulty:8
ApproachRate:9
SliderMultiplier:1.4
SliderTickRate:1

[Events]
//Background and Video events
0,0,"rice_buddy_town_by_orangecircle-d4ui744.jpg",0,0
//Break Periods
//Storyboard Layer 0 (Background)
//Storyboard Layer 1 (Fail)
//Storyboard Layer 2 (Pass)
//Storyboard Layer 3 (Foreground)
//Storyboard Sound Samples

[TimingPoints]
871,375,4,2,0,60,1,0
7855,-100,4,2,0,30,0,0
7996,-100,4,2,0,60,0,0
8605,-100,4,2,0,30,0,0
8746,-100,4,2,0,60,0,0
10855,-100,4,2,0,30,0,0
10996,-100,4,2,0,60,0,0
12871,-83.3333333333333,4,2,0,60,0,0
13621,-55.5555555555556,4,2,0,60,0,0
13714,-83.3333333333333,4,2,0,30,0,0
13808,-83.3333333333333,4,2,0,60,0,0
14558,-55.5555555555556,4,2,0,40,0,0
14652,-83.3333333333333,4,2,0,15,0,0
14746,-55.5555555555556,4,2,0,40,0,0
14839,-83.3333333333333,4,2,0,15,0,0
14933,-83.3333333333333,4,2,0,60,0,0
15121,-55.5555555555556,4,2,0,60,0,0
15214,-83.3333333333333,4,2,0,30,0,0
15308,-83.3333333333333,4,2,0,60,0,0
15683,-55.5555555555556,4,2,0,40,0,0
15777,-83.3333333333333,4,2,0,15,0,0
15871,-55.5555555555556,4,2,0,40,0,0
15964,-83.3333333333333,4,2,0,15,0,0
16058,-83.3333333333333,4,2,0,60,0,0
16621,-55.5555555555556,4,2,0,60,0,0
16714,-83.3333333333333,4,2,0,30,0,0
16808,-83.3333333333333,4,2,0,60,0,0
17558,-55.5555555555556,4,2,0,40,0,0
17652,-83.3333333333333,4,2,0,15,0,0
17746,-55.5555555555556,4,2,0,40,0,0
17839,-83.3333333333333,4,2,0,15,0,0
17933,-83.3333333333333,4,2,0,60,0,0
18121,-55.5555555555556,4,2,0,60,0,0
18214,-83.3333333333333,4,2,0,30,0,0
18308,-83.3333333333333,4,2,0,60,0,0
18683,-55.5555555555556,4,2,0,40,0,0
18777,-83.3333333333333,4,2,0,15,0,0
18871,-55.5555555555556,4,2,0,40,0,0
18964,-83.3333333333333,4,2,0,15,0,0
19058,-83.3333333333333,4,2,0,60,0,0
19621,-55.5555555555556,4,2,0,60,0,0
19714,-55.5555555555556,4,2,0,60,0,0
19808,-83.3333333333333,4,2,0,60,0,0
20558,-55.5555555555556,4,2,0,40,0,0
20652,-83.3333333333333,4,2,0,15,0,0
20746,-55.5555555555556,4,2,0,40,0,0
20839,-83.3333333333333,4,2,0,15,0,0
20933,-83.3333333333333,4,2,0,60,0,0
21121,-55.5555555555556,4,2,0,60,0,0
21214,-83.3333333333333,4,2,0,30,0,0
21308,-83.3333333333333,4,2,0,60,0,0
24871,-100,4,2,0,60,0,0
26089,-100,4,2,0,30,0,0
26183,-100,4,2,0,60,0,0
27121,-66.6666666666667,4,2,0,60,0,0
27214,-66.6666666666667,4,2,0,30,0,0
27308,-66.6666666666667,4,2,0,60,0,0
27496,-66.6666666666667,4,2,0,30,0,0
27589,-66.6666666666667,4,2,0,60,0,0
27777,-66.6666666666667,4,2,0,30,0,0
27871,-100,4,2,0,60,0,0
29089,-100,4,2,0,30,0,0
29183,-100,4,2,0,60,0,0
30121,-66.6666666666667,4,2,0,60,0,0
30214,-66.6666666666667,4,2,0,30,0,0
30308,-66.6666666666667,4,2,0,60,0,0
30496,-66.6666666666667,4,2,0,30,0,0
30589,-66.6666666666667,4,2,0,60,0,0
30777,-66.6666666666667,4,2,0,30,0,0
30871,-100,4,2,0,60,0,0
32089,-100,4,2,0,30,0,0
32183,-100,4,2,0,60,0,0
32371,-66.6666666666667,4,2,0,60,0,0
32558,-100,4,2,0,60,0,0
33121,-66.6666666666667,4,2,0,60,0,0
33214,-66.6666666666667,4,2,0,30,0,0
33308,-66.6666666666667,4,2,0,60,0,0
33496,-66.6666666666667,4,2,0,30,0,0
33589,-100,4,2,0,60,0,0
33871,-83.3333333333333,4,2,0,60,0,0
33964,-83.3333333333333,4,2,0,30,0,0
34058,-83.3333333333333,4,2,0,60,0,0
34152,-83.3333333333333,4,2,0,30,0,0
34246,-83.3333333333333,4,2,0,60,0,0
34714,-83.3333333333333,4,2,0,30,0,0
34808,-83.3333333333333,4,2,0,60,0,0
34902,-83.3333333333333,4,2,0,30,0,0
34996,-83.3333333333333,4,2,0,60,0,0
36871,-66.6666666666667,4,3,0,60,0,1
36964,-66.6666666666667,4,3,0,30,0,1
37058,-66.6666666666667,4,3,0,60,0,1
37246,-66.6666666666667,4,3,0,30,0,1
37339,-66.6666666666667,4,3,0,60,0,1
37527,-66.6666666666667,4,3,0,30,0,1
37621,-66.6666666666667,4,3,0,60,0,1
38558,-66.6666666666667,4,3,0,30,0,1
38652,-66.6666666666667,4,3,0,60,0,1
39027,-66.6666666666667,4,3,0,30,0,1
39121,-66.6666666666667,4,3,0,60,0,1
40058,-66.6666666666667,4,3,0,30,0,1
40152,-66.6666666666667,4,3,0,60,0,1
40527,-66.6666666666667,4,3,0,30,0,1
40621,-66.6666666666667,4,3,0,60,0,1
42027,-66.6666666666667,4,3,0,30,0,1
42121,-66.6666666666667,4,3,0,60,0,1
42589,-66.6666666666667,4,3,0,30,0,1
42683,-66.6666666666667,4,3,0,60,0,1
42964,-66.6666666666667,4,3,0,30,0,1
43058,-66.6666666666667,4,3,0,60,0,1
43246,-66.6666666666667,4,3,0,30,0,1
43339,-66.6666666666667,4,3,0,60,0,1
43527,-66.6666666666667,4,3,0,30,0,1
43621,-66.6666666666667,4,3,0,60,0,1
44558,-66.6666666666667,4,3,0,30,0,1
44652,-66.6666666666667,4,3,0,60,0,1
45027,-66.6666666666667,4,3,0,30,0,1
45121,-66.6666666666667,4,3,0,60,0,1
46058,-66.6666666666667,4,3,0,30,0,1
46152,-66.6666666666667,4,3,0,60,0,1
46339,-66.6666666666667,4,3,0,30,0,1
46433,-66.6666666666667,4,3,0,60,0,1
47464,-66.6666666666667,4,3,0,30,0,1
47558,-66.6666666666667,4,3,0,60,0,1
48027,-66.6666666666667,4,3,0,30,0,1
48121,-66.6666666666667,4,3,0,60,0,1
48402,-66.6666666666667,4,3,0,30,0,1
48496,-66.6666666666667,4,3,0,60,0,1
48964,-66.6666666666667,4,3,0,30,0,1
49058,-66.6666666666667,4,3,0,60,0,1
49246,-66.6666666666667,4,3,0,30,0,1
49339,-66.6666666666667,4,3,0,60,0,1
49527,-66.6666666666667,4,3,0,30,0,1
49621,-66.6666666666667,4,3,0,60,0,1
50558,-66.6666666666667,4,3,0,30,0,1
50652,-66.6666666666667,4,3,0,60,0,1
52058,-66.6666666666667,4,3,0,30,0,1
52152,-66.6666666666667,4,3,0,60,0,1
52246,-66.6666666666667,4,3,0,30,0,1
52339,-66.6666666666667,4,3,0,60,0,1
53464,-66.6666666666667,4,3,0,30,0,1
53558,-66.6666666666667,4,3,0,60,0,1
54027,-66.6666666666667,4,3,0,30,0,1
54121,-66.6666666666667,4,3,0,60,0,1
54402,-66.6666666666667,4,3,0,30,0,1
54496,-66.6666666666667,4,3,0,60,0,1
54964,-66.6666666666667,4,3,0,30,0,1
55058,-66.6666666666667,4,3,0,60,0,1
55246,-66.6666666666667,4,3,0,30,0,1
55339,-66.6666666666667,4,3,0,60,0,1
55527,-66.6666666666667,4,3,0,30,0,1
55621,-66.6666666666667,4,3,0,60,0,1
56558,-66.6666666666667,4,3,0,30,0,1
56652,-66.6666666666667,4,3,0,60,0,1
58058,-66.6666666666667,4,3,0,30,0,1
58152,-66.6666666666667,4,3,0,60,0,1
58246,-66.6666666666667,4,3,0,30,0,1
58339,-66.6666666666667,4,3,0,60,0,1
58714,-66.6666666666667,4,3,0,30,0,1
58808,-66.6666666666667,4,3,0,60,0,1
59464,-66.6666666666667,4,3,0,30,0,1
59558,-66.6666666666667,4,3,0,60,0,1
60871,-100,4,2,0,60,0,0
63121,-66.6666666666667,4,2,0,60,0,0
63214,-66.6666666666667,4,2,0,30,0,0
63308,-66.6666666666667,4,2,0,60,0,0
63496,-66.6666666666667,4,2,0,30,0,0
63589,-66.6666666666667,4,2,0,60,0,0
63777,-66.6666666666667,4,2,0,30,0,0
63871,-100,4,2,0,60,0,0
65558,-100,4,2,0,30,0,0
65652,-100,4,2,0,60,0,0
66121,-83.3333333333333,4,2,0,60,0,0
66871,-100,4,2,0,60,0,0
69871,-66.6666666666667,4,2,0,60,0,0
71808,-66.6666666666667,4,2,0,30,0,0
71871,-66.6666666666667,4,2,0,60,0,0
71933,-66.6666666666667,4,2,0,30,0,0
71996,-66.6666666666667,4,2,0,60,0,0
72058,-66.6666666666667,4,2,0,30,0,0
72121,-66.6666666666667,4,2,0,60,0,0
72308,-66.6666666666667,4,2,0,30,0,0
72371,-66.6666666666667,4,2,0,60,0,0
72558,-66.6666666666667,4,2,0,30,0,0
72621,-66.6666666666667,4,2,0,60,0,0
72871,-83.3333333333333,4,2,0,60,0,0
74089,-83.3333333333333,4,2,0,30,0,0
74183,-83.3333333333333,4,2,0,60,0,0
75121,-66.6666666666667,4,2,0,60,0,0
75214,-66.6666666666667,4,2,0,30,0,0
75308,-66.6666666666667,4,2,0,60,0,0
75496,-66.6666666666667,4,2,0,30,0,0
75589,-66.6666666666667,4,2,0,60,0,0
75777,-66.6666666666667,4,2,0,30,0,0
75871,-83.3333333333333,4,2,0,60,0,0
77089,-83.3333333333333,4,2,0,30,0,0
77183,-83.3333333333333,4,2,0,60,0,0
78121,-66.6666666666667,4,2,0,60,0,0
78214,-66.6666666666667,4,2,0,30,0,0
78308,-66.6666666666667,4,2,0,60,0,0
78496,-66.6666666666667,4,2,0,30,0,0
78589,-66.6666666666667,4,2,0,60,0,0
78777,-66.6666666666667,4,2,0,30,0,0
78871,-83.3333333333333,4,2,0,60,0,0
80089,-83.3333333333333,4,2,0,30,0,0
80183,-83.3333333333333,4,2,0,60,0,0
81121,-66.6666666666667,4,2,0,60,0,0
81214,-66.6666666666667,4,2,0,30,0,0
81308,-66.6666666666667,4,2,0,60,0,0
81496,-66.6666666666667,4,2,0,30,0,0
81589,-83.3333333333333,4,2,0,60,0,0
81871,-83.3333333333333,4,2,0,60,0,0
81964,-83.3333333333333,4,2,0,30,0,0
82058,-83.3333333333333,4,2,0,60,0,0
82152,-83.3333333333333,4,2,0,30,0,0
82246,-83.3333333333333,4,2,0,60,0,0
82714,-83.3333333333333,4,2,0,30,0,0
82808,-83.3333333333333,4,2,0,60,0,0
82902,-83.3333333333333,4,2,0,30,0,0
82996,-83.3333333333333,4,2,0,60,0,0
83371,-66.6666666666667,4,2,0,60,0,0
84871,-66.6666666666667,4,3,0,60,0,1
85058,-66.6666666666667,4,3,0,30,0,1
85152,-66.6666666666667,4,3,0,60,0,1
85339,-66.6666666666667,4,3,0,30,0,1
85433,-66.6666666666667,4,3,0,60,0,1
85902,-66.6666666666667,4,3,0,30,0,1
85996,-66.6666666666667,4,3,0,60,0,1
86558,-66.6666666666667,4,3,0,30,0,1
86652,-66.6666666666667,4,3,0,60,0,1
87027,-66.6666666666667,4,3,0,30,0,1
87121,-66.6666666666667,4,3,0,60,0,1
88058,-66.6666666666667,4,3,0,30,0,1
88152,-66.6666666666667,4,3,0,60,0,1
88339,-66.6666666666667,4,3,0,30,0,1
88433,-66.6666666666667,4,3,0,60,0,1
91058,-66.6666666666667,4,3,0,30,0,1
91152,-66.6666666666667,4,3,0,60,0,1
91339,-66.6666666666667,4,3,0,30,0,1
91433,-66.6666666666667,4,3,0,60,0,1
91902,-66.6666666666667,4,3,0,30,0,1
91996,-66.6666666666667,4,3,0,60,0,1
92558,-66.6666666666667,4,3,0,30,0,1
92652,-66.6666666666667,4,3,0,60,0,1
93027,-66.6666666666667,4,3,0,30,0,1
93121,-66.6666666666667,4,3,0,60,0,1
94058,-66.6666666666667,4,3,0,30,0,1
94152,-66.6666666666667,4,3,0,60,0,1
94339,-66.6666666666667,4,3,0,30,0,1
94433,-66.6666666666667,4,3,0,60,0,1
96683,-66.6666666666667,4,3,0,30,0,1
96777,-66.6666666666667,4,3,0,60,0,1
97339,-66.6666666666667,4,3,0,30,0,1
97433,-66.6666666666667,4,3,0,60,0,1
97902,-66.6666666666667,4,3,0,30,0,1
97996,-66.6666666666667,4,3,0,60,0,1
98558,-66.6666666666667,4,3,0,30,0,1
98652,-66.6666666666667,4,3,0,60,0,1
98839,-66.6666666666667,4,3,0,30,0,1
98933,-66.6666666666667,4,3,0,60,0,1
100058,-66.6666666666667,4,3,0,30,0,1
100152,-66.6666666666667,4,3,0,60,0,1
100339,-66.6666666666667,4,3,0,30,0,1
100433,-66.6666666666667,4,3,0,60,0,1
101558,-66.6666666666667,4,3,0,30,0,1
101652,-66.6666666666667,4,3,0,60,0,1
101839,-66.6666666666667,4,3,0,30,0,1
101933,-66.6666666666667,4,3,0,60,0,1
102402,-66.6666666666667,4,3,0,30,0,1
102496,-66.6666666666667,4,3,0,60,0,1
103339,-66.6666666666667,4,3,0,30,0,1
103433,-66.6666666666667,4,3,0,60,0,1
103902,-66.6666666666667,4,3,0,30,0,1
103996,-66.6666666666667,4,3,0,60,0,1
104558,-66.6666666666667,4,3,0,30,0,1
104652,-66.6666666666667,4,3,0,60,0,1
104839,-66.6666666666667,4,3,0,30,0,1
104933,-66.6666666666667,4,3,0,60,0,1
106058,-66.6666666666667,4,3,0,30,0,1
106152,-66.6666666666667,4,3,0,60,0,1
106339,-66.6666666666667,4,3,0,30,0,1
106433,-66.6666666666667,4,3,0,60,0,1
107089,-66.6666666666667,4,3,0,30,0,1
107183,-66.6666666666667,4,3,0,60,0,1
108402,-66.6666666666667,4,3,0,30,0,1
108496,-66.6666666666667,4,3,0,60,0,1
108589,-66.6666666666667,4,3,0,30,0,1
108683,-66.6666666666667,4,3,0,60,0,1
108871,-100,4,2,0,60,0,0
109808,-100,4,2,0,30,0,0
109902,-100,4,2,0,60,0,0
111308,-100,4,2,0,30,0,0
111402,-100,4,2,0,60,0,0
112808,-100,4,2,0,30,0,0
112902,-100,4,2,0,60,0,0
114496,-100,4,2,0,30,0,0

[Colours]
Combo1 : 185,192,50
Combo2 : 236,81,36
Combo3 : 123,234,184
Combo4 : 242,128,13

[HitObjects]
180,188,871,53,0,0:0:0:0:
208,88,1246,2,0,B|248:96|262:128,1,70
272,220,1621,1,8,0:0:0:0:
272,220,1996,1,0,0:0:0:0:
464,244,2371,21,0,0:0:0:0:
428,153,2558,1,0,0:0:0:0:
336,172,2746,2,0,B|341:212|373:228,1,70
464,244,3121,1,8,0:0:0:0:
464,244,3496,1,0,0:0:0:0:
316,304,3871,5,0,0:0:0:0:
208,312,4246,2,0,B|166:305|150:275,1,70
102,197,4621,1,8,0:0:0:0:
102,197,4996,1,0,0:0:0:0:
232,60,5371,5,0,0:0:0:0:
160,128,5558,1,0,0:0:0:0:
90,74,5746,2,0,B|111:46|148:40,1,70
160,128,6121,1,8,0:0:0:0:
160,128,6496,1,0,0:0:0:0:
386,127,6871,5,0,0:0:0:0:
469,178,7246,2,0,B|491:211|478:244,1,70,8|0,0:0|0:0,0:0:0:0:
416,312,7621,1,0,0:0:0:0:
316,320,7808,2,0,L|312:352,2,17.5
284,312,7996,1,8,0:0:0:0:
344,184,8371,5,0,0:0:0:0:
416,116,8558,2,0,L|447:122,2,17.5
418,83,8746,1,8,0:0:0:0:
324,68,8933,1,0,0:0:0:0:
272,136,9121,1,8,0:0:0:0:
148,64,9496,1,0,0:0:0:0:
272,136,9871,5,8,0:0:0:0:
168,152,10246,2,0,B|128:163|117:195,1,70,8|0,0:0|0:0,0:0:0:0:
84,288,10621,1,0,0:0:0:0:
172,328,10808,2,0,L|176:360,2,17.5
204,320,10996,1,8,0:0:0:0:
239,149,11371,5,0,0:0:0:0:
224,236,11558,1,2,0:0:0:0:
308,204,11746,1,8,0:0:0:0:
380,148,11933,1,2,0:0:0:0:
392,240,12121,2,0,B|431:229|465:250,1,70,8|0,0:0|0:0,0:0:0:0:
416,330,12496,1,8,0:0:0:0:
479,158,12683,1,8,0:0:0:0:
322,335,12871,5,8,3:0:0:0:
82,262,13246,1,0,0:0:0:0:
151,172,13433,1,0,0:0:0:0:
195,77,13621,2,0,L|126:66,1,62.9999980773926,8|0,0:0|0:0,0:0:0:0:
440,121,13996,1,8,0:0:0:0:
195,77,14371,5,0,0:0:0:0:
103,182,14558,2,0,P|89:210|53:221,1,62.9999980773926,8|0,3:0|0:0,0:0:0:0:
138,260,14746,2,0,P|159:282|197:282,1,62.9999980773926,8|0,3:0|0:0,0:0:0:0:
269,274,14933,1,0,0:0:0:0:
397,259,15121,2,0,L|466:298,1,62.9999980773926,8|0,0:0|0:0,0:0:0:0:
171,125,15496,1,8,0:0:0:0:
277,93,15683,2,0,P|306:83|323:49,1,62.9999980773926,8|0,3:0|0:0,0:0:0:0:
348,139,15871,6,0,P|367:163|361:201,1,62.9999980773926,8|0,3:0|0:0,0:0:0:0:
150,340,16246,1,0,0:0:0:0:
96,247,16433,1,0,0:0:0:0:
108,140,16621,2,0,L|54:71,1,62.9999980773926,8|0,0:0|0:0,0:0:0:0:
250,350,16996,1,8,0:0:0:0:
108,140,17371,5,0,0:0:0:0:
208,172,17558,2,0,P|231:192|233:229,1,62.9999980773926,8|0,3:0|0:0,0:0:0:0:
292,156,17746,2,0,P|308:129|345:122,1,62.9999980773926,8|0,3:0|0:0,0:0:0:0:
416,113,17933,1,0,0:0:0:0:
444,218,18121,2,0,L|500:254,1,62.9999980773926,8|0,0:0|0:0,0:0:0:0:
229,76,18496,1,8,0:0:0:0:
126,107,18683,2,0,P|96:97|79:63,1,62.9999980773926,8|0,3:0|0:0,0:0:0:0:
55,153,18871,6,0,P|45:182|62:215,1,62.9999980773926,8|0,3:0|0:0,0:0:0:0:
283,314,19246,1,0,0:0:0:0:
183,271,19433,1,0,0:0:0:0:
265,207,19621,2,0,L|337:155,1,62.9999980773926,8|0,0:0|0:0,0:0:0:0:
69,354,19996,1,8,0:0:0:0:
265,207,20371,5,0,0:0:0:0:
369,196,20558,2,0,P|400:199|422:229,1,62.9999980773926,8|0,3:0|0:0,0:0:0:0:
430,135,20746,2,0,P|443:106|431:71,1,62.9999980773926,8|0,3:0|0:0,0:0:0:0:
366,36,20933,1,0,0:0:0:0:
224,62,21121,2,0,L|155:75,1,62.9999980773926,8|0,0:0|0:0,0:0:0:0:
280,305,21496,1,8,0:0:0:0:
312,310,21589,1,0,0:0:0:0:
348,305,21683,1,0,0:0:0:0:
377,289,21777,1,0,0:0:0:0:
401,263,21871,1,8,0:0:0:0:
224,62,22246,5,8,0:0:0:0:
118,156,22433,1,0,0:0:0:0:
240,196,22621,2,0,P|244:237|224:273,1,83.9999974365235,8|0,0:0|0:0,0:0:0:0:
281,307,22996,2,0,P|249:333|208:339,1,83.9999974365235,2|0,0:0|0:0,0:0:0:0:
99,281,23371,5,8,0:0:0:0:
244,138,23558,1,0,0:0:0:0:
208,339,23746,1,8,0:0:0:0:
118,156,23933,1,0,0:0:0:0:
304,252,24121,2,0,P|343:263|383:252,1,83.9999974365235,8|0,0:0|0:0,0:0:0:0:
423,191,24496,2,0,P|383:180|344:192,1,83.9999974365235,2|0,0:0|0:0,0:0:0:0:
464,256,24871,5,8,0:0:0:0:
352,64,25246,1,0,0:0:0:0:
464,256,25621,1,8,0:0:0:0:
352,64,25996,2,0,L|296:88,1,35
272,100,26183,1,0,0:0:0:0:
140,152,26371,5,8,0:0:0:0:
372,232,26746,1,0,0:0:0:0:
140,152,27121,2,0,B|114:144|114:144|112:119,1,52.5000020027161,8|0,0:0|0:0,0:0:0:0:
160,288,27402,2,0,B|136:301|136:301|117:284,1,52.5000020027161,2|0,0:0|0:0,0:0:0:0:
328,300,27683,2,0,B|320:325|320:325|295:327,1,52.5000020027161,0|0,0:0|0:0,0:0:0:0:
464,256,27871,5,8,0:0:0:0:
247,157,28246,1,0,0:0:0:0:
464,256,28621,1,8,0:0:0:0:
247,157,28996,2,0,L|305:133,1,35
328,124,29183,1,0,0:0:0:0:
460,68,29371,5,8,0:0:0:0:
352,236,29746,1,0,0:0:0:0:
268,72,30121,2,0,B|256:47|256:47|273:29,1,52.5000020027161,8|0,0:0|0:0,0:0:0:0:
180,177,30402,2,0,B|154:167|154:167|154:142,1,52.5000020027161,2|0,0:0|0:0,0:0:0:0:
283,310,30683,2,0,B|259:320|259:320|240:303,1,52.5000020027161,0|0,0:0|0:0,0:0:0:0:
92,276,30871,5,8,0:0:0:0:
352,236,31246,1,0,0:0:0:0:
92,276,31621,1,8,0:0:0:0:
352,236,31996,2,0,L|308:191,1,35
288,174,32183,1,0,0:0:0:0:
176,62,32371,6,0,B|155:45|155:45|153:73,1,52.5000020027161,8|0,0:0|0:0,0:0:0:0:
176,180,32746,1,0,0:0:0:0:
352,236,33121,2,0,B|363:260|363:260|346:278,1,52.5000020027161,8|0,0:0|0:0,0:0:0:0:
440,131,33402,2,0,B|465:140|465:140|465:165,1,52.5000020027161,2|0,0:0|0:0,0:0:0:0:
320,120,33683,1,0,0:0:0:0:
344,304,33871,6,0,L|284:296,1,41.9999987182618,8|0,0:0|0:0,0:0:0:0:
252,252,34058,2,0,L|196:288,1,41.9999987182618
180,296,34246,1,8,0:0:0:0:
134,294,34339,1,0,0:0:0:0:
105,264,34433,1,0,0:0:0:0:
106,224,34527,1,0,0:0:0:0:
111,182,34621,6,0,L|79:134,1,41.9999987182618,8|0,0:0|0:0,0:0:0:0:
140,99,34808,2,0,L|185:121,1,41.9999987182618
217,133,34996,1,8,0:0:0:0:
257,124,35089,1,0,0:0:0:0:
290,99,35183,1,0,0:0:0:0:
326,77,35277,1,0,0:0:0:0:
367,69,35371,5,6,0:0:0:0:
498,252,35558,1,2,0:0:0:0:
427,35,35746,1,10,0:0:0:0:
421,261,35933,1,2,0:0:0:0:
225,195,36121,5,12,0:0:0:0:
37,282,36308,1,8,0:0:0:0:
140,100,36496,1,8,0:0:0:0:
165,303,36683,1,10,0:0:0:0:
25,154,36871,6,0,B|10:131|10:131|27:109,1,52.5000020027161,10|0,3:0|0:0,0:0:0:0:
165,303,37152,2,0,B|153:327|153:327|125:323,1,52.5000020027161,10|0,3:0|0:0,0:0:0:0:
216,128,37433,2,0,B|242:126|242:126|253:152,1,52.5000020027161,10|0,3:0|0:0,0:0:0:0:
264,188,37621,1,8,1:0:0:0:
408,84,37808,1,2,0:0:0:0:
424,264,37996,1,8,1:0:0:0:
320,120,38183,5,8,2:0:0:0:
320,120,38277,1,8,2:0:0:0:
320,120,38371,2,0,P|290:72|236:57,1,105.000004005432,8|0,3:0|0:0,0:0:0:0:
209,61,38652,2,0,B|190:65|190:65|170:102,1,52.5000020027161,8|0,0:0|0:0,0:0:0:0:
42,64,38933,2,0,B|40:83|40:83|70:112,1,52.5000020027161,8|0,0:0|0:0,0:0:0:0:
171,188,39121,1,8,1:0:0:0:
131,336,39308,1,2,0:0:0:0:
23,227,39496,1,8,1:0:0:0:
223,338,39683,5,8,2:0:0:0:
223,338,39777,1,8,2:0:0:0:
223,338,39871,2,0,P|275:319|301:270,1,105.000004005432,8|0,0:0|0:0,0:0:0:0:
316,240,40152,1,0,0:0:0:0:
387,123,40433,2,0,B|405:125|405:125|428:160,1,52.5000020027161,8|0,0:0|0:0,0:0:0:0:
478,281,40621,1,8,1:0:0:0:
490,152,40808,1,2,3:0:0:0:
392,308,40996,1,8,1:0:0:0:
319,246,41183,5,8,2:0:0:0:
319,246,41277,1,8,2:0:0:0:
319,246,41371,2,0,P|264:235|217:264,1,105.000004005432,8|0,0:0|0:0,0:0:0:0:
148,222,41652,2,0,L|108:178,1,52.5000020027161
156,83,41933,2,0,P|170:111|202:113,1,52.5000020027161,8|0,0:0|0:0,0:0:0:0:
387,123,42121,1,8,1:0:0:0:
226,45,42308,1,2,0:0:0:0:
347,185,42496,2,0,L|404:241,1,52.5000020027161,8|0,0:0|0:0,0:0:0:0:
113,242,42871,6,0,B|109:215|109:215|82:209,1,52.5000020027161,10|0,0:0|0:0,0:0:0:0:
236,304,43152,2,0,B|240:330|240:330|265:335,1,52.5000020027161,10|0,0:0|0:0,0:0:0:0:
240,168,43433,2,0,B|236:141|236:141|209:135,1,52.5000020027161,10|0,0:0|0:0,0:0:0:0:
84,132,43621,1,8,1:0:0:0:
200,40,43808,1,2,0:0:0:0:
306,136,43996,1,8,1:0:0:0:
359,83,44183,5,8,2:0:0:0:
359,83,44277,1,8,2:0:0:0:
359,83,44371,2,0,P|307:63|255:83,1,105.000004005432,8|0,0:0|0:0,0:0:0:0:
306,136,44652,2,0,B|310:154|310:154|345:174,1,52.5000020027161,8|0,0:0|0:0,0:0:0:0:
467,207,44933,2,0,B|465:226|465:226|433:251,1,52.5000020027161,8|0,0:0|0:0,0:0:0:0:
280,353,45121,1,8,1:0:0:0:
339,170,45308,1,2,0:0:0:0:
168,227,45496,1,8,1:0:0:0:
223,290,45683,5,8,0:0:0:0:
223,290,45777,1,8,0:0:0:0:
223,290,45871,2,0,P|251:243|241:188,1,105.000004005432,8|0,0:0|0:0,0:0:0:0:
225,121,46152,2,0,B|220:101|220:101|184:82,1,52.5000020027161,8|0,0:0|0:0,0:0:0:0:
168,227,46433,2,0,B|148:224|148:224|126:190,1,52.5000020027161,8|0,0:0|0:0,0:0:0:0:
39,43,46621,1,8,1:0:0:0:
166,147,46808,1,8,0:0:0:0:
118,308,46996,1,8,1:0:0:0:
293,325,47183,5,8,2:0:0:0:
293,325,47277,1,8,2:0:0:0:
293,325,47371,2,0,P|317:303|311:271,1,52.5000020027161,8|0,0:0|0:0,0:0:0:0:
325,233,47558,1,0,0:0:0:0:
333,179,47652,2,0,L|384:166,1,52.5000020027161,2|0,0:0|0:0,0:0:0:0:
263,101,47933,2,0,P|235:118|238:150,1,52.5000020027161,8|0,0:0|0:0,0:0:0:0:
223,290,48121,1,8,1:0:0:0:
76,127,48308,2,0,P|98:88|128:79,1,52.5000020027161,8|0,0:0|0:0,0:0:0:0:
149,48,48496,1,6,0:0:0:0:
162,295,48871,6,0,B|158:321|158:321|131:327,1,52.5000020027161,10|0,0:0|0:0,0:0:0:0:
338,278,49152,2,0,B|362:267|362:267|381:288,1,52.5000020027161,10|0,0:0|0:0,0:0:0:0:
232,135,49433,2,0,B|210:119|210:119|219:92,1,52.5000020027161,10|0,0:0|0:0,0:0:0:0:
240,223,49621,1,8,1:0:0:0:
325,180,49808,1,2,0:0:0:0:
325,180,49902,1,0,0:0:0:0:
325,180,49996,1,8,1:0:0:0:
316,81,50183,5,8,2:0:0:0:
316,81,50277,1,8,2:0:0:0:
316,81,50371,2,0,P|371:86|408:128,1,105.000004005432,8|0,0:0|0:0,0:0:0:0:
372,202,50652,2,0,L|317:176,1,52.5000020027161
232,135,50933,1,10,0:0:0:0:
59,49,51121,1,8,1:0:0:0:
41,231,51308,1,2,0:0:0:0:
163,103,51496,1,8,1:0:0:0:
185,198,51683,5,8,2:0:0:0:
185,198,51777,1,8,2:0:0:0:
185,198,51871,2,0,P|238:213|288:188,1,105.000004005432,8|0,0:0|0:0,0:0:0:0:
328,134,52152,2,0,L|380:169,1,52.5000020027161
496,241,52433,1,10,0:0:0:0:
339,222,52621,1,8,1:0:0:0:
467,117,52808,1,2,0:0:0:0:
473,321,52996,1,8,1:0:0:0:
379,282,53183,5,8,2:0:0:0:
379,282,53277,1,8,2:0:0:0:
379,282,53371,2,0,P|351:264|321:278,1,52.5000020027161,8|0,0:0|0:0,0:0:0:0:
284,286,53558,1,0,0:0:0:0:
239,313,53652,2,0,L|193:356,1,52.5000020027161
70,239,53933,2,0,P|85:210|117:211,1,52.5000020027161,10|0,0:0|0:0,0:0:0:0:
278,199,54121,1,8,1:0:0:0:
393,115,54308,2,0,P|415:76|445:67,1,52.5000020027161,8|0,0:0|0:0,0:0:0:0:
464,132,54496,1,2,0:0:0:0:
327,280,54871,6,0,B|315:304|315:304|335:324,1,52.5000020027161,10|0,0:0|0:0,0:0:0:0:
199,238,55152,2,0,B|177:254|177:254|187:281,1,52.5000020027161,10|0,0:0|0:0,0:0:0:0:
123,133,55433,2,0,B|96:139|96:139|94:167,1,52.5000020027161,10|0,0:0|0:0,0:0:0:0:
61,80,55621,1,8,1:0:0:0:
228,138,55808,1,2,0:0:0:0:
92,255,55996,1,8,1:0:0:0:
186,278,56183,5,8,2:0:0:0:
186,278,56277,1,8,2:0:0:0:
186,278,56371,2,0,P|180:222|138:185,1,105.000004005432,8|0,0:0|0:0,0:0:0:0:
76,204,56652,2,0,L|95:267,1,52.5000020027161
142,353,56933,1,10,0:0:0:0:
321,269,57121,1,8,1:0:0:0:
146,189,57308,1,2,0:0:0:0:
319,144,57496,1,8,1:0:0:0:
342,60,57683,5,8,2:0:0:0:
342,60,57777,1,8,2:0:0:0:
342,60,57871,2,0,P|389:89|404:143,1,105.000004005432,8|0,0:0|0:0,0:0:0:0:
353,183,58152,2,0,L|314:138,1,52.5000020027161
237,39,58433,1,10,1:0:0:0:
207,233,58621,6,0,P|171:260|140:256,1,52.5000020027161,8|0,0:0|0:0,0:0:0:0:
128,233,58808,1,0,0:0:0:0:
118,187,58902,2,0,L|157:142,1,52.5000020027161
237,39,59183,1,10,1:0:0:0:
284,224,59371,6,0,B|309:233|309:233|327:211,1,52.5000020027161
361,74,59652,2,0,B|376:51|376:51|359:29,1,52.5000020027161
450,196,59933,1,2,1:0:0:0:
396,298,60121,5,10,3:0:0:0:
231,152,60308,1,2,0:0:0:0:
307,342,60496,1,10,3:0:0:0:
326,142,60683,1,2,0:0:0:0:
114,283,60871,5,8,0:0:0:0:
84,188,61246,1,0,0:0:0:0:
52,96,61621,1,8,0:0:0:0:
236,216,61996,1,0,0:0:0:0:
318,229,62183,1,0,0:0:0:0:
284,152,62371,5,8,0:0:0:0:
254,57,62746,1,0,0:0:0:0:
420,133,63121,2,0,B|445:141|445:141|462:118,1,52.5000020027161,8|0,0:0|0:0,0:0:0:0:
312,228,63402,2,0,B|291:245|291:245|302:271,1,52.5000020027161
293,98,63683,2,0,B|287:71|287:71|259:68,1,52.5000020027161,2|0,0:0|0:0,0:0:0:0:
378,205,63871,5,8,0:0:0:0:
301,269,64246,1,0,0:0:0:0:
229,335,64621,1,8,0:0:0:0:
100,175,64996,1,0,0:0:0:0:
49,107,65183,1,0,0:0:0:0:
135,96,65371,6,0,L|210:87,1,70,8|0,0:0|0:0,0:0:0:0:
292,79,65746,1,0,0:0:0:0:
436,67,66121,2,0,P|455:113|386:176,1,125.999996154785,8|0,0:0|0:0,0:0:0:0:
379,187,66496,1,0,0:0:0:0:
360,214,66589,1,0,0:0:0:0:
349,248,66683,1,2,0:0:0:0:
351,284,66777,1,0,0:0:0:0:
365,314,66871,1,8,0:0:0:0:
185,236,67246,5,0,0:0:0:0:
365,314,67621,1,8,0:0:0:0:
185,236,67996,1,0,0:0:0:0:
259,172,68183,1,0,0:0:0:0:
402,84,68371,6,0,B|448:55,1,35,8|0,0:0|0:0,0:0:0:0:
462,189,68746,1,0,0:0:0:0:
149,102,69121,6,0,B|99:88,1,35,8|0,0:0|0:0,0:0:0:0:
128,185,69402,1,0,0:0:0:0:
309,240,69683,1,2,0:0:0:0:
172,304,69871,5,8,0:0:0:0:
353,179,70058,1,0,0:0:0:0:
132,198,70246,1,8,0:0:0:0:
283,340,70433,1,2,0:0:0:0:
171,149,70621,5,8,0:0:0:0:
392,200,70808,1,0,0:0:0:0:
212,328,70996,1,8,0:0:0:0:
219,111,71183,1,2,0:0:0:0:
372,296,71371,5,8,0:0:0:0:
146,340,71558,1,0,0:0:0:0:
219,111,71746,2,0,L|211:72,1,35.0000013351441
242,102,71871,6,0,L|234:63,1,35.0000013351441
267,90,71996,6,0,L|259:51,1,35.0000013351441
304,68,72121,6,0,P|347:92|357:143,1,105.000004005432,8|0,0:0|0:0,0:0:0:0:
347,193,72371,2,0,P|343:242|380:278,1,105.000004005432,8|0,0:0|0:0,0:0:0:0:
436,304,72621,1,10,0:0:0:0:
484,136,72871,5,8,0:0:0:0:
272,76,73246,1,0,0:0:0:0:
484,136,73621,1,8,0:0:0:0:
270,75,73996,2,0,L|256:128,1,41.9999987182618
248,160,74183,1,0,0:0:0:0:
216,300,74371,5,8,0:0:0:0:
72,136,74746,1,0,0:0:0:0:
272,76,75121,2,0,B|298:68|298:68|300:43,1,52.5000020027161,8|0,0:0|0:0,0:0:0:0:
332,208,75402,2,0,B|356:220|356:220|375:204,1,52.5000020027161
216,300,75683,2,0,B|232:321|232:321|256:315,1,52.5000020027161,2|0,0:0|0:0,0:0:0:0:
156,240,75871,5,8,0:0:0:0:
360,320,76246,1,0,0:0:0:0:
156,240,76621,1,8,0:0:0:0:
360,320,76996,2,0,L|396:268,1,41.9999987182618
408,248,77183,1,0,0:0:0:0:
484,128,77371,5,8,0:0:0:0:
276,56,77746,1,0,0:0:0:0:
140,212,78121,2,0,B|117:227|117:227|95:210,1,52.5000020027161,8|0,0:0|0:0,0:0:0:0:
284,192,78402,2,0,B|299:214|299:214|282:236,1,52.5000020027161
276,56,78683,2,0,B|298:40|298:40|320:57,1,52.5000020027161,2|0,0:0|0:0,0:0:0:0:
416,132,78871,5,8,0:0:0:0:
196,128,79246,1,0,0:0:0:0:
416,132,79621,1,8,0:0:0:0:
196,128,79996,2,0,L|244:168,1,41.9999987182618
264,184,80183,1,0,0:0:0:0:
112,312,80371,6,0,B|60:332,1,41.9999987182618,8|0,0:0|0:0,0:0:0:0:
196,128,80746,1,0,0:0:0:0:
320,272,81121,2,0,B|338:291|338:291|325:316,1,52.5000020027161,8|0,0:0|0:0,0:0:0:0:
404,144,81402,2,0,B|428:153|428:153|427:182,1,52.5000020027161
336,40,81683,1,2,0:0:0:0:
248,64,81871,6,0,L|200:95,3,41.9999987182618,8|0|8|0,0:0|0:0|0:0|0:0,0:0:0:0:
183,103,82246,1,8,0:0:0:0:
149,106,82339,1,0,0:0:0:0:
115,106,82433,1,8,0:0:0:0:
81,110,82527,1,0,0:0:0:0:
51,126,82621,6,0,L|39:168,3,41.9999987182618,8|0|8|0,0:0|0:0|0:0|0:0,0:0:0:0:
35,199,82996,1,8,0:0:0:0:
56,224,83089,1,0,0:0:0:0:
78,250,83183,1,8,0:0:0:0:
99,276,83277,1,0,0:0:0:0:
138,318,83372,5,8,0:0:0:0:
295,216,83558,1,0,0:0:0:0:
165,335,83747,1,8,0:0:0:0:
108,164,83933,1,0,0:0:0:0:
192,350,84121,5,8,0:0:0:0:
220,127,84308,1,8,0:0:0:0:
304,320,84496,1,8,0:0:0:0:
336,88,84683,1,8,0:0:0:0:
388,324,84871,6,0,P|431:299|441:248,1,105.000004005432,8|0,0:0|0:0,0:0:0:0:
372,200,85152,2,0,B|377:137|377:137|416:112,1,105.000004005432,8|0,0:0|0:0,0:0:0:0:
480,144,85433,1,8,0:0:0:0:
272,64,85621,1,0,0:0:0:0:
104,204,85808,2,0,B|87:195|87:195|77:155,1,52.5000020027161,2|0,0:0|0:0,0:0:0:0:
64,100,85996,1,8,0:0:0:0:
215,145,86183,5,0,0:0:0:0:
251,162,86276,1,0,0:0:0:0:
289,180,86371,2,0,P|250:220|195:225,1,105.000004005432,8|0,0:0|0:0,0:0:0:0:
239,296,86652,2,0,B|241:315|241:315|276:336,1,52.5000020027161,8|0,0:0|0:0,0:0:0:0:
392,320,86933,2,0,L|408:264,1,52.5000020027161,10|0,0:0|0:0,0:0:0:0:
456,108,87121,1,0,0:0:0:0:
336,56,87308,1,8,0:0:0:0:
238,120,87496,1,0,0:0:0:0:
309,232,87682,5,0,0:0:0:0:
295,271,87776,1,0,0:0:0:0:
278,310,87871,2,0,P|224:295|174:320,1,105.000004005432,8|0,0:0|0:0,0:0:0:0:
76,196,88152,2,0,B|132:167|132:167|139:122,1,105.000004005432,8|0,0:0|0:0,0:0:0:0:
36,104,88433,1,10,0:0:0:0:
36,324,88621,1,0,0:0:0:0:
158,290,88808,1,8,0:0:0:0:
196,172,88996,1,0,0:0:0:0:
360,300,89183,5,0,0:0:0:0:
360,300,89277,1,0,0:0:0:0:
120,68,89558,5,8,0:0:0:0:
376,132,89745,1,2,0:0:0:0:
112,200,89933,1,8,0:0:0:0:
360,280,90120,5,0,0:0:0:0:
248,76,90307,1,8,0:0:0:0:
152,280,90496,1,2,0:0:0:0:
248,76,90684,1,8,0:0:0:0:
432,220,90871,6,0,P|427:270|385:299,1,105.000004005432,8|0,0:0|0:0,0:0:0:0:
309,236,91152,2,0,B|316:173|316:173|281:141,1,105.000004005432,8|0,0:0|0:0,0:0:0:0:
229,208,91433,1,10,0:0:0:0:
420,83,91621,1,0,0:0:0:0:
256,52,91808,2,0,L|184:48,1,52.5000020027161,8|0,0:0|0:0,0:0:0:0:
140,44,91996,1,0,0:0:0:0:
184,154,92183,5,0,0:0:0:0:
201,191,92276,1,0,0:0:0:0:
216,230,92371,2,0,P|160:229|118:267,1,105.000004005432,8|0,0:0|0:0,0:0:0:0:
32,258,92652,2,0,B|15:247|15:247|11:206,1,52.5000020027161,8|0,0:0|0:0,0:0:0:0:
188,300,92933,2,0,L|256:304,1,52.5000020027161,8|0,0:0|0:0,0:0:0:0:
488,316,93121,1,0,0:0:0:0:
488,136,93308,1,8,0:0:0:0:
364,232,93496,1,8,0:0:0:0:
364,116,93683,5,0,0:0:0:0:
365,74,93776,1,0,0:0:0:0:
365,31,93871,2,0,P|312:48|284:96,1,105.000004005432,8|2,0:0|0:0,0:0:0:0:
364,172,94152,2,0,B|426:183|426:183|461:151,1,105.000004005432,8|0,0:0|0:0,0:0:0:0:
488,40,94433,1,8,0:0:0:0:
488,316,94621,1,0,0:0:0:0:
312,308,94808,1,8,0:0:0:0:
364,172,94996,1,0,0:0:0:0:
250,66,95183,5,0,0:0:0:0:
220,43,95277,1,0,0:0:0:0:
104,288,95558,5,8,0:0:0:0:
312,308,95746,1,2,0:0:0:0:
204,108,95933,1,8,0:0:0:0:
456,155,96121,5,0,0:0:0:0:
212,228,96308,1,8,0:0:0:0:
340,96,96496,2,0,B|367:67|367:67|408:72|408:72|443:41,1,105.000004005432,2|0,0:0|0:0,0:0:0:0:
456,268,96871,5,8,0:0:0:0:
316,328,97152,1,0,0:0:0:0:
316,328,97246,2,0,B|304:344|304:344|264:348,1,52.5000020027161,8|0,0:0|0:0,0:0:0:0:
182,346,97433,1,2,0:0:0:0:
235,257,97621,1,0,0:0:0:0:
259,224,97714,1,0,0:0:0:0:
280,189,97808,2,0,L|248:137,1,52.5000020027161,8|0,0:0|0:0,0:0:0:0:
229,108,97996,1,0,0:0:0:0:
360,160,98184,5,0,0:0:0:0:
395,181,98277,1,0,0:0:0:0:
433,198,98371,2,0,P|460:149|449:95,1,105.000004005432,8|0,0:0|0:0,0:0:0:0:
315,64,98652,1,0,0:0:0:0:
315,64,98746,2,0,B|299:51|299:51|259:60,1,52.5000020027161,8|0,0:0|0:0,0:0:0:0:
180,77,98933,1,2,0:0:0:0:
85,203,99121,1,0,0:0:0:0:
85,203,99214,1,0,0:0:0:0:
85,203,99308,1,8,0:0:0:0:
58,67,99496,1,0,0:0:0:0:
164,180,99683,5,0,0:0:0:0:
195,207,99777,1,0,0:0:0:0:
224,237,99871,2,0,P|171:256|145:305,1,105.000004005432,8|0,0:0|0:0,0:0:0:0:
292,324,100152,1,0,0:0:0:0:
292,324,100246,2,0,B|310:317|310:317|323:278,1,52.5000020027161,8|0,0:0|0:0,0:0:0:0:
345,210,100433,1,2,0:0:0:0:
315,64,100621,1,0,0:0:0:0:
315,64,100714,1,0,0:0:0:0:
315,64,100808,1,8,0:0:0:0:
484,76,100996,1,0,0:0:0:0:
395,179,101183,5,0,0:0:0:0:
368,211,101277,1,0,0:0:0:0:
342,244,101371,2,0,P|394:263|420:312,1,105.000004005432,8|0,0:0|0:0,0:0:0:0:
492,236,101652,1,0,0:3:0:0:
492,236,101746,2,0,B|506:223|506:223|504:181,1,52.5000020027161,8|0,0:0|0:0,0:0:0:0:
499,76,101933,1,2,0:0:0:0:
310,158,102121,1,0,0:0:0:0:
269,166,102214,1,0,0:0:0:0:
227,169,102308,2,0,L|186:136,1,52.5000020027161,8|0,0:0|0:0,0:0:0:0:
152,110,102496,1,0,0:0:0:0:
93,252,102683,5,0,0:0:0:0:
83,287,102777,1,0,0:0:0:0:
72,322,102871,1,8,0:0:0:0:
24,120,103152,1,0,0:0:0:0:
24,120,103246,2,0,B|42:115|42:115|76:138,1,52.5000020027161,8|0,0:0|0:0,0:0:0:0:
150,187,103433,1,2,0:0:0:0:
270,276,103621,1,0,0:0:0:0:
304,298,103714,1,0,0:0:0:0:
340,318,103808,2,0,L|377:274,1,52.5000020027161,8|0,0:0|0:0,0:0:0:0:
399,244,103996,1,0,0:0:0:0:
279,111,104183,5,0,0:0:0:0:
247,83,104277,1,0,0:0:0:0:
216,53,104371,2,0,P|259:25|310:30,1,105.000004005432,8|0,0:0|0:0,0:0:0:0:
395,154,104652,1,0,0:0:0:0:
426,181,104746,2,0,B|438:195|438:195|479:197,1,52.5000020027161,8|0,0:0|0:0,0:0:0:0:
474,109,104933,1,2,0:0:0:0:
473,275,105121,1,0,0:0:0:0:
473,311,105215,1,0,0:0:0:0:
474,347,105308,1,8,0:0:0:0:
310,216,105496,1,0,0:0:0:0:
172,239,105683,5,0,0:0:0:0:
131,251,105777,1,0,0:0:0:0:
90,261,105871,2,0,P|95:205|63:160,1,105.000004005432,8|0,0:0|0:0,0:0:0:0:
151,25,106152,1,0,2:0:0:0:
151,25,106246,2,0,B|170:22|170:22|199:51,1,52.5000020027161,8|0,0:0|0:0,0:0:0:0:
290,127,106433,1,2,0:0:0:0:
423,78,106621,1,0,0:0:0:0:
456,64,106714,1,0,0:0:0:0:
490,51,106808,1,8,0:0:0:0:
449,198,106996,2,0,L|425:288,1,52.5000020027161
364,291,107183,5,0,0:0:0:0:
328,301,107278,1,0,0:0:0:0:
293,312,107371,1,8,0:0:0:0:
161,202,107652,5,0,0:0:0:0:
138,172,107746,1,8,0:0:0:0:
364,291,107933,1,2,0:0:0:0:
400,152,108121,1,8,0:0:0:0:
415,113,108214,1,0,0:0:0:0:
428,78,108308,2,0,B|398:63|398:63|381:70,1,52.5000020027161,8|0,0:0|0:0,0:0:0:0:
343,91,108496,2,0,B|313:105|313:105|296:98,1,52.5000020027161,2|0,0:0|0:0,0:0:0:0:
257,79,108683,5,0,0:0:0:0:
219,59,108777,1,0,0:0:0:0:
181,69,108871,1,10,0:0:0:0:
392,184,109246,1,8,0:0:0:0:
191,283,109433,1,0,0:0:0:0:
415,295,109621,2,0,B|459:223,1,70,8|0,0:0|0:0,0:0:0:0:
494,160,109996,1,2,0:0:0:0:
208,108,110371,5,8,0:0:0:0:
56,214,110558,1,0,0:0:0:0:
241,222,110746,1,8,0:0:0:0:
98,101,110933,1,0,0:0:0:0:
145,283,111121,2,0,B|235:317,1,70,8|0,0:0|0:0,0:0:0:0:
315,344,111496,1,2,0:0:0:0:
387,249,111683,5,0,0:0:0:0:
387,249,111777,1,0,0:0:0:0:
387,249,111871,1,8,0:0:0:0:
184,82,112246,1,8,0:0:0:0:
85,245,112433,1,0,0:0:0:0:
271,249,112621,2,0,B|324:199,1,70,8|0,0:0|0:0,0:0:0:0:
387,138,112996,1,2,0:0:0:0:
221,298,113371,5,8,0:0:0:0:
361,339,113558,1,0,0:0:0:0:
324,198,113746,1,8,0:0:0:0:
221,298,113933,1,0,0:0:0:0:
361,339,114121,2,0,P|437:319|469:257,1,140,8|0,0:0|0:0,0:0:0:0:
