osu file format v14

[General]
AudioFilename: audio.mp3
AudioLeadIn: 0
PreviewTime: 83365
Countdown: 0
SampleSet: Soft
StackLeniency: 0.7
Mode: 0
LetterboxInBreaks: 0
WidescreenStoryboard: 0

[Editor]
DistanceSpacing: 1
BeatDivisor: 2
GridSize: 4
TimelineZoom: 1.3

[Metadata]
Title:Burnt Rice
TitleUnicode:Burnt Rice
Artist:Shawn Wasabi
ArtistUnicode:Shawn Wasabi
Creator:Greedy_Panda
Version:Easy
Source:
Tags:trap electronic electro remix YDG yung gemmy
BeatmapID:1162193
BeatmapSetID:544853

[Difficulty]
HPDrainRate:2
CircleSize:2
OverallDifficulty:2
ApproachRate:3
SliderMultiplier:0.900000005960464
SliderTickRate:1

[Events]
//Background and Video events
0,0,"rice_buddy_town_by_orangecircle-d4ui744.jpg",0,0
//Break Periods
//Storyboard Layer 0 (Background)
//Storyboard Layer 1 (Fail)
//Storyboard Layer 2 (Pass)
//Storyboard Layer 3 (Foreground)
//Storyboard Sound Samples

[TimingPoints]
865,-100,4,2,0,60,0,0
871,375,4,2,0,60,1,0
36871,-100,4,3,0,60,0,1
60871,-100,4,2,0,60,0,0
84871,-100,4,3,0,60,0,1
108871,-100,4,3,0,60,0,0

[Colours]
Combo1 : 185,192,50
Combo2 : 236,81,36
Combo3 : 123,234,184
Combo4 : 242,128,13

[HitObjects]
276,112,871,6,0,P|344:78|440:124,1,180.000001192093,8|0,0:0|0:0,0:0:0:0:
476,196,1996,1,0,0:0:0:0:
428,272,2371,2,0,P|360:306|264:260,1,180.000001192093,8|0,0:0|0:0,0:0:0:0:
228,188,3496,1,0,0:0:0:0:
149,143,3871,6,0,P|222:99|308:148,1,180.000001192093,8|0,0:0|0:0,0:0:0:0:
350,209,4996,1,0,0:0:0:0:
404,280,5371,2,0,P|437:201|376:122,1,180.000001192093,8|0,0:0|0:0,0:0:0:0:
301,136,6496,1,0,0:0:0:0:
231,187,6871,5,8,0:0:0:0:
380,92,7621,1,0,0:0:0:0:
377,267,8371,2,0,P|288:250|228:182,1,180.000001192093,8|0,0:0|0:0,0:0:0:0:
95,71,9871,5,8,0:0:0:0:
64,248,10621,1,0,0:0:0:0:
231,188,11371,2,0,P|279:129|375:95,1,180.000001192093,8|0,0:0|0:0,0:0:0:0:
427,272,12871,6,0,P|392:306|344:315,1,90.0000005960464
348,225,13621,1,8,0:0:0:0:
256,72,14371,2,0,P|218:48|173:47,1,90.0000005960464
85,64,15121,1,8,0:0:0:0:
33,137,15496,1,8,0:0:0:0:
36,228,15871,6,0,P|61:269|105:288,1,90.0000005960464
120,200,16621,1,8,0:0:0:0:
292,248,17371,2,0,P|323:279|334:322,1,90.0000005960464
244,324,18121,1,8,0:0:0:0:
166,277,18496,1,8,0:0:0:0:
120,200,18871,6,0,P|107:152|124:107,1,90.0000005960464
200,156,19621,1,8,0:0:0:0:
368,92,20371,2,0,P|404:66|448:63,1,90.0000005960464
436,152,21121,1,8,0:0:0:0:
310,283,21871,6,0,P|234:236|199:151,1,180.000001192093,8|0,0:0|0:0,0:0:0:0:
348,52,23371,1,8,0:0:0:0:
404,124,23746,2,0,L|472:204,2,90.0000005960464
348,52,24871,5,8,0:0:0:0:
315,136,25246,2,0,P|301:177|268:227,1,90.0000005960464
202,267,25996,1,0,0:0:0:0:
172,183,26371,2,0,P|215:153|229:106,1,90.0000005960464
140,100,27121,2,0,L|60:36,2,90.0000005960464
172,184,28246,6,0,L|124:298,1,90.0000005960464
74,332,28996,1,0,0:0:0:0:
48,245,29371,2,0,L|85:156,1,90.0000005960464
172,184,30121,2,0,L|240:120,2,90.0000005960464
137,266,31246,6,0,B|198:290|249:232,1,90.0000005960464
289,196,31996,1,0,0:0:0:0:
344,125,32371,2,0,P|387:116|441:138,1,90.0000005960464
383,207,33121,2,0,L|470:243,1,90.0000005960464
420,319,33871,5,0,0:0:0:0:
338,281,34246,1,0,0:0:0:0:
298,198,34621,2,0,P|276:150|233:127,1,90.0000005960464
205,210,35371,2,0,P|164:169|156:123,1,90.0000005960464
192,57,36121,2,0,P|246:37|291:51,1,90.0000005960464
245,130,36871,6,0,P|320:186|317:270,1,180.000001192093,0|8,0:0|0:0,0:0:0:0:
238,222,37996,1,0,0:0:0:0:
242,312,38371,2,0,P|193:302|160:266,1,90.0000005960464,0|2,0:0|0:0,0:0:0:0:
154,186,39121,1,8,0:0:0:0:
318,264,39871,6,0,P|337:309|379:333,1,90.0000005960464,0|2,0:0|0:0,0:0:0:0:
408,249,40621,1,8,0:0:0:0:
389,74,41371,2,0,P|344:53|296:63,1,90.0000005960464,0|2,0:0|0:0,0:0:0:0:
333,146,42121,2,0,P|284:149|242:124,1,90.0000005960464,8|2,0:0|0:0,0:0:0:0:
212,47,42871,6,0,P|158:124|188:199,1,180.000001192093,0|8,0:0|0:0,0:0:0:0:
248,132,43996,1,0,0:0:0:0:
333,146,44371,2,0,P|363:183|367:231,1,90.0000005960464,0|2,0:0|0:0,0:0:0:0:
277,220,45121,1,8,0:0:0:0:
116,300,45871,6,0,P|73:275|52:232,1,90.0000005960464,0|2,0:0|0:0,0:0:0:0:
141,213,46621,1,8,0:0:0:0:
84,44,47371,2,0,P|41:68|20:111,1,90.0000005960464,0|2,0:0|0:0,0:0:0:0:
108,132,48121,2,0,P|138:170|140:218,1,90.0000005960464,8|2,0:0|0:0,0:0:0:0:
116,300,48871,6,0,P|207:278|235:203,1,180.000001192093,0|8,0:0|0:0,0:0:0:0:
240,116,49996,1,0,0:0:0:0:
324,80,50371,2,0,P|332:128|312:171,1,90.0000005960464,0|2,0:0|0:0,0:0:0:0:
235,204,51121,1,8,0:0:0:0:
310,253,51496,1,0,0:0:0:0:
368,324,51871,6,0,P|415:334|460:316,1,90.0000005960464,0|2,0:0|0:0,0:0:0:0:
408,244,52621,1,8,0:0:0:0:
408,154,52996,1,0,0:0:0:0:
407,63,53371,2,0,P|358:60|317:86,1,90.0000005960464,0|2,0:0|0:0,0:0:0:0:
317,165,54121,2,0,P|270:149|241:111,1,90.0000005960464,8|2,0:0|0:0,0:0:0:0:
244,28,54871,6,0,P|164:78|162:158,1,180.000001192093,0|8,0:0|0:0,0:0:0:0:
244,119,55996,1,0,0:0:0:0:
325,80,56371,2,0,P|335:127|317:172,1,90.0000005960464,0|2,0:0|0:0,0:0:0:0:
240,208,57121,1,8,0:0:0:0:
316,253,57496,1,0,0:0:0:0:
390,300,57871,6,0,P|358:331|315:341,1,90.0000005960464
237,294,58621,2,0,P|225:250|239:208,1,90.0000005960464,8|0,0:0|0:0,0:0:0:0:
321,165,59371,2,0,P|363:175|394:207,1,90.0000005960464,8|0,0:0|0:0,0:0:0:0:
390,300,60121,2,0,P|358:331|315:341,1,90.0000005960464
237,294,60871,5,8,0:0:0:0:
61,254,61621,1,0,0:0:0:0:
185,122,62371,1,8,0:0:0:0:
237,294,63121,2,0,P|271:332|319:340,1,90.0000005960464
315,251,63871,5,8,0:0:0:0:
476,168,64621,1,0,0:0:0:0:
324,72,65371,1,8,0:0:0:0:
168,160,66121,2,0,P|116:170|72:149,1,90.0000005960464
128,80,66871,5,8,0:0:0:0:
220,236,67621,1,0,0:0:0:0:
40,240,68371,1,8,0:0:0:0:
126,82,69121,2,0,P|176:69|221:89,1,90.0000005960464
168,162,69871,6,0,P|219:173|263:152,1,90.0000005960464
306,87,70621,2,0,P|351:62|401:65,1,90.0000005960464
476,79,71371,2,0,L|464:191,1,90.0000005960464,0|8,0:0|0:0,0:0:0:0:
375,159,72121,2,0,L|363:271,1,90.0000005960464,0|8,0:0|0:0,0:0:0:0:
356,340,72871,5,0,0:0:0:0:
201,247,73621,2,0,P|154:223|106:232,1,90.0000005960464
141,313,74371,1,8,0:0:0:0:
308,247,75121,2,0,P|354:223|402:232,1,90.0000005960464
369,315,75871,5,8,0:0:0:0:
378,135,76621,2,0,P|396:86|382:39,1,90.0000005960464
306,83,77371,1,8,0:0:0:0:
134,138,78121,2,0,P|112:90|124:42,1,90.0000005960464
206,82,78871,5,8,0:0:0:0:
217,261,79621,2,0,P|268:271|311:248,1,90.0000005960464
256,179,80371,1,8,0:0:0:0:
141,315,81121,2,0,P|121:266|135:219,1,90.0000005960464
212,262,81871,5,0,0:0:0:0:
301,262,82246,1,0,0:0:0:0:
348,338,82621,2,0,P|385:300|391:251,1,90.0000005960464
420,180,83371,2,0,L|512:144,2,90.0000005960464,8|0|8,0:0|0:0|0:0,0:0:0:0:
332,176,84496,1,0,0:0:0:0:
380,100,84871,6,0,P|285:102|240:173,1,180.000001192093,0|8,0:0|0:0,0:0:0:0:
332,176,85996,1,0,0:0:0:0:
280,248,86371,2,0,P|231:258|187:239,1,90.0000005960464,0|2,0:0|0:0,0:0:0:0:
152,164,87121,1,8,0:0:0:0:
24,292,87871,6,0,P|71:304|116:288,1,90.0000005960464,0|2,0:0|0:0,0:0:0:0:
68,212,88621,1,8,0:0:0:0:
143,163,88996,2,0,L|201:139,1,45.0000002980232
312,96,89746,2,0,L|412:96,2,90.0000005960464,8|0|8,0:0|0:0|0:0,0:0:0:0:
332,184,90871,6,0,P|362:273|310:340,1,180.000001192093,0|8,0:0|0:0,0:0:0:0:
276,256,91996,1,0,0:0:0:0:
239,173,92371,2,0,P|252:130|286:101,1,90.0000005960464,0|2,0:0|0:0,0:0:0:0:
376,102,93121,1,8,0:0:0:0:
280,256,93871,6,0,P|233:271|187:257,1,90.0000005960464
112,220,94621,1,8,0:0:0:0:
188,172,94996,2,0,L|216:133,1,45.0000002980232
103,57,95746,2,0,P|75:96|76:144,1,90.0000005960464,8|0,0:0|0:0,0:0:0:0:
112,220,96496,1,8,0:0:0:0:
188,172,96871,6,0,P|203:217|189:263,1,90.0000005960464
120,312,97621,1,8,0:0:0:0:
112,220,97996,1,0,0:0:0:0:
63,144,98371,2,0,P|91:104|136:87,1,90.0000005960464
204,40,99121,1,8,0:0:0:0:
205,129,99496,1,0,0:0:0:0:
286,90,99871,6,0,P|333:77|379:93,1,90.0000005960464
420,165,100621,1,8,0:0:0:0:
330,169,100996,1,0,0:0:0:0:
380,243,101371,2,0,P|421:268|438:313,1,90.0000005960464
350,327,102121,2,0,P|303:338|258:322,1,90.0000005960464,8|0,0:0|0:0,0:0:0:0:
216,250,102871,6,0,P|169:238|124:254,1,90.0000005960464,8|0,0:0|0:0,0:0:0:0:
84,327,103621,1,8,0:0:0:0:
173,329,103996,1,0,0:0:0:0:
264,325,104371,2,0,P|293:292|307:246,1,90.0000005960464
264,170,105122,1,8,0:0:0:0:
174,168,105496,1,0,0:0:0:0:
216,250,105871,6,0,P|174:263|131:250,1,90.0000005960464
83,174,106621,1,8,0:0:0:0:
124,94,106996,1,0,0:0:0:0:
174,168,107371,2,0,P|217:156|259:170,1,90.0000005960464,0|0,2:0|0:0,0:0:0:0:
215,249,108121,2,0,P|257:273|277:316,1,90.0000005960464,8|0,0:0|0:0,0:0:0:0:
187,333,108871,5,8,0:0:0:0:
74,192,109621,1,0,0:0:0:0:
252,169,110371,2,0,L|348:169,1,90.0000005960464,8|0,0:0|0:0,0:0:0:0:
432,169,111121,1,0,0:0:0:0:
343,325,111871,5,8,0:0:0:0:
252,169,112621,1,0,0:0:0:0:
72,171,113371,2,0,P|33:205|24:253,1,90.0000005960464
114,251,114121,2,0,P|92:298|50:321,1,90.0000005960464
