osu file format v14

[General]
AudioFilename: audio.mp3
AudioLeadIn: 0
PreviewTime: 11456
Countdown: 0
SampleSet: None
StackLeniency: 0.2
Mode: 0
LetterboxInBreaks: 0
WidescreenStoryboard: 1

[Editor]
Bookmarks: 6123,11456,22123
DistanceSpacing: 0.6
BeatDivisor: 6
GridSize: 8
TimelineZoom: 1

[Metadata]
Title:Baka!
TitleUnicode:Baka!
Artist:Shawn Wasabi
ArtistUnicode:Shawn Wasabi
Creator:Livstvichka
Version:BEKA!
Source:
Tags:
BeatmapID:1309072
BeatmapSetID:601413

[Difficulty]
HPDrainRate:5
CircleSize:4
OverallDifficulty:6
ApproachRate:8.7
SliderMultiplier:1.4
SliderTickRate:1

[Events]
//Background and Video events
0,0,"1v7IMcsxz5s.jpg",0,0
//Break Periods
//Storyboard Layer 0 (Background)
//Storyboard Layer 1 (Fail)
//Storyboard Layer 2 (Pass)
//Storyboard Layer 3 (Foreground)
//Storyboard Sound Samples

[TimingPoints]
790,333.333333333333,4,3,1,10,1,0
5956,-100,4,3,1,50,0,0
6123,-80,4,3,1,35,0,0
10123,-50,4,3,1,50,0,0
10289,-50,4,2,1,5,0,0
10345,-50,4,3,1,50,0,0
10512,-50,4,2,1,5,0,0
10567,-50,4,3,1,50,0,0
10734,-50,4,2,1,5,0,0
10789,-50,4,3,1,75,0,0
11456,-50,4,3,1,45,0,0
22123,-50,4,3,1,45,0,0
22456,-66.6666666666667,4,3,1,45,0,0
24456,-50,4,3,1,45,0,0
27789,-66.6666666666667,4,3,1,45,0,0
29789,-50,4,3,1,45,0,0

[Colours]
Combo1 : 188,22,22
Combo2 : 119,119,136
Combo3 : 173,171,194
Combo4 : 190,187,198
Combo5 : 128,0,0
Combo6 : 128,64,64

[HitObjects]
192,112,790,6,0,L|144:128,1,35
168,144,956,1,0,0:0:0:0:
176,160,1123,1,0,0:0:0:0:
184,176,1289,1,0,0:0:0:0:
192,192,1456,1,0,0:0:0:0:
200,208,1623,1,0,0:0:0:0:
208,224,1789,1,0,0:0:0:0:
216,240,1956,1,0,0:0:0:0:
352,312,2123,5,0,0:0:0:0:
408,152,2289,1,0,0:0:0:0:
408,152,2456,1,0,0:0:0:0:
312,208,2623,5,0,0:0:0:0:
496,224,2789,1,0,0:0:0:0:
312,224,2956,1,0,0:0:0:0:
469,118,3123,2,0,L|504:112,1,35
369,73,3289,2,0,L|336:64,1,35
232,128,3456,5,0,0:0:0:0:
216,136,3623,1,0,0:0:0:0:
200,144,3789,1,0,0:0:0:0:
184,144,3956,1,0,0:0:0:0:
168,136,4123,1,0,0:0:0:0:
152,128,4289,1,0,0:0:0:0:
136,128,4456,1,0,0:0:0:0:
120,136,4623,1,0,0:0:0:0:
56,48,4789,5,0,0:0:0:0:
32,224,4956,1,0,0:0:0:0:
32,224,5123,1,0,0:0:0:0:
120,136,5289,5,0,0:0:0:0:
136,312,5456,1,0,0:0:0:0:
136,312,5623,1,0,0:0:0:0:
0,312,5789,1,0,0:0:0:0:
136,232,5956,2,0,L|141:215,2,17.5,4|0|0,0:0|0:0|0:0,0:0:0:0:
160,240,6123,5,2,0:0:0:0:
256,368,6456,1,0,0:0:0:0:
360,152,6789,1,0,0:0:0:0:
136,136,7123,1,0,0:0:0:0:
40,120,7456,6,0,P|80:56|176:56,1,175
256,192,7956,1,0,0:0:0:0:
360,152,8123,2,0,L|448:160,1,87.5
296,32,8456,2,0,P|280:72|288:120,1,87.5
352,224,8789,6,0,L|344:280,1,43.75,2|0,0:0|0:0,0:0:0:0:
264,352,8956,2,0,L|256:296,1,43.75
232,168,9123,1,0,0:0:0:0:
56,144,9289,6,0,L|64:200,1,43.75,2|0,0:0|0:0,0:0:0:0:
144,272,9456,2,0,L|152:216,1,43.75
176,88,9623,1,0,0:0:0:0:
16,56,9789,6,0,L|72:64,1,43.75,2|0,0:0|0:0,0:0:0:0:
136,152,9956,1,0,0:0:0:0:
296,48,10123,6,0,L|288:144,1,93.3333333333333
328,112,10345,2,0,L|320:208,1,93.3333333333333
360,176,10567,2,0,L|352:272,1,93.3333333333333
192,328,10789,1,0,0:0:0:0:
192,328,11123,1,0,0:0:0:0:
40,208,11456,6,0,P|112:208|200:224,1,140
296,88,11789,2,0,P|296:120|280:160,1,70
192,120,11956,1,0,0:0:0:0:
192,120,12123,1,0,0:0:0:0:
360,264,12289,2,0,P|328:264|288:248,1,70
464,208,12456,2,0,L|451:347,1,140
320,344,12789,6,0,P|248:320|176:328,1,140
72,192,13123,2,0,L|62:122,1,70
144,64,13289,1,0,0:0:0:0:
144,64,13456,1,0,0:0:0:0:
216,240,13623,2,0,L|225:170,1,70
296,112,13789,2,0,L|456:96,1,140
352,312,14123,5,0,0:0:0:0:
192,136,14289,1,0,0:0:0:0:
384,192,14456,1,0,0:0:0:0:
184,280,14623,1,0,0:0:0:0:
296,112,14789,5,0,0:0:0:0:
104,80,14956,1,0,0:0:0:0:
272,248,15123,1,0,0:0:0:0:
224,24,15289,1,0,0:0:0:0:
168,248,15456,5,0,0:0:0:0:
363,175,15623,1,0,0:0:0:0:
189,266,15789,5,0,0:0:0:0:
354,202,15956,1,0,0:0:0:0:
211,285,16123,5,0,0:0:0:0:
346,230,16290,1,0,0:0:0:0:
233,303,16456,5,0,0:0:0:0:
337,257,16623,1,0,0:0:0:0:
96,216,16789,6,0,B|88:272|128:304|128:304|96:344,1,140
24,184,17122,2,0,P|24:144|48:104,1,70
136,112,17289,1,0,0:0:0:0:
136,112,17456,1,0,0:0:0:0:
248,16,17623,2,0,P|248:56|224:96,1,70
208,176,17789,2,0,L|360:184,1,140
472,88,18123,6,0,L|320:96,1,140
440,232,18456,2,0,P|456:200|448:160,1,70
347,183,18623,1,0,0:0:0:0:
347,183,18789,1,0,0:0:0:0:
256,296,18956,2,0,L|184:280,1,70
112,168,19122,2,0,B|139:209|91:257|107:305,1,140
216,192,19456,6,0,P|280:160|360:160,1,140
504,232,19789,2,0,P|472:240|432:232,1,70
448,136,19956,1,0,0:0:0:0:
448,136,20123,1,0,0:0:0:0:
320,256,20289,6,0,L|312:344,2,70
256,168,20623,1,0,0:0:0:0:
56,256,20789,6,0,L|144:272,1,70
64,288,20956,2,0,L|152:304,1,70
256,48,21123,6,0,L|168:64,1,70
248,80,21290,2,0,L|160:96,1,70
336,320,21623,6,0,L|343:250,1,70
304,176,21789,2,0,B|352:152|400:184|400:184|448:176,1,140
496,112,22039,5,0,0:0:0:0:
496,112,22123,2,0,L|480:264,1,140
272,352,22456,6,0,P|208:336|192:296,1,105.000004005432
240,232,22789,1,0,0:0:0:0:
56,216,22956,2,0,P|112:136|216:160,1,210.000008010865
312,280,23456,6,0,P|368:288|408:256,1,105.000004005432
424,168,23789,1,0,0:0:0:0:
344,8,23956,2,0,B|312:64|312:64|344:208,1,210.000008010865
312,344,24456,6,0,P|240:360|168:336,1,140
208,96,24789,2,0,L|216:248,1,140
96,160,25123,5,0,0:0:0:0:
96,88,25289,1,0,0:0:0:0:
128,24,25456,1,0,0:0:0:0:
192,0,25623,1,0,0:0:0:0:
256,16,25789,1,0,0:0:0:0:
312,56,25956,1,0,0:0:0:0:
472,132,26123,5,0,0:0:0:0:
480,181,26290,1,0,0:0:0:0:
488,230,26457,1,0,0:0:0:0:
296,160,26623,1,0,0:0:0:0:
376,224,26789,5,0,0:0:0:0:
371,273,26956,1,0,0:0:0:0:
208,272,27123,1,0,0:0:0:0:
312,352,27289,1,0,0:0:0:0:
312,352,27456,2,0,P|384:368|456:336,1,140
496,208,27789,6,0,L|504:104,1,105.000004005432
440,40,28122,1,0,0:0:0:0:
400,184,28289,2,0,P|344:264|240:240,1,210.000008010865
152,184,28789,6,0,L|32:168,1,105.000004005432
24,256,29122,1,0,0:0:0:0:
0,88,29289,2,0,B|56:48|56:48|120:96|192:48,1,210.000008010865
304,128,29789,2,0,P|368:160|448:144,1,140
384,48,30122,5,0,0:0:0:0:
336,232,30289,1,0,0:0:0:0:
464,224,30456,2,0,B|461:276|461:276|384:336,1,140
248,328,30789,1,0,0:0:0:0:
168,216,30956,2,0,L|181:76,1,140
176,64,31289,1,0,0:0:0:0:
320,80,31456,6,0,L|360:168,1,70
440,136,31623,2,0,L|400:224,1,70
336,224,31789,6,0,L|367:294,1,70
431,268,31956,2,0,L|399:338,1,70
328,376,32123,1,0,0:0:0:0:
192,256,32290,1,0,0:0:0:0:
192,256,32456,2,0,P|104:232|40:248,1,140
