osu file format v14

[General]
AudioFilename: audio.mp3
AudioLeadIn: 0
PreviewTime: 11456
Countdown: 0
SampleSet: None
StackLeniency: 0.2
Mode: 0
LetterboxInBreaks: 0
WidescreenStoryboard: 1

[Editor]
Bookmarks: 6123,11456,22123
DistanceSpacing: 0.6
BeatDivisor: 4
GridSize: 8
TimelineZoom: 1

[Metadata]
Title:Baka!
TitleUnicode:Baka!
Artist:Shawn Wasabi
ArtistUnicode:Shawn Wasabi
Creator:Livstvichka
Version:BAKA!Ltika7
Source:
Tags:
BeatmapID:1281964
BeatmapSetID:601413

[Difficulty]
HPDrainRate:6
CircleSize:4
OverallDifficulty:8
ApproachRate:9.3
SliderMultiplier:1.1
SliderTickRate:1

[Events]
//Background and Video events
0,0,"1v7IMcsxz5s.jpg",0,0
//Break Periods
//Storyboard Layer 0 (Background)
//Storyboard Layer 1 (Fail)
//Storyboard Layer 2 (Pass)
//Storyboard Layer 3 (Foreground)
//Storyboard Sound Samples

[TimingPoints]
790,333.333333333333,4,3,1,10,1,0
790,-200,4,3,1,10,0,0
6123,-66.6666666666667,4,3,1,50,0,0
8789,-50,4,3,1,50,0,0
10123,-100,4,3,1,50,0,0
10345,-80,4,3,1,50,0,0
10539,-66.6666666666667,4,3,1,50,0,0
10789,-200,4,3,1,10,0,0
11456,-50,4,3,1,100,0,0
14956,-50,4,3,1,100,0,1
15289,-50,4,3,1,100,0,0
20289,-50,4,3,1,100,0,1
20623,-50,4,3,1,100,0,0
20789,-125,4,3,1,100,0,0
21289,-200,4,3,1,100,0,0
21789,-66.6666666666667,4,3,1,100,0,0
22123,-50,4,3,1,100,0,0
25623,-50,4,3,1,100,0,1
25956,-50,4,3,1,100,0,0
30956,-50,4,3,1,100,0,1
31289,-50,4,3,1,100,0,0

[Colours]
Combo1 : 188,22,22
Combo2 : 119,119,136
Combo3 : 173,171,194
Combo4 : 190,187,198
Combo5 : 128,0,0
Combo6 : 128,64,64

[HitObjects]
40,336,790,38,0,B|136:304|184:368|184:368|176:336|152:248|256:192,1,357.5
258,295,3123,1,0,0:0:0:0:
258,295,3289,1,0,0:0:0:0:
246,197,3456,70,0,P|335:171|257:294,1,357.5
308,239,5789,1,0,0:0:0:0:
444,223,5956,5,0,0:0:0:0:
376,231,6039,1,0,0:0:0:0:
308,239,6123,69,0,0:0:0:0:
376,231,6289,1,0,0:0:0:0:
444,223,6456,1,0,0:0:0:0:
512,215,6623,1,0,0:0:0:0:
360,80,6789,5,0,0:0:0:0:
368,148,6955,1,0,0:0:0:0:
376,216,7122,1,0,0:0:0:0:
384,284,7289,1,0,0:0:0:0:
352,72,7456,69,0,0:0:0:0:
376,276,7623,1,0,0:0:0:0:
187,194,7789,1,0,0:0:0:0:
332,65,7956,5,0,0:0:0:0:
391,262,8123,1,0,0:0:0:0:
191,214,8289,1,0,0:0:0:0:
408,256,8456,1,0,0:0:0:0:
176,224,8622,1,0,0:0:0:0:
144,368,8789,6,0,P|160:336|160:304,1,55,4|0,0:0|0:0,0:0:0:0:
232,336,8956,2,0,P|232:300|219:271,1,55
160,240,9123,1,0,0:0:0:0:
191,214,9289,21,4,0:0:0:0:
176,224,9373,1,0,0:0:0:0:
160,240,9456,1,0,0:0:0:0:
128,168,9623,53,0,0:0:0:0:
64,128,9789,21,4,0:0:0:0:
80,112,9872,1,0,0:0:0:0:
95,102,9956,1,0,0:0:0:0:
184,32,10123,54,0,L|144:64,1,36.6666666666667
256,104,10345,22,0,L|232:160,1,45.8333333333333
328,192,10539,54,0,L|336:248,1,55.0000020980836
424,296,10789,22,0,L|464:344,1,55
344,376,11456,5,0,0:0:0:0:
323,364,11539,1,0,0:0:0:0:
308,345,11622,1,0,0:0:0:0:
302,322,11706,1,0,0:0:0:0:
312,304,11789,2,0,P|352:320|368:320,1,55
360,240,11956,2,0,P|403:237|417:230,1,55
384,160,12123,2,0,P|421:139|432:127,1,55
408,56,12289,2,0,P|370:76|359:88,1,55
381,173,12456,2,0,P|428:147|441:132,1,55
411,42,12622,2,0,P|363:68|350:83,1,55
312,128,12789,6,0,P|279:171|274:190,1,55
248,240,12956,2,0,P|236:292|240:312,1,55
256,368,13123,1,0,0:0:0:0:
256,368,13206,1,0,0:0:0:0:
256,368,13289,2,0,L|192:360,1,55
41,345,13456,2,0,L|96:352,1,55
96,272,13623,2,0,L|41:265,1,55
41,185,13789,2,0,L|96:192,1,55
104,112,13956,2,0,L|49:105,1,55
57,25,14123,5,0,0:0:0:0:
75,27,14206,1,0,0:0:0:0:
93,29,14289,1,0,0:0:0:0:
112,32,14373,1,0,0:0:0:0:
176,104,14456,69,0,0:0:0:0:
194,102,14539,1,0,0:0:0:0:
212,100,14622,1,0,0:0:0:0:
231,97,14706,1,0,0:0:0:0:
296,24,14789,6,0,L|376:40,1,55
472,96,14956,6,0,L|424:104,1,27.5
472,104,15039,2,0,L|424:112,1,27.5
472,112,15123,2,0,L|424:120,1,27.5
472,120,15206,2,0,L|368:136,1,55
384,200,15456,70,0,P|344:160|352:80,1,110
296,280,15789,2,0,P|349:260|375:184,1,110
216,280,16123,2,0,P|162:260|136:184,1,110
128,200,16456,2,0,P|168:160|160:80,1,110
96,128,16789,69,0,0:0:0:0:
67,150,16872,1,0,0:0:0:0:
51,182,16955,1,0,0:0:0:0:
50,219,17039,1,0,0:0:0:0:
64,248,17123,1,0,0:0:0:0:
74,262,17206,1,0,0:0:0:0:
79,280,17289,1,0,0:0:0:0:
78,298,17372,1,0,0:0:0:0:
72,312,17456,1,0,0:0:0:0:
112,304,17539,1,0,0:0:0:0:
153,305,17622,1,0,0:0:0:0:
193,314,17705,1,0,0:0:0:0:
232,336,17789,2,0,P|256:352|288:352,1,55
328,296,17956,2,0,P|304:280|272:280,1,55
216,224,18123,5,0,0:0:0:0:
266,202,18206,1,0,0:0:0:0:
320,203,18289,1,0,0:0:0:0:
369,227,18372,1,0,0:0:0:0:
400,272,18456,1,0,0:0:0:0:
416,289,18539,1,0,0:0:0:0:
437,297,18622,1,0,0:0:0:0:
461,294,18705,1,0,0:0:0:0:
478,284,18789,1,0,0:0:0:0:
440,268,18872,1,0,0:0:0:0:
400,272,18955,1,0,0:0:0:0:
365,293,19038,1,0,0:0:0:0:
344,329,19123,2,0,P|320:345|288:345,1,55
248,288,19289,2,0,P|272:272|304:272,1,55
365,293,19456,69,0,0:0:0:0:
379,316,19539,1,0,0:0:0:0:
404,325,19622,1,0,0:0:0:0:
429,316,19705,1,0,0:0:0:0:
444,294,19789,1,0,0:0:0:0:
441,266,19873,1,0,0:0:0:0:
419,236,19956,1,0,0:0:0:0:
387,218,20039,1,0,0:0:0:0:
351,213,20122,1,0,0:0:0:0:
320,216,20206,1,0,0:0:0:0:
288,232,20289,54,0,L|296:264,1,27.5
248,240,20373,2,0,L|250:272,1,27.5
208,232,20456,2,0,L|204:264,1,27.5
184,208,20539,1,0,0:0:0:0:
152,192,20623,1,0,0:0:0:0:
112,256,20789,6,0,P|80:208|88:144,1,110
182,135,21289,2,0,B|174:175|174:175|142:199,1,68.75
168,128,21789,2,0,B|184:136|184:136|200:128|200:128|216:136|216:136|232:128|232:128|248:136|248:136|264:128|264:128|280:136|280:136,1,123.750004720688
312,72,22123,22,0,B|280:56|280:56|192:56,1,110
96,56,22456,1,0,0:0:0:0:
264,128,22623,1,0,0:0:0:0:
104,40,22789,1,0,0:0:0:0:
208,184,22956,1,0,0:0:0:0:
112,24,23123,1,0,0:0:0:0:
152,248,23289,1,0,0:0:0:0:
96,312,23456,70,0,P|168:328|232:288,1,110
152,240,23789,1,0,0:0:0:0:
200,328,23956,2,0,P|147:340|95:323,1,110
152,232,24289,1,0,0:0:0:0:
95,339,24456,2,0,P|147:356|200:344,1,110
344,304,24789,5,0,0:0:0:0:
256,296,24956,1,0,0:0:0:0:
344,304,25123,2,0,P|280:320|240:304,1,110
176,248,25456,1,0,0:0:0:0:
288,208,25623,6,0,L|296:240,1,27.5
296,200,25706,2,0,L|309:230,1,27.5
304,192,25789,2,0,L|322:219,1,27.5
312,184,25873,1,0,0:0:0:0:
320,176,25956,1,0,0:0:0:0:
440,216,26123,69,0,0:0:0:0:
328,168,26290,1,0,0:0:0:0:
216,120,26456,1,0,0:0:0:0:
104,72,26623,1,0,0:0:0:0:
168,0,26789,69,0,0:0:0:0:
216,112,26956,1,0,0:0:0:0:
264,224,27122,1,0,0:0:0:0:
312,336,27289,1,0,0:0:0:0:
200,384,27456,5,0,0:0:0:0:
195,348,27539,1,0,0:0:0:0:
168,325,27622,1,0,0:0:0:0:
132,326,27705,1,0,0:0:0:0:
104,352,27789,1,0,0:0:0:0:
65,314,27872,1,0,0:0:0:0:
56,260,27955,1,0,0:0:0:0:
80,212,28038,1,0,0:0:0:0:
120,176,28123,1,0,0:0:0:0:
121,123,28206,1,0,0:0:0:0:
78,92,28289,1,0,0:0:0:0:
29,110,28372,1,0,0:0:0:0:
13,159,28456,1,0,0:0:0:0:
68,158,28539,1,0,0:0:0:0:
120,176,28622,1,0,0:0:0:0:
161,211,28705,1,0,0:0:0:0:
169,262,28789,69,0,0:0:0:0:
129,297,28872,1,0,0:0:0:0:
77,288,28955,1,0,0:0:0:0:
50,242,29038,1,0,0:0:0:0:
69,192,29122,1,0,0:0:0:0:
120,176,29205,1,0,0:0:0:0:
161,211,29289,1,0,0:0:0:0:
169,262,29372,1,0,0:0:0:0:
198,308,29455,1,0,0:0:0:0:
243,338,29538,1,0,0:0:0:0:
297,346,29622,1,0,0:0:0:0:
350,332,29705,1,0,0:0:0:0:
392,296,29789,2,0,P|408:272|416:240,1,55
368,184,29956,2,0,P|352:208|344:240,1,55
272,272,30123,5,0,0:0:0:0:
270,217,30206,1,0,0:0:0:0:
287,165,30289,1,0,0:0:0:0:
322,123,30372,1,0,0:0:0:0:
369,95,30456,1,0,0:0:0:0:
424,96,30539,1,0,0:0:0:0:
380,62,30622,1,0,0:0:0:0:
328,47,30705,1,0,0:0:0:0:
273,53,30788,1,0,0:0:0:0:
225,78,30872,1,0,0:0:0:0:
208,128,30956,6,0,L|216:160,1,27.5
160,152,31039,2,0,L|168:184,1,27.5
112,176,31123,2,0,L|120:208,1,27.5
64,200,31206,2,0,L|80:264,1,55
32,312,31456,70,0,P|80:328|120:320,1,55
43,331,31623,2,0,P|92:342|131:331,1,55
224,208,31789,70,0,P|176:224|136:216,1,55
212,227,31956,2,0,P|162:238|123:227,1,55
176,144,32123,70,0,P|232:128|256:280,1,220
288,320,32623,5,0,0:0:0:0:
360,304,32789,54,0,B|395:346|459:335|459:335|481:274|445:232,1,220
