osu file format v14

[General]
AudioFilename: audio.mp3
AudioLeadIn: 0
PreviewTime: 11456
Countdown: 0
SampleSet: None
StackLeniency: 0.2
Mode: 0
LetterboxInBreaks: 0
WidescreenStoryboard: 0

[Editor]
Bookmarks: 6123,11456,22123
DistanceSpacing: 0.6
BeatDivisor: 6
GridSize: 8
TimelineZoom: 1

[Metadata]
Title:Baka!
TitleUnicode:Baka!
Artist:Shawn Wasabi
ArtistUnicode:Shawn Wasabi
Creator:Livstvichka
Version:B-B-BAKA!!
Source:
Tags:
BeatmapID:1270526
BeatmapSetID:601413

[Difficulty]
HPDrainRate:7
CircleSize:4.2
OverallDifficulty:8
ApproachRate:9.3
SliderMultiplier:1.4
SliderTickRate:1

[Events]
//Background and Video events
0,0,"1v7IMcsxz5s.jpg",0,0
//Break Periods
//Storyboard Layer 0 (Background)
//Storyboard Layer 1 (Fail)
//Storyboard Layer 2 (Pass)
//Storyboard Layer 3 (Foreground)
//Storyboard Sound Samples

[TimingPoints]
790,333.333333333333,4,3,1,10,1,0
5956,-100,4,3,1,50,0,0
6123,-80,4,3,1,35,0,0
10123,-50,4,3,1,50,0,0
10289,-50,4,2,1,5,0,0
10345,-50,4,3,1,50,0,0
10512,-50,4,2,1,5,0,0
10567,-50,4,3,1,50,0,0
10734,-50,4,2,1,5,0,0
10789,-50,4,3,1,75,0,0
11456,-50,4,3,1,45,0,0
22123,-50,4,3,1,45,0,0

[Colours]
Combo1 : 188,22,22
Combo2 : 119,119,136
Combo3 : 173,171,194
Combo4 : 190,187,198
Combo5 : 128,0,0
Combo6 : 128,64,64

[HitObjects]
155,82,790,6,0,P|185:72|231:73,1,70,6|0,0:0|0:0,0:0:0:0:
357,302,1123,2,0,P|327:312|281:311,1,70
198,54,1456,2,0,P|230:54|273:71,1,70
313,329,1789,2,0,P|281:329|238:312,1,70
181,257,2123,5,2,0:2:0:0:
238,142,2289,1,0,0:0:0:0:
268,230,2456,1,0,0:2:0:0:
211,142,2623,5,2,0:2:0:0:
323,143,2789,1,0,0:0:0:0:
263,334,2956,1,2,0:2:0:0:
295,237,3123,53,0,0:0:0:0:
362,315,3289,1,2,0:2:0:0:
225,157,3456,6,0,L|155:153,1,70,2|0,0:2|0:0,0:0:0:0:
439,247,3789,2,0,L|509:243,1,70
217,196,4123,2,0,L|149:216,1,70
448,207,4456,2,0,L|512:179,1,70
493,284,4789,5,2,0:2:0:0:
332,293,4956,1,0,0:0:0:0:
414,342,5123,1,0,0:0:0:0:
337,271,5289,53,2,0:2:0:0:
250,204,5456,1,0,0:0:0:0:
350,165,5623,1,2,0:2:0:0:
155,245,5789,1,0,0:0:0:0:
431,237,5956,1,8,0:0:0:0:
437,214,6039,1,0,0:0:0:0:
442,193,6123,2,0,L|439:105,1,87.5,2|0,0:0|0:0,0:0:0:0:
390,23,6456,5,8,0:0:0:0:
288,50,6789,1,8,0:0:0:0:
187,80,7123,1,8,0:0:0:0:
187,80,7456,5,8,0:0:0:0:
199,160,7623,1,0,0:0:0:0:
212,239,7789,1,8,0:0:0:0:
252,34,7956,53,0,0:0:0:0:
264,114,8123,1,8,0:0:0:0:
277,193,8289,1,0,0:0:0:0:
332,64,8456,5,8,0:0:0:0:
332,64,8623,1,0,0:0:0:0:
225,315,8789,37,10,0:0:0:0:
419,155,8956,1,8,0:0:0:0:
406,141,9123,1,8,0:0:0:0:
145,289,9289,5,10,0:0:0:0:
419,155,9456,1,8,0:0:0:0:
419,174,9623,1,8,0:0:0:0:
68,263,9789,5,10,0:0:0:0:
127,210,9956,1,0,0:0:0:0:
184,159,10123,2,0,L|323:164,1,140,8|0,0:0|0:0,0:0:0:0:
323,164,10345,6,0,L|184:159,1,140,8|0,0:0|0:0,0:0:0:0:
184,159,10567,6,0,L|323:164,1,140,8|0,0:0|0:0,0:0:0:0:
401,169,10789,5,8,0:0:0:0:
401,169,11456,22,0,P|393:214|394:257,1,70,10|0,0:0|0:0,0:0:0:0:
341,102,11623,2,0,P|333:57|334:14,1,70
308,187,11789,2,0,P|300:232|301:275,1,70
252,118,11956,2,0,P|244:73|245:30,1,70
163,20,12123,1,4,0:0:0:0:
82,273,12289,54,0,L|87:200,1,70
90,117,12456,1,0,0:0:0:0:
303,265,12623,5,0,0:0:0:0:
264,83,12789,1,10,0:0:0:0:
199,207,12956,1,0,0:0:0:0:
134,329,13123,1,8,0:0:0:0:
263,108,13289,1,8,0:0:0:0:
467,274,13456,1,4,0:0:0:0:
364,259,13623,6,0,L|353:338,1,70
434,175,13789,2,0,L|423:96,1,70,8|0,0:0|0:0,0:0:0:0:
298,106,13956,2,0,L|287:185,1,70
417,335,14123,54,0,P|448:301|455:269,1,70,10|0,0:0|0:0,0:0:0:0:
254,42,14289,2,0,P|223:76|216:108,1,70
444,314,14456,2,0,P|465:273|463:240,1,70
210,73,14622,2,0,P|188:113|190:146,1,70
372,152,14789,6,0,L|303:137,1,70,4|0,0:0|0:0,0:0:0:0:
288,242,14956,2,0,L|357:257,1,70
376,72,15123,2,0,L|445:57,1,70
460,162,15290,2,0,L|391:177,1,70
137,136,15456,6,0,P|161:96|192:80,1,70,10|0,0:0|0:0,0:0:0:0:
378,266,15623,2,0,P|354:306|323:322,1,70
142,96,15789,2,0,P|180:59|219:51,1,70,8|0,0:0|0:0,0:0:0:0:
367,308,15956,2,0,P|329:344|290:352,1,70,8|0,0:0|0:0,0:0:0:0:
375,136,16123,54,0,P|351:96|320:80,1,70,4|0,0:0|0:0,0:0:0:0:
134,266,16290,2,0,P|158:306|189:322,1,70
369,96,16456,2,0,P|331:59|292:51,1,70
144,308,16623,2,0,P|182:344|221:352,1,70
390,272,16789,6,0,P|434:262|472:269,1,70,10|0,0:0|0:0,0:0:0:0:
319,213,16956,2,0,P|275:203|237:210,1,70
411,175,17123,2,0,P|455:165|493:172,1,70
329,118,17289,2,0,P|285:108|247:115,1,70
177,140,17456,1,4,0:0:0:0:
314,364,17623,6,0,L|310:288,1,70
303,212,17789,1,0,0:0:0:0:
66,67,17956,53,0,0:0:0:0:
102,311,18123,1,10,0:0:0:0:
195,165,18289,1,0,0:0:0:0:
35,217,18456,1,8,0:0:0:0:
173,248,18623,1,8,0:0:0:0:
301,280,18789,1,4,0:0:0:0:
280,69,18956,6,0,L|277:146,1,70
444,224,19123,2,0,L|447:147,1,70,8|0,0:0|0:0,0:0:0:0:
388,283,19289,2,0,L|385:360,1,70
363,199,19456,6,0,P|336:211|305:250,1,70,10|0,0:0|0:0,0:0:0:0:
63,298,19623,2,0,P|90:286|121:247,1,70
389,245,19789,2,0,P|356:249|312:282,1,70
40,263,19956,2,0,P|72:258|116:225,1,70
314,266,20123,54,0,P|287:254|256:215,1,70,4|0,0:0|0:0,0:0:0:0:
14,167,20290,2,0,P|41:179|72:218,1,70
331,226,20456,2,0,P|300:221|258:189,1,70
0,208,20623,2,0,P|30:212|72:244,1,70
187,380,20789,5,10,0:0:0:0:
224,211,20956,1,8,0:0:0:0:
252,39,21123,1,8,0:0:0:0:
193,350,21289,1,2,0:0:0:0:
251,55,21623,1,8,0:0:0:0:
197,329,21789,2,0,P|259:341|351:225,1,210,10|0,0:0|0:0,0:0:0:0:
213,182,22123,6,0,P|230:219|261:255,1,70,10|0,0:0|0:0,0:0:0:0:
383,285,22289,2,0,P|366:248|335:212,1,70
366,80,22456,2,0,P|383:117|414:153,1,70
264,110,22623,2,0,P|247:73|216:37,1,70
148,11,22789,1,4,0:0:0:0:
70,229,22956,54,0,L|96:155,1,70
119,90,23123,1,0,0:0:0:0:
181,317,23289,5,0,0:0:0:0:
36,211,23456,1,10,0:0:0:0:
182,210,23623,1,0,0:0:0:0:
323,211,23789,1,8,0:0:0:0:
55,237,23956,1,8,0:0:0:0:
210,91,24123,1,4,0:0:0:0:
250,285,24289,6,0,L|221:352,1,70
177,177,24456,2,0,L|206:110,1,70,8|0,0:0|0:0,0:0:0:0:
363,196,24623,2,0,L|334:263,1,70
342,89,24789,54,0,P|390:85|430:105,1,70,10|0,0:0|0:0,0:0:0:0:
279,360,24956,2,0,P|231:364|191:344,1,70
371,102,25123,2,0,P|418:110|451:140,1,70
240,347,25290,2,0,P|192:338|159:308,1,70
262,206,25456,6,0,L|231:275,1,70,4|0,0:0|0:0,0:0:0:0:
195,148,25623,2,0,L|226:84,1,70
279,221,25789,2,0,L|310:290,1,70
346,163,25956,2,0,L|315:99,1,70
106,47,26123,6,0,P|74:79|64:110,1,70,10|0,0:0|0:0,0:0:0:0:
307,284,26289,2,0,P|339:252|349:221,1,70
65,70,26456,2,0,P|40:112|38:148,1,70,8|0,0:0|0:0,0:0:0:0:
344,263,26622,2,0,P|368:220|370:184,1,70,8|0,0:0|0:0,0:0:0:0:
308,47,26789,54,0,P|340:79|350:110,1,70,4|0,0:0|0:0,0:0:0:0:
107,284,26955,2,0,P|75:252|65:221,1,70
349,70,27122,2,0,P|373:112|375:148,1,70
70,263,27288,2,0,P|45:220|43:184,1,70
223,180,27456,6,0,P|270:178|317:190,1,70,10|0,0:0|0:0,0:0:0:0:
462,205,27623,2,0,P|415:203|368:215,1,70
237,283,27789,2,0,P|284:281|331:293,1,70
473,321,27956,2,0,P|426:319|379:331,1,70
331,358,28123,1,4,0:0:0:0:
189,128,28289,6,0,L|174:208,1,70
156,279,28456,1,0,0:0:0:0:
397,198,28623,53,0,0:0:0:0:
216,105,28789,1,10,0:0:0:0:
243,245,28956,1,0,0:0:0:0:
269,377,29123,1,8,0:0:0:0:
241,127,29289,1,8,0:0:0:0:
50,249,29456,1,4,0:0:0:0:
271,272,29623,6,0,L|366:280,1,70
485,163,29789,2,0,L|390:171,1,70,8|0,0:0|0:0,0:0:0:0:
410,366,29956,2,0,L|505:374,1,70
313,206,30123,6,0,P|283:235|268:264,1,70,10|0,0:0|0:0,0:0:0:0:
18,160,30289,2,0,P|48:131|63:102,1,70
319,240,30456,2,0,P|281:265|259:293,1,70
11,134,30622,2,0,P|48:108|70:80,1,70
299,24,30789,54,0,L|249:81,1,70,4|0,0:0|0:0,0:0:0:0:
112,329,30956,2,0,L|162:272,1,70
255,5,31123,2,0,L|221:72,1,70
153,348,31290,2,0,L|186:280,1,70
381,132,31456,6,0,L|377:224,1,70,10|0,0:0|0:0,0:0:0:0:
381,132,31623,2,0,L|377:223,1,70,8|0,0:0|0:0,0:0:0:0:
381,132,31789,2,0,L|377:224,1,70,8|0,0:0|0:0,0:0:0:0:
381,132,31956,2,0,L|377:224,1,70,8|0,0:0|0:0,0:0:0:0:
375,282,32123,1,12,0:0:0:0:
298,86,32289,6,0,L|294:178,1,70,8|0,0:0|0:0,0:0:0:0:
291,236,32456,2,0,P|258:266|128:135,1,280,10|2,0:0|0:2,0:0:0:0:
208,187,33067,1,2,0:2:0:0:
