osu file format v14

[General]
AudioFilename: audio.mp3
AudioLeadIn: 0
PreviewTime: 35364
Countdown: 0
SampleSet: Soft
StackLeniency: 0.7
Mode: 3
LetterboxInBreaks: 0
SpecialStyle: 0
WidescreenStoryboard: 1

[Editor]
DistanceSpacing: 1.5
BeatDivisor: 12
GridSize: 8
TimelineZoom: 2

[Metadata]
Title:BURNT RICE
TitleUnicode:BURNT RICE
Artist:Shawn Wasabi
ArtistUnicode:Shawn Wasabi
Creator:Yuuto Gaming
Version:Hard
Source:
Tags:
BeatmapID:1051586
BeatmapSetID:477026

[Difficulty]
HPDrainRate:7
CircleSize:4
OverallDifficulty:8
ApproachRate:5
SliderMultiplier:1.2
SliderTickRate:2

[Events]
//Background and Video events
0,0,"shawn-wasabi-burnt-rice-remixes.jpg",0,0
//Break Periods
//Storyboard Layer 0 (Background)
//Storyboard Layer 1 (Fail)
//Storyboard Layer 2 (Pass)
//Storyboard Layer 3 (Foreground)
//Storyboard Sound Samples

[TimingPoints]
864,375,4,2,0,100,1,0
36864,-100,4,2,0,100,0,1
42864,-100,4,2,0,100,0,0
43614,-100,4,2,0,100,0,1
48864,-100,4,2,0,100,0,0
49614,-100,4,2,0,100,0,1
54864,-100,4,2,0,100,0,0
55614,-100,4,2,0,100,0,1
59364,-100,4,2,0,100,0,0
84864,-100,4,2,0,100,0,1
85864,-100,4,2,0,100,0,0
85989,-100,4,2,0,100,0,1
89364,-100,4,2,0,100,0,0
89551,-100,4,2,0,100,0,1
91801,-100,4,2,0,100,0,0
91989,-100,4,2,0,100,0,1
95364,-100,4,2,0,100,0,0
95551,-100,4,2,0,100,0,1
96489,-100,4,2,0,100,0,0

[HitObjects]
320,192,864,5,0,0:0:0:0:
448,192,1239,1,0,0:0:0:0:
64,192,1426,1,0,0:0:0:0:
192,192,1614,1,0,0:0:0:133:
448,192,1989,1,0,0:0:0:133:
64,192,2364,128,0,2551:0:0:0:66:
320,192,2364,1,0,0:0:0:66:
192,192,2551,1,0,0:0:0:133:
448,192,2739,1,0,0:0:0:66:
64,192,2926,1,0,0:0:0:133:
320,192,3114,1,0,0:0:0:66:
448,192,3489,1,0,0:0:0:66:
192,192,3864,1,0,0:0:0:133:
320,192,4239,1,0,0:0:0:133:
64,192,4426,1,0,0:0:0:133:
192,192,4614,1,0,0:0:0:133:
448,192,4989,1,0,0:0:0:0:
64,192,5364,128,0,5551:0:0:0:66:
192,192,5364,1,0,0:0:0:66:
320,192,5551,1,0,0:0:0:133:
448,192,5739,1,0,0:0:0:133:
64,192,5926,1,0,0:0:0:0:
320,192,6114,1,0,0:0:0:66:
448,192,6114,128,0,6395:0:0:0:66:
192,192,6489,1,0,0:0:0:133:
192,192,6864,1,0,0:0:0:66:
64,192,6864,1,0,0:0:0:66:
448,192,7239,1,0,0:0:0:133:
192,192,7426,1,0,0:0:0:133:
64,192,7426,1,0,0:0:0:0:
320,192,7614,1,0,0:0:0:133:
448,192,7801,1,0,0:0:0:0:
320,192,7848,1,0,0:0:0:133:
192,192,7895,1,0,0:0:0:133:
64,192,7989,1,0,0:0:0:133:
320,192,7989,1,0,0:0:0:0:
192,192,8364,128,0,8551:0:0:0:66:
320,192,8364,1,0,0:0:0:66:
64,192,8551,1,0,0:0:0:0:
448,192,8645,1,0,0:0:0:0:
320,192,8692,1,0,0:0:0:0:
64,192,8739,1,0,0:0:0:66:
192,192,8739,1,0,0:0:0:66:
320,192,8926,1,0,0:0:0:133:
192,192,9114,1,0,0:0:0:66:
448,192,9114,1,0,0:0:0:66:
192,192,9489,1,0,0:0:0:66:
320,192,9489,1,0,0:0:0:66:
64,192,9864,1,0,0:0:0:66:
320,192,9864,1,0,0:0:0:66:
192,192,10239,1,0,0:0:0:133:
320,192,10426,1,0,0:0:0:66:
448,192,10426,1,0,0:0:0:66:
192,192,10614,1,0,0:0:0:133:
64,192,10801,1,0,0:0:0:0:
192,192,10848,1,0,0:0:0:0:
320,192,10895,1,0,0:0:0:0:
448,192,10989,1,0,0:0:0:133:
192,192,10989,1,0,0:0:0:0:
448,192,11364,128,0,11551:0:0:0:66:
320,192,11364,1,0,0:0:0:66:
192,192,11551,1,0,0:0:0:133:
64,192,11739,1,0,0:0:0:133:
320,192,11739,1,0,0:0:0:0:
448,192,11926,1,0,0:0:0:0:
192,192,11926,1,0,0:0:0:0:
192,192,12114,128,0,12301:0:0:0:133:
320,192,12160,1,0,0:0:0:0:
64,192,12348,1,0,0:0:0:0:
448,192,12489,1,0,0:0:0:66:
320,192,12489,1,0,0:0:0:0:
192,192,12676,1,0,0:0:0:133:
320,192,12676,1,0,0:0:0:0:
320,192,12864,1,4,0:0:0:44:
64,192,12864,1,4,0:0:0:44:
448,192,12864,1,0,0:0:0:0:
320,192,13051,1,0,0:0:0:0:
192,192,13239,1,0,0:0:0:0:
448,192,13239,1,0,0:0:0:0:
448,192,13426,1,0,0:0:0:0:
64,192,13426,1,0,0:0:0:0:
64,192,13614,1,0,0:0:0:66:
320,192,13614,1,0,0:0:0:66:
192,192,13614,1,0,0:0:0:0:
448,192,13614,1,0,0:0:0:0:
192,192,13801,1,0,0:0:0:0:
320,192,13989,1,0,0:0:0:66:
448,192,13989,1,0,0:0:0:66:
64,192,14176,1,0,0:0:0:133:
320,192,14364,128,0,14551:0:0:0:44:
192,192,14364,1,0,0:0:0:0:
448,192,14551,1,0,0:0:0:66:
64,192,14551,1,0,0:0:0:0:
320,192,14739,1,0,0:0:0:133:
192,192,14739,1,0,0:0:0:0:
64,192,14926,1,0,0:0:0:66:
192,192,14926,1,0,0:0:0:0:
192,192,15114,1,0,0:0:0:44:
448,192,15114,1,0,0:0:0:44:
320,192,15114,1,0,0:0:0:0:
64,192,15114,1,0,0:0:0:0:
192,192,15301,1,0,0:0:0:0:
320,192,15489,1,0,0:0:0:66:
448,192,15489,1,0,0:0:0:66:
64,192,15676,1,0,0:0:0:66:
320,192,15676,1,0,0:0:0:0:
64,192,15864,1,0,0:0:0:66:
320,192,15864,1,0,0:0:0:0:
192,192,16098,1,0,0:0:0:0:
448,192,16239,1,0,0:0:0:66:
320,192,16239,1,0,0:0:0:0:
64,192,16426,1,0,0:0:0:66:
192,192,16426,1,0,0:0:0:66:
192,192,16614,1,0,0:0:0:44:
448,192,16614,1,0,0:0:0:44:
320,192,16614,1,0,0:0:0:0:
64,192,16614,1,0,0:0:0:0:
64,192,16848,1,0,0:0:0:0:
320,192,16989,1,0,0:0:0:66:
448,192,16989,1,0,0:0:0:66:
192,192,17176,1,0,0:0:0:133:
64,192,17364,1,0,0:0:0:66:
192,192,17364,128,0,17551:0:0:0:66:
320,192,17551,1,0,0:0:0:66:
448,192,17551,1,0,0:0:0:0:
448,192,17739,1,0,0:0:0:66:
192,192,17739,1,0,0:0:0:66:
64,192,17926,1,0,0:0:0:66:
448,192,17926,1,0,0:0:0:0:
192,192,18114,1,0,0:0:0:66:
320,192,18114,1,0,0:0:0:66:
448,192,18114,1,0,0:0:0:0:
64,192,18114,1,0,0:0:0:0:
320,192,18332,1,0,0:0:0:0:
64,192,18489,1,0,0:0:0:0:
192,192,18489,1,0,0:0:0:0:
448,192,18489,128,0,18676:0:0:0:0:
192,192,18676,1,0,0:0:0:66:
320,192,18676,1,0,0:0:0:0:
64,192,18864,1,4,0:0:0:66:
448,192,18864,1,0,0:0:0:0:
192,192,18864,128,0,19051:0:0:0:0:
320,192,19051,1,0,0:0:0:0:
448,192,19239,1,0,0:0:0:66:
192,192,19239,1,0,0:0:0:0:
64,192,19426,1,0,0:0:0:133:
448,192,19426,1,0,0:0:0:0:
192,192,19614,1,0,0:0:0:66:
320,192,19614,1,0,0:0:0:66:
448,192,19614,1,0,0:0:0:0:
64,192,19614,1,0,0:0:0:0:
64,192,19801,1,0,0:0:0:133:
448,192,19801,1,0,0:0:0:0:
192,192,19848,1,0,0:0:0:0:
320,192,19895,1,0,0:0:0:0:
448,192,19989,1,0,0:0:0:66:
192,192,19989,1,0,0:0:0:0:
320,192,20176,1,0,0:0:0:0:
64,192,20364,1,0,0:0:0:66:
320,192,20364,128,0,20551:0:0:0:66:
448,192,20364,1,0,0:0:0:0:
192,192,20551,1,0,0:0:0:133:
64,192,20551,1,0,0:0:0:0:
192,192,20739,1,0,0:0:0:66:
448,192,20739,1,0,0:0:0:66:
64,192,20926,1,0,0:0:0:66:
320,192,20926,1,0,0:0:0:66:
192,192,21114,1,0,0:0:0:66:
448,192,21114,1,0,0:0:0:66:
320,192,21114,1,0,0:0:0:0:
64,192,21114,1,0,0:0:0:0:
320,192,21301,1,0,0:0:0:0:
64,192,21489,1,0,0:0:0:66:
448,192,21489,1,0,0:0:0:66:
192,192,21582,1,0,0:0:0:0:
320,192,21582,1,0,0:0:0:0:
64,192,21676,1,0,0:0:0:0:
448,192,21676,1,0,0:0:0:0:
192,192,21770,1,0,0:0:0:0:
320,192,21770,1,0,0:0:0:0:
64,192,21864,1,0,0:0:0:66:
448,192,21864,1,0,0:0:0:0:
448,192,22051,1,0,0:0:0:0:
192,192,22239,1,0,0:0:0:66:
320,192,22239,1,0,0:0:0:0:
320,192,22426,1,0,0:0:0:66:
448,192,22426,1,0,0:0:0:0:
64,192,22614,1,0,0:0:0:66:
192,192,22614,1,0,0:0:0:0:
448,192,22832,1,0,0:0:0:0:
320,192,22989,1,0,0:0:0:66:
192,192,22989,1,0,0:0:0:0:
64,192,23176,1,0,0:0:0:0:
320,192,23364,128,0,23551:0:0:0:0:
448,192,23364,1,0,0:0:0:0:
64,192,23551,1,0,0:0:0:66:
320,192,23739,1,0,0:0:0:66:
192,192,23739,1,0,0:0:0:66:
448,192,23926,1,0,0:0:0:133:
320,192,23926,1,0,0:0:0:0:
64,192,24114,1,0,0:0:0:66:
320,192,24114,1,0,0:0:0:66:
192,192,24301,1,0,0:0:0:133:
448,192,24489,128,0,24864:0:0:0:133:
320,192,24489,1,0,0:0:0:0:
192,192,24864,1,0,0:0:0:66:
64,192,24864,1,0,0:0:0:66:
320,192,24864,1,0,0:0:0:0:
320,192,25051,1,0,0:0:0:133:
448,192,25051,1,0,0:0:0:0:
64,192,25239,1,0,0:0:0:66:
320,192,25239,1,0,0:0:0:0:
448,192,25239,1,0,0:0:0:0:
320,192,25426,1,0,0:0:0:0:
192,192,25426,1,0,0:0:0:0:
448,192,25614,1,0,0:0:0:66:
192,192,25614,1,0,0:0:0:66:
320,192,25614,1,0,0:0:0:0:
320,192,25801,1,0,0:0:0:133:
64,192,25801,1,0,0:0:0:0:
448,192,25989,1,0,0:0:0:66:
192,192,25989,1,0,0:0:0:0:
320,192,25989,1,0,0:0:0:0:
192,192,26176,1,0,0:0:0:66:
320,192,26176,1,0,0:0:0:0:
64,192,26176,1,0,0:0:0:0:
64,192,26364,1,0,0:0:0:66:
192,192,26364,1,0,0:0:0:0:
448,192,26364,1,0,0:0:0:0:
320,192,26551,1,0,0:0:0:0:
448,192,26551,1,0,0:0:0:0:
448,192,26739,1,0,0:0:0:66:
64,192,26739,1,0,0:0:0:66:
320,192,26739,1,0,0:0:0:0:
192,192,26926,1,0,0:0:0:133:
448,192,26926,1,0,0:0:0:0:
320,192,27114,1,0,0:0:0:66:
192,192,27114,1,0,0:0:0:0:
64,192,27114,1,0,0:0:0:0:
448,192,27301,1,0,0:0:0:0:
320,192,27301,1,0,0:0:0:0:
64,192,27395,1,0,0:0:0:133:
192,192,27395,1,0,0:0:0:0:
448,192,27395,1,0,0:0:0:0:
320,192,27489,1,0,0:0:0:133:
192,192,27676,1,0,0:0:0:66:
320,192,27676,1,0,0:0:0:0:
64,192,27676,1,0,0:0:0:0:
448,192,27864,1,0,0:0:0:66:
64,192,27864,1,0,0:0:0:0:
192,192,27864,1,0,0:0:0:0:
320,192,28051,1,0,0:0:0:133:
192,192,28051,1,0,0:0:0:0:
64,192,28239,1,0,0:0:0:66:
448,192,28239,1,0,0:0:0:66:
320,192,28239,1,0,0:0:0:0:
192,192,28426,1,0,0:0:0:133:
64,192,28426,1,0,0:0:0:0:
320,192,28614,1,0,0:0:0:66:
448,192,28614,1,0,0:0:0:66:
192,192,28614,1,0,0:0:0:0:
64,192,28801,1,0,0:0:0:133:
448,192,28864,1,0,0:0:0:0:
320,192,28895,1,0,0:0:0:0:
448,192,28989,1,0,0:0:0:66:
192,192,28989,1,0,0:0:0:0:
64,192,28989,1,0,0:0:0:0:
64,192,29176,1,0,0:0:0:0:
320,192,29176,1,0,0:0:0:0:
192,192,29364,1,0,0:0:0:66:
448,192,29364,1,0,0:0:0:66:
320,192,29551,1,0,0:0:0:133:
192,192,29551,1,0,0:0:0:0:
320,192,29739,1,0,0:0:0:66:
64,192,29739,1,0,0:0:0:66:
448,192,29739,1,0,0:0:0:0:
448,192,29926,1,0,0:0:0:133:
192,192,29926,1,0,0:0:0:0:
64,192,30114,1,0,0:0:0:66:
320,192,30114,1,0,0:0:0:0:
448,192,30114,1,0,0:0:0:0:
192,192,30207,1,0,0:0:0:133:
448,192,30301,1,0,0:0:0:66:
320,192,30301,1,0,0:0:0:0:
64,192,30395,1,0,0:0:0:0:
192,192,30395,1,0,0:0:0:0:
320,192,30489,1,0,0:0:0:0:
448,192,30489,128,0,30582:0:0:0:0:
192,192,30676,1,0,0:0:0:133:
448,192,30676,1,0,0:0:0:0:
320,192,30770,1,0,0:0:0:0:
64,192,30864,1,4,0:0:0:66:
448,192,30864,1,4,0:0:0:66:
192,192,30864,1,0,0:0:0:0:
320,192,31051,128,0,31176:0:0:0:0:
192,192,31051,1,0,0:0:0:0:
64,192,31239,1,0,0:0:0:66:
448,192,31239,1,0,0:0:0:66:
192,192,31239,1,0,0:0:0:0:
192,192,31332,128,0,31614:0:0:0:0:
320,192,31426,1,0,0:0:0:0:
64,192,31614,1,0,0:0:0:66:
448,192,31614,1,0,0:0:0:66:
320,192,31614,1,0,0:0:0:0:
64,192,31801,1,0,0:0:0:133:
192,192,31801,1,0,0:0:0:0:
448,192,31989,1,0,0:0:0:133:
320,192,31989,1,0,0:0:0:0:
64,192,31989,1,0,0:0:0:0:
192,192,32176,1,0,0:0:0:66:
320,192,32176,1,0,0:0:0:66:
448,192,32176,1,0,0:0:0:0:
64,192,32364,1,0,0:0:0:66:
192,192,32364,1,0,0:0:0:66:
320,192,32364,1,0,0:0:0:0:
448,192,32364,128,0,32457:0:0:0:0:
320,192,32551,1,0,0:0:0:66:
448,192,32739,1,0,0:0:0:66:
192,192,32739,1,0,0:0:0:0:
64,192,32739,1,0,0:0:0:0:
320,192,32926,1,0,0:0:0:0:
448,192,33114,1,0,0:0:0:66:
64,192,33114,1,0,0:0:0:0:
320,192,33114,1,0,0:0:0:0:
192,192,33301,1,0,0:0:0:133:
320,192,33395,1,0,0:0:0:66:
64,192,33395,1,0,0:0:0:66:
448,192,33395,1,0,0:0:0:0:
192,192,33489,1,0,0:0:0:0:
64,192,33582,1,0,0:0:0:0:
320,192,33676,1,0,0:0:0:0:
448,192,33676,1,0,0:0:0:0:
64,192,33864,1,8,0:0:0:66:
448,192,33864,1,8,0:0:0:66:
320,192,33926,1,0,0:0:0:0:
192,192,33989,1,0,0:0:0:0:
448,192,34051,1,0,0:0:0:0:
320,192,34051,1,0,0:0:0:0:
64,192,34114,1,0,0:0:0:0:
192,192,34176,1,0,0:0:0:0:
320,192,34239,1,8,0:0:0:133:
448,192,34239,1,0,0:0:0:0:
64,192,34301,1,0,0:0:0:0:
192,192,34364,1,0,0:0:0:0:
64,192,34426,1,8,0:0:0:133:
448,192,34426,1,0,0:0:0:0:
320,192,34489,1,0,0:0:0:0:
192,192,34551,1,0,0:0:0:0:
64,192,34614,1,0,0:0:0:0:
320,192,34614,1,0,0:0:0:0:
448,192,34676,1,0,0:0:0:0:
192,192,34739,1,0,0:0:0:0:
448,192,34801,1,0,0:0:0:0:
64,192,34801,1,0,0:0:0:0:
320,192,34864,1,0,0:0:0:0:
64,192,34926,1,0,0:0:0:0:
448,192,34989,1,8,0:0:0:133:
192,192,34989,1,0,0:0:0:0:
64,192,35082,1,0,0:0:0:0:
320,192,35082,1,0,0:0:0:0:
448,192,35176,1,0,0:0:0:0:
192,192,35176,1,0,0:0:0:0:
64,192,35270,1,0,0:0:0:0:
320,192,35270,1,0,0:0:0:0:
448,192,35364,1,8,0:0:0:66:
192,192,35364,1,0,0:0:0:0:
192,192,35551,1,0,0:0:0:133:
192,192,35739,5,0,0:0:0:133:
192,192,35926,1,0,0:0:0:133:
192,192,36114,128,0,36301:0:0:0:133:
320,192,36301,1,0,0:0:0:133:
64,192,36489,1,10,0:0:0:133:
448,192,36676,1,10,0:0:0:133:
192,192,36864,5,8,0:0:0:66:
320,192,36864,1,8,0:0:0:66:
448,192,37145,1,0,0:0:0:66:
64,192,37145,1,0,0:0:0:66:
192,192,37426,1,0,0:0:0:133:
64,192,37614,128,0,37801:0:0:0:66:
320,192,37614,1,0,0:0:0:66:
192,192,37801,1,0,0:0:0:133:
448,192,37989,1,0,0:0:0:133:
320,192,37989,1,0,0:0:0:0:
448,192,38176,1,0,0:0:0:133:
448,192,38270,1,0,0:0:0:133:
320,192,38364,128,0,38551:0:0:0:133:
448,192,38645,1,0,0:0:0:133:
192,192,38739,1,0,0:0:0:133:
320,192,38739,1,0,0:0:0:0:
64,192,38926,1,0,0:0:0:133:
192,192,39114,1,0,0:0:0:66:
320,192,39114,1,0,0:0:0:66:
448,192,39114,1,0,0:0:0:0:
64,192,39114,1,0,0:0:0:0:
448,192,39301,1,0,0:0:0:133:
64,192,39489,1,0,0:0:0:133:
64,192,39676,1,0,0:0:0:133:
64,192,39770,1,0,0:0:0:133:
192,192,39864,128,0,40051:0:0:0:66:
448,192,39864,1,0,0:0:0:0:
320,192,40145,1,0,0:0:0:0:
64,192,40426,1,0,0:0:0:133:
320,192,40614,1,4,0:0:0:66:
448,192,40614,1,4,0:0:0:66:
192,192,40614,1,0,0:0:0:0:
64,192,40614,1,0,0:0:0:0:
320,192,40801,1,0,0:0:0:133:
192,192,40989,1,0,0:0:0:133:
192,192,41176,1,0,0:0:0:133:
448,192,41176,1,0,0:0:0:0:
192,192,41270,1,0,0:0:0:133:
448,192,41364,128,0,41551:0:0:0:133:
320,192,41551,1,0,0:0:0:133:
192,192,41645,1,0,0:0:0:0:
64,192,41739,1,0,0:0:0:66:
320,192,41739,1,0,0:0:0:0:
448,192,41926,1,0,0:0:0:0:
192,192,42114,1,4,0:0:0:66:
448,192,42114,1,4,0:0:0:66:
320,192,42114,1,0,0:0:0:0:
64,192,42114,1,0,0:0:0:0:
64,192,42301,1,0,0:0:0:133:
448,192,42395,1,0,0:0:0:0:
192,192,42489,1,0,0:0:0:66:
64,192,42489,128,0,42582:0:0:0:0:
64,192,42676,1,0,0:0:0:66:
320,192,42676,128,0,42770:0:0:0:0:
448,192,42770,128,0,42864:0:0:0:0:
320,192,42864,1,0,0:0:0:133:
192,192,42864,1,0,0:0:0:0:
192,192,43145,1,0,0:0:0:133:
448,192,43145,1,0,0:0:0:0:
320,192,43145,1,0,0:0:0:0:
64,192,43426,1,0,0:0:0:0:
192,192,43426,1,0,0:0:0:0:
320,192,43426,1,0,0:0:0:0:
64,192,43614,1,4,0:0:0:66:
320,192,43614,1,0,0:0:0:0:
448,192,43614,1,0,0:0:0:0:
192,192,43614,1,0,0:0:0:0:
448,192,43801,1,0,0:0:0:133:
320,192,43989,1,0,0:0:0:133:
192,192,43989,1,0,0:0:0:0:
320,192,44176,1,0,0:0:0:133:
320,192,44270,1,0,0:0:0:133:
64,192,44364,128,0,44551:0:0:0:133:
192,192,44645,1,0,0:0:0:133:
448,192,44739,1,0,0:0:0:133:
320,192,44739,1,0,0:0:0:0:
64,192,44926,1,0,0:0:0:66:
320,192,45114,1,4,0:0:0:133:
192,192,45114,1,0,0:0:0:0:
64,192,45114,1,0,0:0:0:0:
448,192,45114,1,0,0:0:0:0:
448,192,45301,1,0,0:0:0:133:
192,192,45489,1,0,0:0:0:133:
192,192,45676,1,0,0:0:0:0:
192,192,45770,1,0,0:0:0:133:
320,192,45864,128,0,46051:0:0:0:133:
64,192,45864,1,0,0:0:0:0:
448,192,45957,1,0,0:0:0:0:
192,192,46051,1,0,0:0:0:0:
64,192,46145,1,0,0:0:0:133:
192,192,46239,1,0,0:0:0:0:
320,192,46332,1,0,0:0:0:0:
192,192,46426,1,0,0:0:0:133:
448,192,46426,1,0,0:0:0:0:
64,192,46520,1,0,0:0:0:0:
192,192,46614,1,0,0:0:0:0:
320,192,46614,1,0,0:0:0:0:
448,192,46614,1,0,0:0:0:0:
64,192,46614,1,0,0:0:0:0:
320,192,46801,1,0,0:0:0:133:
448,192,46801,1,0,0:0:0:0:
192,192,46895,1,0,0:0:0:0:
320,192,46989,1,0,0:0:0:133:
64,192,46989,1,0,0:0:0:0:
192,192,47082,1,0,0:0:0:0:
448,192,47176,1,0,0:0:0:133:
320,192,47176,1,0,0:0:0:0:
64,192,47270,1,0,0:0:0:0:
192,192,47270,1,0,0:0:0:0:
64,192,47364,128,0,47551:0:0:0:66:
448,192,47364,1,0,0:0:0:0:
320,192,47457,1,0,0:0:0:0:
192,192,47551,1,0,0:0:0:133:
448,192,47551,1,0,0:0:0:0:
64,192,47645,1,0,0:0:0:0:
320,192,47739,1,0,0:0:0:133:
192,192,47739,1,0,0:0:0:0:
448,192,47801,1,0,0:0:0:0:
320,192,47864,1,0,0:0:0:0:
64,192,47926,1,0,0:0:0:133:
192,192,47989,1,0,0:0:0:0:
320,192,48067,1,0,0:0:0:0:
64,192,48114,1,0,0:0:0:0:
192,192,48114,1,0,0:0:0:0:
448,192,48114,1,0,0:0:0:0:
64,192,48301,1,0,0:0:0:133:
448,192,48301,1,0,0:0:0:0:
192,192,48395,1,0,0:0:0:0:
448,192,48489,1,0,0:0:0:133:
320,192,48489,1,0,0:0:0:0:
64,192,48582,1,0,0:0:0:0:
192,192,48676,1,0,0:0:0:0:
448,192,48770,1,0,0:0:0:0:
320,192,48864,1,0,0:0:0:0:
64,192,48864,1,0,0:0:0:0:
192,192,48864,1,0,0:0:0:0:
64,192,49145,1,0,0:0:0:66:
192,192,49145,1,0,0:0:0:0:
448,192,49145,1,0,0:0:0:0:
192,192,49426,1,0,0:0:0:0:
448,192,49426,1,0,0:0:0:0:
320,192,49426,1,0,0:0:0:0:
448,192,49614,1,0,0:0:0:0:
320,192,49614,1,0,0:0:0:0:
64,192,49614,1,0,0:0:0:0:
192,192,49614,1,0,0:0:0:0:
320,192,49801,1,0,0:0:0:133:
192,192,49895,1,0,0:0:0:0:
448,192,49895,128,0,49989:0:0:0:0:
64,192,49989,1,0,0:0:0:133:
320,192,49989,1,0,0:0:0:0:
320,192,50176,1,0,0:0:0:0:
192,192,50270,1,0,0:0:0:133:
192,192,50364,128,0,50551:0:0:0:133:
320,192,50551,1,0,0:0:0:0:
64,192,50598,1,0,0:0:0:0:
192,192,50645,1,0,0:0:0:0:
448,192,50645,1,0,0:0:0:0:
320,192,50739,1,0,0:0:0:133:
64,192,50926,1,0,0:0:0:133:
448,192,51114,1,0,0:0:0:66:
320,192,51114,1,0,0:0:0:66:
192,192,51114,1,0,0:0:0:0:
64,192,51114,1,0,0:0:0:0:
192,192,51301,1,0,0:0:0:133:
64,192,51489,1,0,0:0:0:133:
448,192,51489,1,0,0:0:0:0:
320,192,51676,1,0,0:0:0:133:
192,192,51770,1,0,0:0:0:133:
320,192,51864,128,0,52051:0:0:0:66:
64,192,51864,1,0,0:0:0:66:
448,192,51864,1,0,0:0:0:0:
192,192,52145,1,0,0:0:0:133:
320,192,52239,1,0,0:0:0:0:
448,192,52426,1,0,0:0:0:133:
192,192,52614,1,0,0:0:0:66:
64,192,52614,1,0,0:0:0:66:
320,192,52614,1,0,0:0:0:0:
448,192,52614,1,0,0:0:0:0:
320,192,52801,1,0,0:0:0:133:
448,192,52989,1,0,0:0:0:133:
192,192,52989,1,0,0:0:0:0:
64,192,53176,1,0,0:0:0:0:
192,192,53176,1,0,0:0:0:0:
448,192,53270,1,0,0:0:0:0:
64,192,53364,128,0,53551:0:0:0:133:
320,192,53364,1,0,0:0:0:0:
448,192,53551,1,0,0:0:0:0:
192,192,53645,1,0,0:0:0:133:
320,192,53739,1,0,0:0:0:0:
64,192,53739,1,0,0:0:0:0:
448,192,53926,1,0,0:0:0:133:
64,192,54114,1,0,0:0:0:66:
320,192,54114,1,0,0:0:0:66:
192,192,54114,1,0,0:0:0:0:
448,192,54114,1,0,0:0:0:0:
192,192,54301,1,0,0:0:0:133:
320,192,54301,1,0,0:0:0:0:
64,192,54395,1,0,0:0:0:0:
320,192,54489,1,0,0:0:0:66:
448,192,54489,128,0,54582:0:0:0:0:
192,192,54676,128,0,54770:0:0:0:133:
64,192,54864,1,0,0:0:0:66:
320,192,54864,1,0,0:0:0:66:
448,192,55051,1,0,0:0:0:0:
192,192,55145,1,0,0:0:0:66:
320,192,55145,1,0,0:0:0:66:
64,192,55301,1,0,0:0:0:0:
320,192,55364,1,0,0:0:0:0:
192,192,55426,1,0,0:0:0:66:
448,192,55426,1,0,0:0:0:66:
64,192,55614,1,0,0:0:0:133:
320,192,55614,1,0,0:0:0:0:
448,192,55614,1,0,0:0:0:0:
192,192,55614,1,0,0:0:0:0:
320,192,55801,1,0,0:0:0:133:
192,192,55989,1,0,0:0:0:133:
64,192,56176,1,0,0:0:0:133:
192,192,56270,1,0,0:0:0:0:
448,192,56364,128,0,56551:0:0:0:133:
64,192,56551,1,0,0:0:0:0:
192,192,56645,1,0,0:0:0:133:
320,192,56739,1,0,0:0:0:0:
448,192,56739,1,0,0:0:0:0:
64,192,56926,1,0,0:0:0:0:
192,192,57114,1,0,0:0:0:66:
64,192,57114,1,0,0:0:0:66:
320,192,57114,1,0,0:0:0:0:
448,192,57114,1,0,0:0:0:0:
448,192,57301,1,0,0:0:0:0:
320,192,57489,1,0,0:0:0:133:
192,192,57676,1,0,0:0:0:0:
64,192,57770,1,0,0:0:0:0:
448,192,57864,128,0,58051:0:0:0:133:
320,192,58051,1,0,0:0:0:0:
64,192,58098,1,0,0:0:0:0:
192,192,58145,1,0,0:0:0:133:
448,192,58239,1,0,0:0:0:0:
320,192,58239,1,0,0:0:0:0:
64,192,58285,1,0,0:0:0:0:
320,192,58379,1,0,0:0:0:0:
448,192,58426,1,0,0:0:0:0:
192,192,58426,1,0,0:0:0:0:
320,192,58520,1,0,0:0:0:0:
448,192,58614,1,0,0:0:0:66:
64,192,58614,1,0,0:0:0:0:
192,192,58614,128,0,58801:0:0:0:0:
320,192,58707,1,0,0:0:0:0:
448,192,58801,1,0,0:0:0:133:
64,192,58801,1,0,0:0:0:0:
320,192,58895,1,0,0:0:0:0:
192,192,58989,1,0,0:0:0:0:
64,192,58989,1,0,0:0:0:0:
320,192,59082,1,0,0:0:0:0:
192,192,59176,1,0,0:0:0:0:
448,192,59176,1,0,0:0:0:0:
320,192,59270,1,0,0:0:0:0:
64,192,59364,1,0,0:0:0:0:
448,192,59364,128,0,59551:0:0:0:0:
192,192,59364,1,0,0:0:0:0:
64,192,59645,1,0,0:0:0:133:
320,192,59645,1,0,0:0:0:0:
192,192,59739,1,0,0:0:0:0:
320,192,59926,1,0,0:0:0:133:
448,192,59926,1,0,0:0:0:0:
448,192,60114,1,0,0:0:0:44:
192,192,60114,1,0,0:0:0:44:
64,192,60301,1,0,0:0:0:66:
320,192,60301,1,0,0:0:0:0:
448,192,60489,1,0,0:0:0:0:
320,192,60489,1,0,0:0:0:0:
64,192,60676,1,0,0:0:0:133:
192,192,60676,1,0,0:0:0:0:
448,192,60864,1,0,0:0:0:133:
448,192,61239,1,0,0:0:0:133:
448,192,61614,1,0,0:0:0:133:
448,192,61989,1,0,0:0:0:133:
320,192,62176,1,0,0:0:0:133:
192,192,62364,1,0,0:0:0:133:
192,192,62739,1,0,0:0:0:133:
64,192,63114,1,0,0:0:0:133:
192,192,63395,1,0,0:0:0:0:
448,192,63676,1,0,0:0:0:133:
320,192,63864,1,0,0:0:0:133:
320,192,64239,1,0,0:0:0:133:
320,192,64614,1,0,0:0:0:133:
320,192,64989,1,0,0:0:0:133:
448,192,65176,1,0,0:0:0:66:
64,192,65176,1,0,0:0:0:0:
320,192,65364,1,0,0:0:0:133:
448,192,65551,1,0,0:0:0:133:
192,192,65551,1,0,0:0:0:0:
320,192,65739,1,0,0:0:0:133:
64,192,65926,1,0,0:0:0:0:
192,192,66114,1,0,0:0:0:133:
320,192,66207,1,0,0:0:0:0:
448,192,66301,1,0,0:0:0:0:
192,192,66348,1,0,0:0:0:0:
64,192,66395,1,0,0:0:0:66:
448,192,66489,128,0,66582:0:0:0:133:
320,192,66489,1,0,0:0:0:0:
192,192,66582,1,0,0:0:0:0:
320,192,66676,1,0,0:0:0:133:
192,192,66676,128,0,66770:0:0:0:0:
64,192,66770,1,0,0:0:0:0:
448,192,66817,1,0,0:0:0:0:
320,192,66864,1,0,0:0:0:133:
320,192,67239,1,0,0:0:0:133:
320,192,67614,1,0,0:0:0:133:
320,192,67989,1,0,0:0:0:133:
192,192,68176,1,0,0:0:0:133:
64,192,68176,1,0,0:0:0:0:
448,192,68364,1,0,0:0:0:133:
64,192,68457,1,0,0:0:0:133:
192,192,68457,128,0,68551:0:0:0:0:
320,192,68551,1,0,0:0:0:0:
448,192,68551,1,0,0:0:0:0:
192,192,68739,1,0,0:0:0:133:
448,192,68926,1,0,0:0:0:133:
320,192,69114,1,0,0:0:0:0:
64,192,69207,1,0,0:0:0:133:
448,192,69301,1,0,0:0:0:0:
320,192,69395,1,0,0:0:0:133:
192,192,69489,1,0,0:0:0:0:
192,192,69676,1,0,0:0:0:66:
448,192,69676,128,0,69864:0:0:0:66:
64,192,69676,1,0,0:0:0:0:
64,192,69864,128,0,70614:0:0:0:66:
320,192,69864,1,0,0:0:0:66:
192,192,70051,1,0,0:0:0:133:
320,192,70239,1,0,0:0:0:133:
448,192,70426,1,0,0:0:0:133:
192,192,70426,1,0,0:0:0:0:
192,192,70614,128,0,71364:0:0:0:66:
320,192,70614,1,0,0:0:0:66:
448,192,70614,1,0,0:0:0:0:
64,192,70801,1,0,0:0:0:133:
320,192,70989,1,0,0:0:0:133:
448,192,70989,1,0,0:0:0:0:
448,192,71176,1,0,0:0:0:133:
64,192,71176,1,0,0:0:0:0:
320,192,71364,1,0,0:0:0:0:
192,192,71551,1,0,0:0:0:0:
320,192,71551,1,0,0:0:0:0:
448,192,71739,1,0,0:0:0:133:
320,192,71739,1,0,0:0:0:0:
192,192,71832,1,0,0:0:0:0:
64,192,71864,1,0,0:0:0:133:
320,192,71864,1,0,0:0:0:0:
448,192,71926,1,0,0:0:0:0:
192,192,72020,1,0,0:0:0:0:
448,192,72114,128,0,72864:0:0:0:66:
320,192,72114,1,0,0:0:0:66:
192,192,72364,1,0,0:0:0:133:
320,192,72364,1,0,0:0:0:0:
64,192,72614,1,0,0:0:0:133:
192,192,72864,1,0,0:0:0:0:
320,192,72864,1,0,0:0:0:0:
192,192,73051,1,0,0:0:0:0:
448,192,73051,1,0,0:0:0:0:
64,192,73239,1,0,0:0:0:0:
320,192,73239,1,0,0:0:0:0:
192,192,73239,1,0,0:0:0:0:
192,192,73426,1,0,0:0:0:0:
320,192,73426,1,0,0:0:0:0:
64,192,73614,1,0,0:0:0:0:
448,192,73614,1,0,0:0:0:0:
320,192,73614,1,0,0:0:0:0:
320,192,73801,1,0,0:0:0:0:
448,192,73801,1,0,0:0:0:0:
192,192,73989,1,0,0:0:0:0:
320,192,73989,1,0,0:0:0:0:
448,192,73989,1,0,0:0:0:0:
448,192,74176,1,0,0:0:0:0:
64,192,74176,1,0,0:0:0:0:
192,192,74176,1,0,0:0:0:0:
192,192,74364,1,0,0:0:0:0:
320,192,74364,1,0,0:0:0:0:
64,192,74364,1,0,0:0:0:0:
192,192,74551,1,0,0:0:0:0:
320,192,74551,1,0,0:0:0:0:
448,192,74739,1,0,0:0:0:0:
320,192,74739,1,0,0:0:0:0:
192,192,74739,1,0,0:0:0:0:
64,192,74926,1,0,0:0:0:0:
192,192,74926,1,0,0:0:0:0:
320,192,75114,1,0,0:0:0:0:
448,192,75114,1,0,0:0:0:0:
64,192,75114,1,0,0:0:0:0:
64,192,75301,1,0,0:0:0:0:
192,192,75301,1,0,0:0:0:0:
320,192,75395,1,0,0:0:0:0:
192,192,75395,1,0,0:0:0:0:
448,192,75395,1,0,0:0:0:0:
320,192,75489,1,0,0:0:0:0:
192,192,75676,1,0,0:0:0:0:
448,192,75676,1,0,0:0:0:0:
64,192,75676,1,0,0:0:0:0:
320,192,75864,1,0,0:0:0:0:
192,192,75864,1,0,0:0:0:0:
448,192,75864,1,0,0:0:0:0:
448,192,76051,1,0,0:0:0:0:
192,192,76051,1,0,0:0:0:0:
320,192,76239,1,0,0:0:0:0:
64,192,76239,1,0,0:0:0:0:
448,192,76239,1,0,0:0:0:0:
320,192,76426,1,0,0:0:0:0:
64,192,76426,1,0,0:0:0:0:
448,192,76614,1,0,0:0:0:0:
192,192,76614,1,0,0:0:0:0:
320,192,76614,1,0,0:0:0:0:
192,192,76801,1,0,0:0:0:0:
448,192,76801,1,0,0:0:0:0:
320,192,76895,1,0,0:0:0:0:
192,192,76989,1,0,0:0:0:0:
448,192,76989,1,0,0:0:0:0:
64,192,76989,1,0,0:0:0:0:
192,192,77176,1,0,0:0:0:0:
320,192,77176,1,0,0:0:0:0:
64,192,77176,1,0,0:0:0:0:
64,192,77364,1,0,0:0:0:0:
448,192,77364,1,0,0:0:0:0:
320,192,77364,1,0,0:0:0:0:
192,192,77551,1,0,0:0:0:0:
320,192,77551,1,0,0:0:0:0:
64,192,77676,1,0,0:0:0:0:
320,192,77739,1,0,0:0:0:0:
192,192,77739,1,0,0:0:0:0:
448,192,77739,1,0,0:0:0:0:
192,192,77926,1,0,0:0:0:0:
448,192,77926,1,0,0:0:0:0:
320,192,78051,1,0,0:0:0:0:
448,192,78114,1,0,0:0:0:0:
192,192,78114,1,0,0:0:0:0:
64,192,78114,128,0,78207:0:0:0:0:
192,192,78301,1,0,0:0:0:0:
448,192,78332,1,0,0:0:0:0:
320,192,78395,1,0,0:0:0:0:
64,192,78395,1,0,0:0:0:0:
192,192,78395,1,0,0:0:0:0:
192,192,78489,128,0,78582:0:0:0:0:
448,192,78489,1,0,0:0:0:0:
320,192,78582,1,0,0:0:0:0:
64,192,78676,1,0,0:0:0:0:
320,192,78770,1,0,0:0:0:0:
64,192,78864,1,0,0:0:0:0:
448,192,78864,1,0,0:0:0:0:
192,192,78864,1,0,0:0:0:0:
192,192,79051,1,0,0:0:0:0:
320,192,79051,1,0,0:0:0:0:
64,192,79239,1,0,0:0:0:0:
320,192,79239,1,0,0:0:0:0:
448,192,79239,1,0,0:0:0:0:
320,192,79426,1,0,0:0:0:0:
64,192,79426,1,0,0:0:0:0:
192,192,79614,1,0,0:0:0:0:
320,192,79614,1,0,0:0:0:0:
64,192,79614,1,0,0:0:0:0:
448,192,79801,1,0,0:0:0:0:
192,192,79801,1,0,0:0:0:0:
64,192,79989,1,0,0:0:0:0:
320,192,79989,1,0,0:0:0:0:
192,192,79989,1,0,0:0:0:0:
448,192,80176,1,0,0:0:0:0:
192,192,80176,1,0,0:0:0:0:
320,192,80176,1,0,0:0:0:0:
192,192,80364,1,0,0:0:0:0:
320,192,80364,128,0,80457:0:0:0:0:
64,192,80364,1,0,0:0:0:0:
64,192,80551,1,0,0:0:0:0:
448,192,80551,1,0,0:0:0:0:
320,192,80739,1,0,0:0:0:0:
448,192,80739,1,0,0:0:0:0:
64,192,80739,1,0,0:0:0:0:
320,192,80926,1,0,0:0:0:0:
448,192,80926,1,0,0:0:0:0:
64,192,81114,1,0,0:0:0:0:
192,192,81114,1,0,0:0:0:0:
448,192,81114,1,0,0:0:0:0:
320,192,81301,1,0,0:0:0:0:
192,192,81301,1,0,0:0:0:0:
448,192,81395,1,0,0:0:0:0:
64,192,81395,1,0,0:0:0:0:
320,192,81395,1,0,0:0:0:0:
192,192,81489,1,0,0:0:0:0:
448,192,81676,1,0,0:0:0:0:
320,192,81676,1,0,0:0:0:0:
64,192,81864,1,0,0:0:0:0:
192,192,81864,1,0,0:0:0:0:
320,192,81864,1,0,0:0:0:0:
448,192,81926,1,0,0:0:0:0:
320,192,81989,1,0,0:0:0:0:
192,192,82051,1,0,0:0:0:0:
448,192,82051,1,0,0:0:0:0:
64,192,82114,1,0,0:0:0:0:
192,192,82176,1,0,0:0:0:0:
320,192,82239,1,0,0:0:0:0:
448,192,82239,1,0,0:0:0:0:
64,192,82301,1,0,0:0:0:0:
192,192,82364,1,0,0:0:0:0:
64,192,82426,1,0,0:0:0:0:
320,192,82426,1,0,0:0:0:0:
448,192,82489,1,0,0:0:0:0:
320,192,82551,1,0,0:0:0:0:
64,192,82614,1,0,0:0:0:0:
192,192,82614,1,0,0:0:0:0:
448,192,82676,1,0,0:0:0:0:
192,192,82739,1,0,0:0:0:0:
64,192,82801,1,0,0:0:0:0:
320,192,82801,1,0,0:0:0:0:
448,192,82864,1,0,0:0:0:0:
320,192,82926,1,0,0:0:0:0:
64,192,82989,1,0,0:0:0:0:
192,192,82989,1,0,0:0:0:0:
448,192,83082,1,0,0:0:0:0:
320,192,83082,1,0,0:0:0:0:
192,192,83176,1,0,0:0:0:0:
64,192,83176,1,0,0:0:0:0:
448,192,83270,1,0,0:0:0:0:
320,192,83270,1,0,0:0:0:0:
192,192,83364,1,0,0:0:0:0:
320,192,83364,1,0,0:0:0:0:
192,192,83551,1,0,0:0:0:0:
320,192,83551,1,0,0:0:0:0:
192,192,83739,1,0,0:0:0:0:
320,192,83739,1,0,0:0:0:0:
192,192,83926,1,0,0:0:0:0:
320,192,83926,1,0,0:0:0:0:
192,192,84114,1,0,0:0:0:0:
320,192,84114,128,0,84207:0:0:0:0:
64,192,84301,128,0,84395:0:0:0:0:
448,192,84489,128,0,84582:0:0:0:0:
192,192,84676,128,0,84770:0:0:0:0:
64,192,84864,1,0,0:0:0:0:
320,192,84864,1,0,0:0:0:0:
64,192,85145,1,0,0:0:0:0:
192,192,85239,1,0,0:0:0:0:
448,192,85239,1,0,0:0:0:0:
320,192,85426,1,0,0:0:0:0:
192,192,85614,1,0,0:0:0:0:
64,192,85614,1,0,0:0:0:0:
448,192,85614,1,0,0:0:0:0:
192,192,85801,128,0,85989:0:0:0:0:
320,192,85989,1,0,0:0:0:0:
448,192,85989,1,0,0:0:0:0:
64,192,86176,1,0,0:0:0:0:
320,192,86176,1,0,0:0:0:0:
192,192,86270,1,0,0:0:0:0:
320,192,86364,128,0,86551:0:0:0:0:
448,192,86551,1,0,0:0:0:0:
64,192,86645,1,0,0:0:0:0:
192,192,86739,1,0,0:0:0:0:
320,192,86739,1,0,0:0:0:0:
448,192,86926,1,0,0:0:0:0:
320,192,87114,1,0,0:0:0:0:
64,192,87114,1,0,0:0:0:0:
192,192,87114,1,0,0:0:0:0:
448,192,87301,1,0,0:0:0:0:
192,192,87489,1,0,0:0:0:0:
320,192,87676,1,0,0:0:0:0:
448,192,87770,1,0,0:0:0:0:
64,192,87864,128,0,88051:0:0:0:0:
192,192,87864,1,0,0:0:0:0:
320,192,87864,1,0,0:0:0:0:
192,192,88145,1,0,0:0:0:0:
448,192,88239,1,0,0:0:0:0:
320,192,88426,1,0,0:0:0:0:
64,192,88614,1,0,0:0:0:0:
192,192,88614,1,0,0:0:0:0:
448,192,88614,1,0,0:0:0:0:
320,192,88801,1,0,0:0:0:0:
192,192,88989,1,0,0:0:0:0:
448,192,88989,1,0,0:0:0:0:
64,192,89176,1,0,0:0:0:0:
320,192,89270,1,0,0:0:0:0:
192,192,89551,1,0,0:0:0:0:
448,192,89551,1,0,0:0:0:0:
320,192,89739,1,0,0:0:0:0:
192,192,89739,1,0,0:0:0:0:
64,192,89926,1,0,0:0:0:0:
192,192,89926,1,0,0:0:0:0:
448,192,90114,1,0,0:0:0:0:
64,192,90114,1,0,0:0:0:0:
320,192,90114,1,0,0:0:0:0:
448,192,90301,1,0,0:0:0:0:
192,192,90395,1,0,0:0:0:0:
320,192,90489,1,0,0:0:0:0:
64,192,90582,1,0,0:0:0:0:
192,192,90676,1,0,0:0:0:0:
320,192,90770,1,0,0:0:0:0:
192,192,90864,1,0,0:0:0:0:
64,192,90864,1,0,0:0:0:0:
448,192,90864,128,0,91051:0:0:0:0:
192,192,91145,1,0,0:0:0:0:
320,192,91145,128,0,91332:0:0:0:0:
64,192,91239,1,0,0:0:0:0:
64,192,91426,128,0,91614:0:0:0:0:
448,192,91614,1,4,0:0:0:0:
320,192,91614,1,4,0:0:0:0:
192,192,91614,1,0,0:0:0:0:
320,192,91801,1,0,0:0:0:0:
448,192,91895,1,0,0:0:0:0:
192,192,91989,1,0,0:0:0:0:
64,192,91989,1,0,0:0:0:0:
448,192,92176,1,0,0:0:0:0:
320,192,92270,1,0,0:0:0:0:
64,192,92364,1,0,0:0:0:0:
192,192,92364,1,0,0:0:0:0:
448,192,92364,128,0,92551:0:0:0:0:
448,192,92645,1,0,0:0:0:0:
64,192,92739,1,0,0:0:0:0:
192,192,92739,1,0,0:0:0:0:
192,192,92926,1,0,0:0:0:0:
320,192,92926,1,0,0:0:0:0:
320,192,93114,1,0,0:0:0:0:
448,192,93114,1,0,0:0:0:0:
64,192,93114,1,0,0:0:0:0:
192,192,93301,1,0,0:0:0:0:
192,192,93489,1,0,0:0:0:0:
448,192,93489,1,0,0:0:0:0:
320,192,93676,1,0,0:0:0:0:
64,192,93770,1,0,0:0:0:0:
192,192,93864,1,0,0:0:0:0:
448,192,93864,128,0,94051:0:0:0:0:
320,192,93957,1,0,0:0:0:0:
64,192,94051,1,0,0:0:0:0:
192,192,94145,1,0,0:0:0:0:
448,192,94239,1,0,0:0:0:0:
320,192,94239,1,0,0:0:0:0:
192,192,94332,1,0,0:0:0:0:
320,192,94426,1,0,0:0:0:0:
64,192,94426,1,0,0:0:0:0:
192,192,94520,1,0,0:0:0:0:
64,192,94614,1,0,0:0:0:0:
448,192,94614,1,0,0:0:0:0:
320,192,94614,1,0,0:0:0:0:
192,192,94707,1,0,0:0:0:0:
448,192,94801,1,0,0:0:0:0:
64,192,94895,1,0,0:0:0:0:
320,192,94989,1,0,0:0:0:0:
192,192,95082,1,0,0:0:0:0:
64,192,95176,1,0,0:0:0:0:
448,192,95270,1,0,0:0:0:0:
192,192,95270,1,0,0:0:0:0:
320,192,95364,1,0,0:0:0:0:
64,192,95457,1,0,0:0:0:0:
192,192,95551,1,0,0:0:0:0:
320,192,95551,1,0,0:0:0:0:
64,192,95645,1,0,0:0:0:0:
192,192,95739,1,0,0:0:0:0:
448,192,95739,1,0,0:0:0:0:
448,192,95926,1,0,0:0:0:0:
320,192,95926,1,0,0:0:0:0:
64,192,96114,1,0,0:0:0:0:
448,192,96114,1,0,0:0:0:0:
192,192,96114,1,0,0:0:0:0:
192,192,96301,1,0,0:0:0:0:
448,192,96301,1,0,0:0:0:0:
64,192,96489,1,0,0:0:0:0:
448,192,96489,128,0,96864:0:0:0:0:
320,192,96489,1,0,0:0:0:0:
64,192,96864,1,0,0:0:0:0:
192,192,96864,1,0,0:0:0:0:
64,192,97145,1,0,0:0:0:0:
64,192,97239,1,0,0:0:0:0:
192,192,97426,1,0,0:0:0:0:
448,192,97614,1,0,0:0:0:0:
320,192,97614,1,0,0:0:0:0:
192,192,97707,1,0,0:0:0:0:
192,192,97801,1,0,0:0:0:0:
64,192,97989,1,0,0:0:0:0:
192,192,98176,1,0,0:0:0:0:
320,192,98176,1,0,0:0:0:0:
448,192,98270,1,0,0:0:0:0:
320,192,98364,1,0,0:0:0:0:
64,192,98364,128,0,98551:0:0:0:0:
192,192,98645,1,0,0:0:0:0:
320,192,98739,1,0,0:0:0:0:
448,192,98739,1,0,0:0:0:0:
64,192,98926,1,0,0:0:0:0:
192,192,99114,1,0,0:0:0:0:
448,192,99114,1,0,0:0:0:0:
320,192,99207,1,0,0:0:0:0:
320,192,99301,1,0,0:0:0:0:
448,192,99489,1,0,0:0:0:0:
192,192,99676,1,0,0:0:0:0:
320,192,99770,1,0,0:0:0:0:
192,192,99864,128,0,100051:0:0:0:0:
320,192,100145,1,0,0:0:0:0:
448,192,100239,1,0,0:0:0:0:
192,192,100426,1,0,0:0:0:0:
320,192,100426,1,0,0:0:0:0:
192,192,100614,1,0,0:0:0:0:
64,192,100614,1,0,0:0:0:0:
448,192,100707,1,0,0:0:0:0:
448,192,100801,1,0,0:0:0:0:
320,192,100989,1,0,0:0:0:0:
64,192,101176,1,0,0:0:0:0:
192,192,101176,1,0,0:0:0:0:
448,192,101270,1,0,0:0:0:0:
320,192,101364,128,0,101551:0:0:0:0:
64,192,101645,1,0,0:0:0:0:
192,192,101739,1,0,0:0:0:0:
448,192,101739,1,0,0:0:0:0:
64,192,101926,1,0,0:0:0:0:
192,192,102114,1,0,0:0:0:0:
320,192,102114,1,0,0:0:0:0:
448,192,102207,1,0,0:0:0:0:
64,192,102301,1,0,0:0:0:0:
192,192,102395,1,0,0:0:0:0:
320,192,102489,1,0,0:0:0:0:
448,192,102489,1,0,0:0:0:0:
64,192,102676,1,0,0:0:0:0:
320,192,102676,1,0,0:0:0:0:
192,192,102770,1,0,0:0:0:0:
448,192,102864,1,0,0:0:0:0:
320,192,103051,1,0,0:0:0:0:
64,192,103145,1,0,0:0:0:0:
64,192,103239,1,0,0:0:0:0:
448,192,103332,1,0,0:0:0:0:
192,192,103426,1,0,0:0:0:0:
448,192,103614,1,0,0:0:0:0:
320,192,103707,1,0,0:0:0:0:
320,192,103801,1,0,0:0:0:0:
192,192,103989,1,0,0:0:0:0:
64,192,104176,1,0,0:0:0:0:
320,192,104176,1,0,0:0:0:0:
192,192,104270,1,0,0:0:0:0:
448,192,104364,128,0,104551:0:0:0:0:
64,192,104645,1,0,0:0:0:0:
448,192,104739,1,0,0:0:0:0:
192,192,104739,1,0,0:0:0:0:
320,192,104926,1,0,0:0:0:0:
192,192,105114,1,0,0:0:0:0:
64,192,105114,1,0,0:0:0:0:
448,192,105207,1,0,0:0:0:0:
448,192,105301,1,0,0:0:0:0:
320,192,105489,1,0,0:0:0:0:
192,192,105676,1,0,0:0:0:0:
320,192,105676,1,0,0:0:0:0:
64,192,105770,1,0,0:0:0:0:
320,192,105864,1,0,0:0:0:0:
448,192,105864,1,0,0:0:0:0:
192,192,105864,128,0,106051:0:0:0:0:
192,192,106145,1,0,0:0:0:0:
64,192,106239,1,0,0:0:0:0:
320,192,106301,1,0,0:0:0:0:
448,192,106364,1,0,0:0:0:0:
192,192,106426,1,0,0:0:0:0:
448,192,106489,1,0,0:0:0:0:
64,192,106551,1,0,0:0:0:0:
192,192,106614,1,0,0:0:0:0:
320,192,106614,1,0,0:0:0:0:
448,192,106676,1,0,0:0:0:0:
64,192,106707,1,0,0:0:0:0:
64,192,106801,1,0,0:0:0:0:
320,192,106864,1,0,0:0:0:0:
192,192,106926,1,0,0:0:0:0:
448,192,106989,1,0,0:0:0:0:
64,192,106989,1,0,0:0:0:0:
320,192,107051,1,0,0:0:0:0:
448,192,107114,1,0,0:0:0:0:
64,192,107176,1,0,0:0:0:0:
320,192,107176,1,0,0:0:0:0:
192,192,107239,1,0,0:0:0:0:
448,192,107270,1,0,0:0:0:0:
320,192,107301,1,0,0:0:0:0:
64,192,107364,1,0,0:0:0:0:
192,192,107364,128,0,107551:0:0:0:0:
320,192,107645,1,0,0:0:0:0:
448,192,107739,1,0,0:0:0:0:
192,192,107926,1,0,0:0:0:0:
64,192,108114,1,0,0:0:0:0:
64,192,108207,1,0,0:0:0:0:
448,192,108301,1,0,0:0:0:0:
192,192,108489,1,0,0:0:0:0:
320,192,108676,1,0,0:0:0:0:
320,192,108770,1,0,0:0:0:0:
64,192,108864,128,0,109051:0:0:0:0:
192,192,109239,1,0,0:0:0:0:
320,192,109426,1,0,0:0:0:0:
448,192,109426,1,0,0:0:0:0:
320,192,109614,1,0,0:0:0:0:
64,192,109739,1,0,0:0:0:0:
192,192,109801,1,0,0:0:0:0:
448,192,109801,128,0,109895:0:0:0:0:
64,192,109989,1,0,0:0:0:0:
192,192,110364,128,0,110551:0:0:0:0:
320,192,110551,1,0,0:0:0:0:
448,192,110739,1,0,0:0:0:0:
320,192,110926,1,0,0:0:0:0:
192,192,111114,1,0,0:0:0:0:
64,192,111207,1,0,0:0:0:0:
320,192,111301,128,0,111395:0:0:0:0:
64,192,111489,1,0,0:0:0:0:
192,192,111489,1,0,0:0:0:0:
448,192,111489,1,0,0:0:0:0:
320,192,111676,1,0,0:0:0:0:
320,192,111770,1,0,0:0:0:0:
448,192,111864,1,0,0:0:0:0:
64,192,111957,1,0,0:0:0:0:
192,192,112004,1,0,0:0:0:0:
64,192,112239,1,0,0:0:0:0:
320,192,112426,1,0,0:0:0:0:
448,192,112426,1,0,0:0:0:0:
192,192,112614,1,0,0:0:0:0:
320,192,112707,1,0,0:0:0:0:
448,192,112801,128,0,112895:0:0:0:0:
320,192,112989,1,0,0:0:0:0:
320,192,113364,128,0,113551:0:0:0:0:
448,192,113504,1,0,0:0:0:0:
64,192,113551,1,0,0:0:0:0:
192,192,113739,1,0,0:0:0:0:
320,192,113739,1,0,0:0:0:0:
448,192,113926,1,0,0:0:0:0:
192,192,114114,1,0,0:0:0:0:
64,192,114114,128,0,114864:0:0:0:0:
320,192,114114,1,0,0:0:0:0:
448,192,114114,1,0,0:0:0:0:
320,192,114489,1,0,0:0:0:0:
192,192,114489,128,0,114864:0:0:0:0:
448,192,114864,1,0,0:0:0:0:
