osu file format v14

[General]
AudioFilename: audio.mp3
AudioLeadIn: 0
PreviewTime: 35364
Countdown: 0
SampleSet: Soft
StackLeniency: 0.8
Mode: 3
LetterboxInBreaks: 0
SpecialStyle: 0
WidescreenStoryboard: 0

[Editor]
DistanceSpacing: 1.5
BeatDivisor: 4
GridSize: 8
TimelineZoom: 1.2

[Metadata]
Title:BURNT RICE
TitleUnicode:BURNT RICE
Artist:Shawn Wasabi
ArtistUnicode:Shawn Wasabi
Creator:Yuuto Gaming
Version:Easy
Source:
Tags:
BeatmapID:1019003
BeatmapSetID:477026

[Difficulty]
HPDrainRate:6
CircleSize:4
OverallDifficulty:6
ApproachRate:5
SliderMultiplier:1.2
SliderTickRate:2

[Events]
//Background and Video events
0,0,"shawn-wasabi-burnt-rice-remixes.jpg",0,0
//Break Periods
//Storyboard Layer 0 (Background)
//Storyboard Layer 1 (Fail)
//Storyboard Layer 2 (Pass)
//Storyboard Layer 3 (Foreground)
//Storyboard Sound Samples

[TimingPoints]
864,375,4,2,0,100,1,0
36864,-100,4,2,0,100,0,1
42864,-100,4,2,0,100,0,0
43614,-100,4,2,0,100,0,1
48864,-100,4,2,0,100,0,0
49614,-100,4,2,0,100,0,1
54864,-100,4,2,0,100,0,0
55614,-100,4,2,0,100,0,1
59364,-100,4,2,0,100,0,0
84864,-100,4,2,0,100,0,1
85864,-100,4,2,0,100,0,0
85989,-100,4,2,0,100,0,1
89364,-100,4,2,0,100,0,0
89551,-100,4,2,0,100,0,1
91801,-100,4,2,0,100,0,0
91989,-100,4,2,0,100,0,1
95364,-100,4,2,0,100,0,0
95551,-100,4,2,0,100,0,1
96489,-100,4,2,0,100,0,0

[HitObjects]
64,192,864,5,0,0:0:0:0:
192,192,1239,1,0,0:0:0:0:
448,192,1426,1,0,0:0:0:0:
320,192,1614,1,0,0:0:0:0:
64,192,1989,1,0,0:0:0:0:
192,192,2364,1,0,0:0:0:0:
448,192,2551,1,0,0:0:0:0:
320,192,2739,1,0,0:0:0:0:
64,192,2926,1,0,0:0:0:0:
192,192,3114,1,0,0:0:0:0:
448,192,3489,1,0,0:0:0:0:
192,192,3864,1,0,0:0:0:0:
448,192,4239,1,0,0:0:0:0:
64,192,4426,1,0,0:0:0:0:
320,192,4614,1,0,0:0:0:0:
192,192,4989,1,0,0:0:0:0:
448,192,5364,1,0,0:0:0:0:
192,192,5551,1,0,0:0:0:0:
64,192,5739,1,0,0:0:0:0:
448,192,5926,1,0,0:0:0:0:
320,192,6114,1,0,0:0:0:0:
64,192,6489,1,0,0:0:0:0:
448,192,6864,1,0,0:0:0:0:
320,192,7239,1,0,0:0:0:0:
64,192,7426,1,0,0:0:0:0:
192,192,7614,1,0,0:0:0:0:
320,192,7989,1,0,0:0:0:0:
64,192,8364,1,0,0:0:0:0:
320,192,8551,1,0,0:0:0:0:
192,192,8739,1,0,0:0:0:0:
448,192,8926,1,0,0:0:0:0:
64,192,9114,1,0,0:0:0:0:
448,192,9489,1,0,0:0:0:0:
192,192,9864,1,0,0:0:0:0:
64,192,10239,1,0,0:0:0:0:
448,192,10426,1,0,0:0:0:0:
192,192,10614,1,0,0:0:0:0:
320,192,10989,1,0,0:0:0:0:
448,192,11364,1,0,0:0:0:0:
192,192,11551,1,0,0:0:0:0:
64,192,11739,1,0,0:0:0:0:
448,192,11926,1,0,0:0:0:0:
320,192,12114,1,0,0:0:0:0:
448,192,12489,1,0,0:0:0:0:
448,192,12676,1,0,0:0:0:0:
192,192,12864,1,0,0:0:0:0:
64,192,12864,1,0,0:0:0:0:
448,192,13239,1,0,0:0:0:0:
320,192,13426,1,0,0:0:0:0:
192,192,13614,1,0,0:0:0:0:
320,192,13989,1,0,0:0:0:0:
448,192,14364,1,0,0:0:0:0:
192,192,14551,1,0,0:0:0:0:
64,192,14739,1,0,0:0:0:0:
320,192,14926,1,0,0:0:0:0:
448,192,15114,1,0,0:0:0:0:
192,192,15489,1,0,0:0:0:0:
320,192,15864,1,0,0:0:0:0:
64,192,16239,1,0,0:0:0:0:
192,192,16426,1,0,0:0:0:0:
448,192,16614,1,0,0:0:0:0:
320,192,16989,1,0,0:0:0:0:
192,192,17364,1,0,0:0:0:0:
320,192,17551,1,0,0:0:0:0:
448,192,17739,1,0,0:0:0:0:
320,192,17926,1,0,0:0:0:0:
192,192,18114,1,0,0:0:0:0:
64,192,18489,1,0,0:0:0:0:
320,192,18864,1,0,0:0:0:0:
192,192,18864,1,4,0:0:0:0:
64,192,19239,1,0,0:0:0:0:
320,192,19426,1,0,0:0:0:0:
192,192,19614,1,0,0:0:0:0:
448,192,19989,1,0,0:0:0:0:
192,192,20364,1,0,0:0:0:0:
320,192,20551,1,0,0:0:0:0:
448,192,20739,1,0,0:0:0:0:
64,192,20926,1,0,0:0:0:0:
320,192,21114,1,0,0:0:0:0:
192,192,21489,1,0,0:0:0:0:
320,192,21864,1,0,0:0:0:0:
64,192,22239,1,0,0:0:0:0:
448,192,22426,1,0,0:0:0:0:
192,192,22614,1,0,0:0:0:0:
448,192,22989,1,0,0:0:0:0:
64,192,23364,1,0,0:0:0:0:
320,192,23551,1,0,0:0:0:0:
192,192,23739,1,0,0:0:0:0:
448,192,23926,1,0,0:0:0:0:
320,192,24114,1,0,0:0:0:0:
64,192,24489,1,0,0:0:0:0:
448,192,24864,1,4,0:0:0:0:
320,192,24864,1,0,0:0:0:0:
192,192,25239,1,0,0:0:0:0:
448,192,25614,1,0,0:0:0:0:
64,192,25989,1,0,0:0:0:0:
192,192,26176,1,0,0:0:0:0:
320,192,26364,1,0,0:0:0:0:
64,192,26739,1,0,0:0:0:0:
320,192,27114,1,0,0:0:0:0:
192,192,27395,1,0,0:0:0:0:
64,192,27676,1,0,0:0:0:0:
448,192,27864,1,0,0:0:0:0:
320,192,28239,1,0,0:0:0:0:
64,192,28614,1,0,0:0:0:0:
192,192,28989,1,0,0:0:0:0:
320,192,29176,1,0,0:0:0:0:
64,192,29364,1,0,0:0:0:0:
448,192,29739,1,0,0:0:0:0:
320,192,30114,1,0,0:0:0:0:
192,192,30489,1,0,0:0:0:0:
320,192,30676,1,0,0:0:0:0:
448,192,30864,1,0,0:0:0:0:
64,192,30864,1,0,0:0:0:0:
320,192,31239,1,0,0:0:0:0:
320,192,31614,1,0,0:0:0:0:
448,192,31989,1,0,0:0:0:0:
320,192,32176,1,0,0:0:0:0:
192,192,32364,1,0,0:0:0:0:
448,192,32739,1,0,0:0:0:0:
64,192,33114,1,0,0:0:0:0:
320,192,33395,1,0,0:0:0:0:
320,192,33676,1,0,0:0:0:0:
448,192,33864,1,0,0:0:0:0:
192,192,34051,1,0,0:0:0:0:
64,192,34239,1,0,0:0:0:0:
448,192,34426,1,0,0:0:0:0:
320,192,34614,1,0,0:0:0:0:
64,192,34801,1,0,0:0:0:0:
192,192,34989,1,0,0:0:0:0:
448,192,35176,1,0,0:0:0:0:
192,192,35364,1,0,0:0:0:0:
320,192,35739,1,0,0:0:0:0:
64,192,35926,1,0,0:0:0:0:
448,192,36114,1,0,0:0:0:0:
320,192,36301,1,0,0:0:0:0:
192,192,36489,1,0,0:0:0:0:
448,192,36676,1,0,0:0:0:0:
64,192,36864,1,0,0:0:0:0:
192,192,36864,1,0,0:0:0:0:
320,192,37145,1,0,0:0:0:0:
64,192,37426,1,0,0:0:0:0:
320,192,37614,1,0,0:0:0:0:
192,192,37801,1,0,0:0:0:0:
448,192,37989,1,0,0:0:0:0:
64,192,38176,1,0,0:0:0:0:
320,192,38364,1,0,0:0:0:0:
448,192,38645,1,0,0:0:0:0:
192,192,38926,1,0,0:0:0:0:
448,192,39114,1,0,0:0:0:0:
64,192,39301,1,0,0:0:0:0:
192,192,39489,1,0,0:0:0:0:
448,192,39676,1,0,0:0:0:0:
192,192,39864,1,0,0:0:0:0:
320,192,40145,1,0,0:0:0:0:
448,192,40426,1,0,0:0:0:0:
192,192,40614,1,0,0:0:0:0:
64,192,40801,1,0,0:0:0:0:
448,192,40989,1,0,0:0:0:0:
320,192,41176,1,0,0:0:0:0:
64,192,41364,1,0,0:0:0:0:
192,192,41645,1,0,0:0:0:0:
448,192,41926,1,0,0:0:0:0:
64,192,42114,1,0,0:0:0:0:
320,192,42301,1,0,0:0:0:0:
448,192,42864,1,0,0:0:0:0:
192,192,43145,1,0,0:0:0:0:
320,192,43426,1,0,0:0:0:0:
64,192,43426,1,0,0:0:0:0:
448,192,43614,1,0,0:0:0:0:
320,192,43801,1,0,0:0:0:0:
64,192,43989,1,0,0:0:0:0:
448,192,44176,1,0,0:0:0:0:
320,192,44364,1,0,0:0:0:0:
192,192,44645,1,0,0:0:0:0:
320,192,44926,1,0,0:0:0:0:
192,192,45114,1,0,0:0:0:0:
448,192,45301,1,0,0:0:0:0:
64,192,45489,1,0,0:0:0:0:
448,192,45864,1,0,0:0:0:0:
64,192,46051,1,0,0:0:0:0:
192,192,46239,1,0,0:0:0:0:
448,192,46426,1,0,0:0:0:0:
320,192,46614,1,0,0:0:0:0:
64,192,46801,1,0,0:0:0:0:
192,192,46989,1,0,0:0:0:0:
448,192,47176,1,0,0:0:0:0:
320,192,47364,1,0,0:0:0:0:
64,192,47551,1,0,0:0:0:0:
320,192,47739,1,0,0:0:0:0:
192,192,48114,1,0,0:0:0:0:
320,192,48301,1,0,0:0:0:0:
448,192,48489,1,0,0:0:0:0:
192,192,48864,1,0,0:0:0:0:
320,192,49145,1,0,0:0:0:0:
64,192,49426,1,0,0:0:0:0:
320,192,49614,1,0,0:0:0:0:
192,192,49989,1,0,0:0:0:0:
448,192,50176,1,0,0:0:0:0:
64,192,50364,1,0,0:0:0:0:
320,192,50645,1,0,0:0:0:0:
192,192,50926,1,0,0:0:0:0:
64,192,51114,1,0,0:0:0:0:
192,192,51301,1,0,0:0:0:0:
448,192,51489,1,0,0:0:0:0:
192,192,51864,1,0,0:0:0:0:
320,192,52145,1,0,0:0:0:0:
64,192,52426,1,0,0:0:0:0:
448,192,52614,1,0,0:0:0:0:
192,192,52801,1,0,0:0:0:0:
320,192,52989,1,0,0:0:0:0:
448,192,53364,1,0,0:0:0:0:
320,192,53645,1,0,0:0:0:0:
448,192,53926,1,0,0:0:0:0:
64,192,54114,1,0,0:0:0:0:
320,192,54301,1,0,0:0:0:0:
448,192,54489,1,0,0:0:0:0:
192,192,54864,1,0,0:0:0:0:
64,192,55145,1,0,0:0:0:0:
320,192,55426,1,0,0:0:0:0:
64,192,55614,1,0,0:0:0:0:
320,192,55801,1,0,0:0:0:0:
448,192,55989,1,0,0:0:0:0:
64,192,56176,1,0,0:0:0:0:
320,192,56364,1,0,0:0:0:0:
192,192,56645,1,0,0:0:0:0:
320,192,56926,1,0,0:0:0:0:
448,192,57114,1,0,0:0:0:0:
320,192,57301,1,0,0:0:0:0:
64,192,57489,1,0,0:0:0:0:
192,192,57864,1,0,0:0:0:0:
64,192,58145,1,0,0:0:0:0:
448,192,58426,1,0,0:0:0:0:
320,192,58614,1,0,0:0:0:0:
448,192,58895,1,0,0:0:0:0:
192,192,59176,1,0,0:0:0:0:
448,192,59364,1,0,0:0:0:0:
192,192,59645,1,0,0:0:0:0:
64,192,59926,1,0,0:0:0:0:
320,192,60114,1,0,0:0:0:0:
448,192,60301,1,0,0:0:0:0:
192,192,60489,1,0,0:0:0:0:
64,192,60676,1,0,0:0:0:0:
320,192,60864,1,0,0:0:0:0:
192,192,61239,1,0,0:0:0:0:
448,192,61614,1,0,0:0:0:0:
64,192,61989,1,0,0:0:0:0:
448,192,62176,1,0,0:0:0:0:
320,192,62364,1,0,0:0:0:0:
192,192,62739,1,0,0:0:0:0:
320,192,63114,1,0,0:0:0:0:
192,192,63395,1,0,0:0:0:0:
64,192,63676,1,0,0:0:0:0:
320,192,63864,1,0,0:0:0:0:
448,192,64239,1,0,0:0:0:0:
64,192,64614,1,0,0:0:0:0:
320,192,64989,1,0,0:0:0:0:
192,192,65176,1,0,0:0:0:0:
64,192,65364,1,0,0:0:0:0:
448,192,65739,1,0,0:0:0:0:
192,192,66114,1,0,0:0:0:0:
192,192,66395,1,0,0:0:0:0:
320,192,66676,1,0,0:0:0:0:
64,192,66864,1,0,0:0:0:0:
64,192,67239,1,0,0:0:0:0:
320,192,67614,1,0,0:0:0:0:
448,192,67989,1,0,0:0:0:0:
192,192,68176,1,0,0:0:0:0:
64,192,68364,1,0,0:0:0:0:
448,192,68551,1,0,0:0:0:0:
320,192,68739,1,0,0:0:0:0:
192,192,69114,1,0,0:0:0:0:
448,192,69395,1,0,0:0:0:0:
320,192,69676,1,0,0:0:0:0:
64,192,69864,128,0,70614:0:0:0:0:
320,192,70614,1,0,0:0:0:0:
448,192,70614,128,0,71364:0:0:0:0:
64,192,71364,1,0,0:0:0:0:
320,192,71364,128,0,72114:0:0:0:0:
64,192,72114,1,0,0:0:0:0:
448,192,72395,1,0,0:0:0:0:
320,192,72582,1,0,0:0:0:0:
64,192,72864,1,0,0:0:0:0:
64,192,73239,1,0,0:0:0:0:
64,192,73614,1,0,0:0:0:0:
192,192,73989,1,0,0:0:0:0:
320,192,74176,1,0,0:0:0:0:
448,192,74364,1,0,0:0:0:0:
448,192,74739,1,0,0:0:0:0:
320,192,75114,1,0,0:0:0:0:
192,192,75395,1,0,0:0:0:0:
448,192,75676,1,0,0:0:0:0:
64,192,75864,1,0,0:0:0:0:
192,192,76239,1,0,0:0:0:0:
320,192,76614,1,0,0:0:0:0:
64,192,76989,1,0,0:0:0:0:
192,192,77176,1,0,0:0:0:0:
320,192,77364,1,0,0:0:0:0:
192,192,77739,1,0,0:0:0:0:
64,192,78114,1,0,0:0:0:0:
448,192,78301,1,0,0:0:0:0:
192,192,78489,1,0,0:0:0:0:
320,192,78676,1,0,0:0:0:0:
192,192,78864,1,0,0:0:0:0:
448,192,78864,1,0,0:0:0:0:
64,192,79239,1,0,0:0:0:0:
192,192,79614,1,0,0:0:0:0:
320,192,79989,1,0,0:0:0:0:
192,192,80176,1,0,0:0:0:0:
64,192,80364,1,0,0:0:0:0:
448,192,80739,1,0,0:0:0:0:
64,192,81114,1,0,0:0:0:0:
320,192,81395,1,0,0:0:0:0:
448,192,81676,1,0,0:0:0:0:
192,192,81864,1,0,0:0:0:0:
320,192,82051,1,0,0:0:0:0:
64,192,82239,1,0,0:0:0:0:
448,192,82426,1,0,0:0:0:0:
192,192,82614,1,0,0:0:0:0:
320,192,82801,1,0,0:0:0:0:
64,192,82989,1,0,0:0:0:0:
448,192,83176,1,0,0:0:0:0:
320,192,83364,1,0,0:0:0:0:
64,192,83551,1,0,0:0:0:0:
448,192,83739,1,0,0:0:0:0:
192,192,83926,1,0,0:0:0:0:
64,192,84114,1,0,0:0:0:0:
320,192,84301,1,0,0:0:0:0:
448,192,84489,1,0,0:0:0:0:
64,192,84676,1,0,0:0:0:0:
192,192,84864,1,0,0:0:0:0:
320,192,85239,1,0,0:0:0:0:
64,192,85614,1,0,0:0:0:0:
320,192,85989,1,0,0:0:0:0:
192,192,86176,1,0,0:0:0:0:
64,192,86364,1,0,0:0:0:0:
320,192,86645,1,0,0:0:0:0:
64,192,86926,1,0,0:0:0:0:
192,192,87114,1,0,0:0:0:0:
320,192,87114,1,0,0:0:0:0:
448,192,87301,1,0,0:0:0:0:
320,192,87489,1,0,0:0:0:0:
448,192,87676,1,0,0:0:0:0:
192,192,87864,1,0,0:0:0:0:
64,192,88145,1,0,0:0:0:0:
192,192,88426,1,0,0:0:0:0:
320,192,88614,1,0,0:0:0:0:
448,192,88614,1,0,0:0:0:0:
192,192,88801,1,0,0:0:0:0:
448,192,88989,1,0,0:0:0:0:
64,192,89176,1,0,0:0:0:0:
448,192,89551,1,0,0:0:0:0:
192,192,89739,1,0,0:0:0:0:
320,192,89926,1,0,0:0:0:0:
192,192,90301,1,0,0:0:0:0:
320,192,90489,1,0,0:0:0:0:
192,192,90676,1,0,0:0:0:0:
448,192,90864,1,0,0:0:0:0:
64,192,91145,1,0,0:0:0:0:
192,192,91426,1,0,0:0:0:0:
320,192,91614,1,0,0:0:0:0:
448,192,91614,1,0,0:0:0:0:
192,192,91989,1,0,0:0:0:0:
320,192,92364,1,0,0:0:0:0:
64,192,92364,1,0,0:0:0:0:
448,192,92645,1,0,0:0:0:0:
64,192,92926,1,0,0:0:0:0:
448,192,93114,1,0,0:0:0:0:
192,192,93114,1,0,0:0:0:0:
320,192,93301,1,0,0:0:0:0:
192,192,93489,1,0,0:0:0:0:
448,192,93864,1,0,0:0:0:0:
192,192,94145,1,0,0:0:0:0:
320,192,94426,1,0,0:0:0:0:
64,192,94614,1,0,0:0:0:0:
192,192,94801,1,0,0:0:0:0:
448,192,94989,1,0,0:0:0:0:
192,192,95176,1,0,0:0:0:0:
320,192,95551,1,0,0:0:0:0:
448,192,95739,1,0,0:0:0:0:
64,192,95739,1,0,0:0:0:0:
192,192,96114,1,0,0:0:0:0:
64,192,96301,1,0,0:0:0:0:
320,192,96489,1,0,0:0:0:0:
192,192,96864,1,0,0:0:0:0:
64,192,97239,1,0,0:0:0:0:
448,192,97426,1,0,0:0:0:0:
192,192,97614,1,0,0:0:0:0:
192,192,97801,1,0,0:0:0:0:
64,192,97989,1,0,0:0:0:0:
192,192,98176,1,0,0:0:0:0:
320,192,98364,1,0,0:0:0:0:
448,192,98739,1,0,0:0:0:0:
64,192,98926,1,0,0:0:0:0:
192,192,99114,1,0,0:0:0:0:
64,192,99489,1,0,0:0:0:0:
448,192,99676,1,0,0:0:0:0:
192,192,99864,1,0,0:0:0:0:
320,192,100239,1,0,0:0:0:0:
64,192,100426,1,0,0:0:0:0:
448,192,100614,1,0,0:0:0:0:
64,192,100801,1,0,0:0:0:0:
320,192,100989,1,0,0:0:0:0:
64,192,101364,1,0,0:0:0:0:
448,192,101739,1,0,0:0:0:0:
320,192,101926,1,0,0:0:0:0:
192,192,102114,1,0,0:0:0:0:
448,192,102301,1,0,0:0:0:0:
64,192,102489,1,0,0:0:0:0:
192,192,102676,1,0,0:0:0:0:
448,192,102864,1,0,0:0:0:0:
64,192,103239,1,0,0:0:0:0:
448,192,103614,1,0,0:0:0:0:
320,192,103989,1,0,0:0:0:0:
192,192,104364,1,0,0:0:0:0:
64,192,104739,1,0,0:0:0:0:
192,192,104926,1,0,0:0:0:0:
448,192,105114,1,0,0:0:0:0:
192,192,105489,1,0,0:0:0:0:
448,192,105676,1,0,0:0:0:0:
64,192,105864,1,0,0:0:0:0:
448,192,106239,1,0,0:0:0:0:
320,192,106426,1,0,0:0:0:0:
64,192,106614,1,0,0:0:0:0:
192,192,106801,1,0,0:0:0:0:
320,192,106989,1,0,0:0:0:0:
448,192,107176,1,0,0:0:0:0:
192,192,107364,1,0,0:0:0:0:
64,192,107739,1,0,0:0:0:0:
192,192,108114,1,0,0:0:0:0:
448,192,108301,1,0,0:0:0:0:
192,192,108489,1,0,0:0:0:0:
320,192,108676,1,0,0:0:0:0:
448,192,108864,1,0,0:0:0:0:
192,192,109239,1,0,0:0:0:0:
448,192,109426,1,0,0:0:0:0:
320,192,109614,1,0,0:0:0:0:
64,192,109989,1,0,0:0:0:0:
448,192,110364,1,0,0:0:0:0:
192,192,110551,1,0,0:0:0:0:
64,192,110739,1,0,0:0:0:0:
320,192,110926,1,0,0:0:0:0:
448,192,111114,1,0,0:0:0:0:
192,192,111489,1,0,0:0:0:0:
64,192,111489,1,0,0:0:0:0:
320,192,111864,1,0,0:0:0:0:
192,192,112239,1,0,0:0:0:0:
448,192,112426,1,0,0:0:0:0:
64,192,112614,1,0,0:0:0:0:
448,192,112989,1,0,0:0:0:0:
192,192,113364,1,0,0:0:0:0:
320,192,113551,1,0,0:0:0:0:
192,192,113739,1,0,0:0:0:0:
64,192,113926,1,0,0:0:0:0:
448,192,114114,1,0,0:0:0:0:
320,192,114114,1,0,0:0:0:0:
192,192,114489,1,0,0:0:0:0:
64,192,114864,1,0,0:0:0:0:
