osu file format v14

[General]
AudioFilename: audio.mp3
AudioLeadIn: 0
PreviewTime: 129915
Countdown: 0
SampleSet: Soft
StackLeniency: 0.3
Mode: 0
LetterboxInBreaks: 0
WidescreenStoryboard: 1

[Editor]
DistanceSpacing: 0.8
BeatDivisor: 4
GridSize: 32
TimelineZoom: 1.9

[Metadata]
Title:Burnt Rice (Aiobahn & Jh-Anu Remix)
TitleUnicode:Burnt Rice (Aiobahn & Jh-Anu Remix)
Artist:Shawn Wasabi + YDG feat. YUNG GEMMY
ArtistUnicode:Shawn Wasabi + YDG feat. YUNG GEMMY
Creator:handsome
Version:Master
Source:
Tags:soundclooud sssshawnnnn itsydg jhanu0325 nesthq dubstep electro future bass anime opening version full size tv ending sword art online 1080p wallpaper rrtyui
BeatmapID:1103732
BeatmapSetID:519256

[Difficulty]
HPDrainRate:4
CircleSize:4
OverallDifficulty:9
ApproachRate:9.6
SliderMultiplier:1.4
SliderTickRate:1

[Events]
//Background and Video events
0,0,"rice.jpg",0,0
//Break Periods
//Storyboard Layer 0 (Background)
//Storyboard Layer 1 (Fail)
//Storyboard Layer 2 (Pass)
//Storyboard Layer 3 (Foreground)
//Storyboard Sound Samples

[TimingPoints]
2015,400,4,2,0,30,1,0
2015,-100,4,2,1,30,0,0
8415,-83.3333333333333,4,2,1,40,0,0
11615,-83.3333333333333,4,2,1,50,0,0
13215,-66.6666666666667,4,2,1,50,0,0
13615,-33.3333333333333,4,2,1,50,0,0
14015,-22.2222222222222,4,2,1,50,0,0
14415,-50,4,2,1,50,0,0
26015,-41.6666666666667,4,2,1,40,0,0
26815,-33.3333333333333,4,2,2,50,0,0
27615,-100,4,2,6,70,0,0
27715,-100,4,2,3,30,0,0
30815,-33.3333333333333,4,2,3,70,0,0
30915,-33.3333333333333,4,2,3,50,0,0
31215,-40,4,2,3,50,0,0
31615,-50,4,2,3,50,0,0
32015,-66.6666666666667,4,2,3,50,0,0
32415,-50,4,2,3,50,0,0
32615,-33.3333333333333,4,2,3,70,0,0
33015,-33.3333333333333,4,2,3,30,0,0
33215,-50,4,2,3,70,0,0
33315,-50,4,2,0,40,0,0
33615,-40,4,2,5,40,0,0
34015,-100,4,2,3,40,0,0
34215,-100,4,2,3,40,0,0
36415,-50,4,2,3,70,0,0
36515,-50,4,2,3,40,0,0
36815,-40,4,2,3,40,0,0
37215,-100,4,2,3,40,0,0
37415,-100,4,2,3,40,0,0
39015,-50,4,2,3,70,0,0
39115,-50,4,2,3,40,0,0
40015,-40,4,2,3,50,0,0
40415,-50,4,2,3,50,0,0
40815,-43.859649122807,4,2,3,50,0,0
41215,-38.9105058365759,4,2,3,50,0,0
41615,-35.0877192982456,4,2,3,50,0,0
42015,-31.8471337579618,4,2,3,50,0,0
42415,-29.1545189504373,4,2,3,50,0,0
42815,-26.8817204301075,4,2,3,50,0,0
43215,-25,4,2,3,50,0,0
43615,-50,4,2,3,50,0,0
44015,-43.859649122807,4,2,3,50,0,0
44415,-38.9105058365759,4,2,3,50,0,0
44815,-35.0877192982456,4,2,3,50,0,0
45215,-31.8471337579618,4,2,3,50,0,0
45615,-29.1545189504373,4,2,3,50,0,0
46015,-26.8817204301075,4,2,3,50,0,0
46415,-25,4,2,3,50,0,0
46815,-33.3333333333333,4,2,3,50,0,0
51615,-41.6666666666667,4,2,1,50,0,0
52415,-33.3333333333333,4,2,1,70,0,0
52615,-50,4,2,2,50,0,0
52815,-40,4,2,2,50,0,0
53015,-33.3333333333333,4,2,2,50,0,0
53215,-28.5714285714286,4,2,3,70,0,1
77415,-28.5714285714286,4,2,4,60,0,0
77815,-33.3333333333333,4,2,4,60,0,0
78015,-40,4,2,4,60,0,0
78215,-50,4,2,4,60,0,0
78415,-66.6666666666667,4,2,4,60,0,0
78615,-100,4,2,4,60,0,0
78815,-200,4,2,3,60,0,0
79615,-33.3333333333333,4,2,3,60,0,0
82015,-200,4,2,3,60,0,0
82815,-33.3333333333333,4,2,3,60,0,0
84615,-20,4,2,4,60,0,0
85215,-33.3333333333333,4,2,3,70,0,0
88615,-33.3333333333333,4,2,4,70,0,0
89215,-33.3333333333333,4,2,3,60,0,0
89415,-50,4,2,4,60,0,0
90015,-33.3333333333333,4,2,3,60,0,0
90315,-40,4,2,3,55,0,0
90615,-50,4,2,3,50,0,0
90915,-100,4,2,3,45,0,0
91215,-33.3333333333333,4,2,3,40,0,0
91615,-100,4,2,3,30,0,0
97615,-100,4,2,5,40,0,0
98015,-100,4,2,3,50,0,0
104015,-100,4,2,5,50,0,0
104415,-100,4,2,3,40,0,0
107615,-66.6666666666667,4,2,3,40,0,0
110815,-50,4,2,3,40,0,0
114015,-40,4,2,3,43,0,0
114215,-33.3333333333333,4,2,3,47,0,0
114415,-28.5714285714286,4,2,3,50,0,0
114615,-25,4,2,3,53,0,0
114815,-22.2222222222222,4,2,3,57,0,0
115015,-20,4,2,3,60,0,0
115215,-18.1818181818182,4,2,3,65,0,0
115415,-16.6666666666667,4,2,3,70,0,0
115615,-16.6666666666667,4,2,2,40,0,0
117215,-33.3333333333333,4,2,3,60,0,0
118415,-16.6666666666667,4,2,3,60,0,0
118815,-33.3333333333333,4,2,3,60,0,0
120215,-16.6666666666667,4,2,3,60,0,0
120415,-33.3333333333333,4,2,3,60,0,0
121615,-16.6666666666667,4,2,3,60,0,0
122015,-33.3333333333333,4,2,3,60,0,0
123415,-16.6666666666667,4,2,3,60,0,0
123615,-33.3333333333333,4,2,3,70,0,0
124815,-16.6666666666667,4,2,3,70,0,0
125215,-33.3333333333333,4,2,3,70,0,0
126615,-16.6666666666667,4,2,3,70,0,0
126815,-33.3333333333333,4,2,3,70,0,0
128415,-16.6666666666667,4,2,0,70,0,0
128615,-20,4,2,0,67,0,0
128815,-25,4,2,0,63,0,0
129015,-33.3333333333333,4,2,0,60,0,0
129215,-50,4,2,0,57,0,0
129415,-100,4,2,0,53,0,0
129615,-1000,4,2,0,50,0,0
130015,-33.3333333333333,4,2,3,50,0,0
131215,-33.3333333333333,4,2,0,70,0,0
131615,-33.3333333333333,4,2,3,70,0,0
137615,-33.3333333333333,4,2,0,70,0,0
138015,-33.3333333333333,4,2,3,70,0,0
142215,-40,4,2,3,70,0,0
142415,-50,4,2,3,70,0,0
142615,-66.6666666666667,4,2,3,70,0,0
142815,-50,4,2,6,70,0,0
142915,-50,4,2,3,50,0,0
145615,-40,4,2,3,50,0,0
146015,-40,4,2,3,70,0,0
146115,-40,4,2,3,50,0,0
146415,-50,4,2,3,50,0,0
146815,-66.6666666666667,4,2,3,50,0,0
147215,-100,4,2,3,50,0,0
147615,-200,4,2,3,50,0,0
148415,-50,4,2,3,70,0,0
148515,-50,4,2,0,50,0,0
148815,-40,4,2,5,50,0,0
149215,-40,4,2,3,50,0,0
151615,-50,4,2,3,50,0,0
152015,-40,4,2,3,50,0,0
154215,-50,4,2,3,70,0,0
154315,-50,4,2,3,50,0,0
155215,-40,4,2,3,50,0,0
155615,-50,4,2,3,60,0,0
156015,-43.859649122807,4,2,3,60,0,0
156415,-38.9105058365759,4,2,3,60,0,0
156815,-35.0877192982456,4,2,3,60,0,0
157215,-31.8471337579618,4,2,3,60,0,0
157615,-29.1545189504373,4,2,3,60,0,0
158015,-26.8817204301075,4,2,3,60,0,0
158415,-25,4,2,3,60,0,0
158815,-50,4,2,3,60,0,0
159215,-42.9184549356223,4,2,3,60,0,0
159615,-37.4531835205993,4,2,3,60,0,0
160015,-33.3333333333333,4,2,3,60,0,0
160415,-30.03003003003,4,2,3,60,0,0
160815,-27.2479564032698,4,2,3,60,0,0
161215,-25,4,2,3,60,0,0
162015,-33.3333333333333,4,2,3,70,0,0
166815,-41.6666666666667,4,2,6,70,0,0
166915,-41.6666666666667,4,2,3,70,0,0
167615,-33.3333333333333,4,2,3,70,0,0
167815,-50,4,2,2,70,0,0
168015,-40,4,2,2,70,0,0
168215,-33.3333333333333,4,2,2,70,0,0
168415,-28.5714285714286,4,2,7,60,0,1
174815,-28.5714285714286,4,2,3,60,0,1
181215,-28.5714285714286,4,2,7,70,0,1
182815,-28.5714285714286,4,2,7,70,0,1
184315,-28.5714285714286,4,2,3,70,0,1
184415,-28.5714285714286,4,2,7,70,0,1
185915,-28.5714285714286,4,2,3,70,0,1
186015,-28.5714285714286,4,2,7,70,0,1
187215,-28.5714285714286,4,2,3,70,0,1
192615,-28.5714285714286,4,2,4,60,0,0
193015,-33.3333333333333,4,2,4,60,0,0
193215,-40,4,2,4,60,0,0
193415,-50,4,2,4,60,0,0
193615,-66.6666666666667,4,2,4,60,0,0
193815,-100,4,2,4,60,0,0
194015,-200,4,2,3,60,0,0
194815,-33.3333333333333,4,2,3,60,0,0
197215,-200,4,2,3,60,0,0
198015,-33.3333333333333,4,2,3,60,0,0
199815,-20,4,2,4,60,0,0
200415,-33.3333333333333,4,2,3,70,0,0
203815,-33.3333333333333,4,2,4,70,0,0
204415,-33.3333333333333,4,2,3,60,0,0
204615,-50,4,2,4,60,0,0
205215,-33.3333333333333,4,2,3,60,0,0
205515,-40,4,2,3,55,0,0
205815,-50,4,2,3,50,0,0
206115,-100,4,2,3,45,0,0
206415,-33.3333333333333,4,2,3,40,0,0
206815,-66.6666666666667,4,2,1,40,0,0
219615,-66.6666666666667,4,2,1,30,0,0
230815,-41.6666666666667,4,2,3,50,0,0
231615,-20,4,2,3,50,0,0

[Colours]
Combo1 : 173,255,95
Combo2 : 255,88,100
Combo3 : 255,94,55
Combo4 : 17,254,176

[HitObjects]
179,281,415,5,2,0:2:0:0:
58,312,615,1,2,0:2:0:0:
179,281,815,1,2,0:2:0:0:
58,312,1015,1,2,0:2:0:0:
139,218,1215,5,2,0:2:0:0:
61,218,1415,1,2,0:2:0:0:
143,146,1615,5,0,0:0:0:0:
110,136,1815,1,0,0:0:0:0:
190,84,2015,6,0,P|234:71|341:114,1,140,2|0,0:0|0:0,0:0:0:0:
190,84,2615,2,0,P|234:71|341:114,1,140,0|0,0:0|0:0,0:0:0:0:
359,179,3215,1,2,0:1:0:0:
359,179,3415,1,2,0:1:0:0:
439,230,3615,6,0,B|455:181|455:181|429:79,1,140,2|0,0:0|0:0,0:0:0:0:
439,230,4215,2,0,B|455:181|455:181|429:79,1,140,0|0,0:0|0:0,0:0:0:0:
425,68,4715,1,0,0:0:0:0:
417,41,4815,1,2,0:1:0:0:
417,41,5015,1,2,0:1:0:0:
298,137,5215,5,2,0:0:0:0:
275,63,5415,1,0,0:0:0:0:
201,85,5615,1,0,0:0:0:0:
224,159,5815,1,0,0:0:0:0:
228,164,6015,5,2,0:0:0:0:
228,154,6215,1,0,0:0:0:0:
218,154,6415,1,0,0:1:0:0:
218,163,6615,1,2,0:1:0:0:
231,189,6815,5,2,0:0:0:0:
254,144,7015,1,0,0:0:0:0:
210,120,7215,1,0,0:0:0:0:
186,164,7415,1,0,0:0:0:0:
297,227,7615,5,2,0:0:0:0:
240,50,7915,5,2,0:0:0:0:
116,187,8215,5,2,0:0:0:0:
167,332,8415,6,0,B|179:298|179:298|168:239,1,83.9999974365235,2|0,1:2|0:0,0:0:0:0:
116,187,8815,1,0,0:0:0:0:
167,332,9015,6,0,B|179:298|179:298|168:239,1,83.9999974365235,0|2,1:0|0:2,0:0:0:0:
116,187,9415,1,0,0:0:0:0:
255,278,9615,6,0,L|246:232,1,41.9999987182618,2|0,1:0|0:0,0:0:0:0:
333,312,9815,2,0,L|342:266,1,41.9999987182618,2|0,1:0|0:0,0:0:0:0:
279,150,10015,6,0,P|333:141|394:170,1,83.9999974365235,2|0,1:2|0:0,0:0:0:0:
413,224,10415,1,0,0:0:0:0:
279,150,10615,6,0,P|333:141|394:170,1,83.9999974365235,2|2,1:0|0:0,0:0:0:0:
413,224,11015,1,0,0:0:0:0:
200,152,11215,6,0,P|203:128|217:93,1,41.9999987182618,2|0,1:0|0:0,0:0:0:0:
148,211,11415,2,0,P|133:191|118:157,1,41.9999987182618,2|0,1:0|0:0,0:0:0:0:
143,66,11615,5,4,1:2:0:0:
143,66,13215,6,0,P|181:79|230:78,1,52.5000020027161,8|0,0:1|0:0,0:0:0:0:
381,74,13415,1,8,0:1:0:0:
143,66,13615,6,0,P|201:48|248:57,1,105.000004005432,8|0,0:1|0:0,0:0:0:0:
381,74,13815,1,8,0:1:0:0:
143,66,14015,6,0,L|319:73,1,157.500006008148,8|0,0:1|0:0,0:0:0:0:
381,74,14215,1,8,0:1:0:0:
143,66,14415,6,0,B|196:31|196:31|253:91|202:172,1,210,4|0,1:0|0:0,0:0:0:0:
143,212,14815,6,0,L|17:205,1,70,2|0,0:0|0:0,0:0:0:0:
143,212,15215,2,0,L|17:205,1,70
143,212,15615,2,0,L|17:205,1,70
143,212,16015,6,0,P|174:192|269:205,1,70,2|0,0:0|0:0,0:0:0:0:
280,225,16215,2,0,P|311:244|406:232,1,70,2|0,0:0|0:0,0:0:0:0:
409,203,16415,6,0,L|395:111,1,70,2|0,0:0|0:0,0:0:0:0:
409,203,16815,2,0,L|395:111,1,70
409,203,17215,6,0,P|392:171|367:147,1,70,2|0,0:0|0:0,0:0:0:0:
343,76,17415,1,0,0:0:0:0:
343,76,17515,2,0,P|309:65|274:66,1,70,2|0,0:0|0:0,0:0:0:0:
210,31,17715,1,0,0:0:0:0:
210,31,17815,2,0,P|179:47|155:72,1,70,2|0,0:0|0:0,0:0:0:0:
128,146,18015,6,0,L|139:226,1,70,2|0,0:0|0:0,0:0:0:0:
128,146,18415,2,0,L|139:226,1,70
128,146,18815,2,0,L|139:226,1,70
128,146,19215,6,0,P|168:167|238:166,1,70,2|0,0:0|0:0,0:0:0:0:
237,240,19415,2,0,P|280:226|328:176,1,70,2|0,0:0|0:0,0:0:0:0:
356,158,19615,6,0,L|478:179,1,70,2|0,0:0|0:0,0:0:0:0:
356,158,20015,2,0,L|478:179,1,70
356,158,20415,6,0,P|323:144|288:137,1,70,2|0,0:0|0:0,0:0:0:0:
250,211,20615,1,0,0:0:0:0:
250,211,20715,2,0,P|216:221|181:225,1,70,2|0,0:0|0:0,0:0:0:0:
147,145,20915,1,0,0:0:0:0:
147,145,21015,2,0,P|113:134|78:130,1,70,2|0,0:0|0:0,0:0:0:0:
20,190,21215,6,0,L|30:276,1,70,2|0,0:0|0:0,0:0:0:0:
20,190,21615,2,0,L|30:276,1,70
20,190,22015,2,0,L|30:276,1,70
20,190,22415,6,0,P|40:138|105:92,1,70,2|0,0:0|0:0,0:0:0:0:
175,88,22615,2,0,P|227:108|273:173,1,70,2|0,0:0|0:0,0:0:0:0:
303,248,22815,6,0,L|187:260,1,70,2|0,0:0|0:0,0:0:0:0:
303,248,23215,2,0,L|187:260,1,70
303,247,23615,6,0,P|306:282|326:317,1,70,2|0,0:0|0:0,0:0:0:0:
418,337,23815,1,0,0:0:0:0:
418,337,23915,2,0,P|446:316|466:282,1,70,2|0,0:0|0:0,0:0:0:0:
437,192,24115,1,0,0:0:0:0:
437,192,24215,2,0,P|405:178|365:177,1,70,2|0,0:0|0:0,0:0:0:0:
385,259,24415,5,0,0:0:0:0:
256,192,24515,12,0,25615,0:0:0:0:
439,79,26015,6,0,P|436:123|462:179,1,83.9999974365235,0|0,1:0|3:0,0:0:0:0:
448,160,26215,2,0,P|451:116|425:60,1,83.9999974365235,0|0,1:0|3:0,0:0:0:0:
439,79,26415,2,0,P|436:123|462:179,1,83.9999974365235,0|0,1:0|3:0,0:0:0:0:
448,160,26615,2,0,P|451:116|425:60,1,83.9999974365235,0|0,1:0|3:0,0:0:0:0:
438,78,26815,6,0,L|292:57,1,105.000004005432,4|0,1:0|0:0,0:0:0:0:
241,134,27015,2,0,P|271:111|237:126,1,105.000004005432,2|0,0:0|0:0,0:0:0:0:
344,163,27215,6,0,P|352:111|334:63,1,105.000004005432,12|0,1:0|0:0,0:0:0:0:
247,25,27415,2,0,P|198:43|165:83,1,105.000004005432,0|0,0:0|0:0,0:0:0:0:
176,179,27615,5,4,0:1:0:0:
184,188,27715,1,0,0:0:0:0:
194,197,27815,1,0,0:0:0:0:
204,205,27915,1,0,0:0:0:0:
216,211,28015,1,0,0:0:0:0:
228,216,28115,1,0,0:0:0:0:
241,219,28215,1,0,0:0:0:0:
254,220,28315,1,0,0:0:0:0:
267,220,28415,1,0,0:0:0:0:
261,219,28515,1,0,0:0:0:0:
254,220,28615,1,0,0:0:0:0:
246,221,28715,1,0,0:0:0:0:
239,224,28815,1,0,0:0:0:0:
231,228,28915,1,0,0:0:0:0:
225,233,29015,1,0,0:0:0:0:
219,238,29115,1,0,0:0:0:0:
215,244,29215,1,0,0:0:0:0:
218,243,29315,1,0,0:0:0:0:
222,244,29415,1,0,0:0:0:0:
227,244,29515,1,0,0:0:0:0:
231,246,29615,1,0,0:0:0:0:
236,248,29715,1,0,0:0:0:0:
240,251,29815,1,0,0:0:0:0:
243,254,29915,1,0,0:0:0:0:
246,258,30015,6,0,L|252:326,1,35,2|0,0:0|0:0,0:0:0:0:
321,251,30215,2,0,L|327:319,1,35,2|0,0:0|0:0,0:0:0:0:
396,244,30415,2,0,L|402:312,1,35,2|0,0:0|0:0,0:0:0:0:
471,237,30615,2,0,L|477:305,1,35,2|0,0:0|0:0,0:0:0:0:
512,314,30815,6,0,L|226:299,1,210.000008010865,4|0,0:1|0:0,0:0:0:0:
302,303,31215,2,0,L|227:26,1,175,0|0,0:0|0:0,0:0:0:0:
256,133,31615,2,0,L|402:37,1,140,0|0,0:0|0:0,0:0:0:0:
373,56,32015,2,0,L|508:166,1,105.000004005432,0|0,0:0|0:0,0:0:0:0:
454,122,32415,2,0,L|422:203,1,70,0|0,0:0|0:0,0:0:0:0:
449,265,32615,5,4,1:0:0:0:
449,265,33015,1,0,1:0:0:0:
449,265,33215,6,0,L|343:254,1,70,6|0,1:2|0:0,0:0:0:0:
299,246,33415,2,0,L|193:235,1,70,6|0,0:0|0:0,0:0:0:0:
466,284,33615,6,0,L|360:273,1,87.5,8|0,1:0|0:0,0:0:0:0:
296,264,33815,2,0,L|190:253,1,87.5,2|0,0:0|0:0,0:0:0:0:
119,245,34015,5,4,1:0:0:0:
72,131,34215,1,0,0:0:0:0:
101,232,34415,5,0,1:0:0:0:
90,142,34615,1,0,0:0:0:0:
92,218,34815,5,0,1:0:0:0:
99,157,34915,1,0,1:0:0:0:
81,221,35015,5,0,1:0:0:0:
109,153,35115,1,0,1:0:0:0:
67,223,35215,5,0,1:0:0:0:
123,151,35415,1,0,1:0:0:0:
47,225,35615,5,0,1:0:0:0:
144,150,35815,1,0,0:0:0:0:
25,217,36015,5,0,1:0:0:0:
165,159,36215,1,0,0:0:0:0:
20,197,36415,6,0,L|126:186,1,70,2|0,1:2|0:0,0:0:0:0:
170,178,36615,2,0,L|276:167,1,70,2|0,1:2|1:0,0:0:0:0:
5,216,36815,6,0,L|111:205,1,87.5,2|0,1:2|0:0,0:0:0:0:
173,196,37015,2,0,L|279:185,1,87.5,2|0,0:2|0:0,0:0:0:0:
350,179,37215,5,4,1:0:0:0:
397,65,37415,1,0,0:0:0:0:
368,166,37615,5,0,1:0:0:0:
379,76,37815,1,0,0:0:0:0:
377,152,38015,5,0,1:0:0:0:
370,91,38115,1,0,1:0:0:0:
387,155,38215,5,0,1:0:0:0:
359,87,38315,1,0,1:0:0:0:
402,157,38415,5,0,1:0:0:0:
346,85,38615,1,0,1:0:0:0:
422,159,38815,5,0,1:0:0:0:
325,84,39015,2,0,L|328:153,1,70,6|0,1:2|0:0,0:0:0:0:
308,184,39215,2,0,L|311:114,1,70,2|0,1:2|0:0,0:0:0:0:
325,84,39415,2,0,L|328:153,1,70,2|0,1:2|0:0,0:0:0:0:
452,227,39615,6,0,L|346:238,1,70,4|0,1:3|0:0,0:0:0:0:
302,246,39815,2,0,L|196:257,1,70,2|0,0:0|1:0,0:0:0:0:
467,208,40015,6,0,L|361:219,1,87.5,0|0,0:0|0:0,0:0:0:0:
299,228,40215,2,0,L|193:239,1,87.5,0|0,0:0|0:0,0:0:0:0:
19,375,40415,6,0,P|54:315|46:246,1,140,12|0,0:0|0:0,0:0:0:0:
19,375,40815,2,0,B|49:350|70:296|46:247|46:247|63:304|117:334|179:324,1,159.599998051758,8|0,0:0|0:0,0:0:0:0:
19,375,41215,2,0,B|49:350|70:296|46:247|46:247|63:304|117:334|179:324,1,179.899993686371,8|0,0:0|0:0,0:0:0:0:
19,375,41615,2,0,B|49:350|70:296|46:247|46:247|63:304|117:334|179:324,1,199.50000190258,8|0,0:0|0:0,0:0:0:0:
19,375,42015,2,0,B|49:350|70:296|46:247|46:247|63:304|117:334|179:324,1,219.80000083847,8|0,0:0|0:0,0:0:0:0:
19,375,42415,2,0,B|49:350|70:296|46:247|46:247|63:304|117:334|179:324,1,240.100006777725,8|0,0:0|0:0,0:0:0:0:
19,375,42815,2,0,B|49:350|70:296|46:247|46:247|63:304|117:334|179:324,1,260.400008145447,8|0,0:0|0:0,0:0:0:0:
19,375,43215,2,0,P|54:315|46:246,1,140,8|0,0:0|0:0,0:0:0:0:
46,247,43415,2,0,P|85:304|151:325,1,140,8|0,0:0|0:0,0:0:0:0:
245,324,43615,6,0,L|405:304,1,140,12|0,0:0|0:0,0:0:0:0:
245,324,44015,2,0,B|384:306|384:306|244:289,1,159.599998051758,8|0,0:0|0:0,0:0:0:0:
245,324,44415,2,0,B|384:306|384:306|244:289,1,179.899993686371,8|0,0:0|0:0,0:0:0:0:
245,324,44815,2,0,B|384:306|384:306|244:289,1,199.50000190258,8|0,0:0|0:0,0:0:0:0:
245,324,45215,2,0,B|384:306|384:306|244:289,1,219.80000083847,8|4,0:0|0:1,0:0:0:0:
245,324,45615,2,0,B|384:306|384:306|244:289,1,240.100006777725,8|0,0:0|0:0,0:0:0:0:
245,324,46015,2,0,B|384:306|384:306|244:289,1,260.400008145447,12|0,0:0|0:0,0:0:0:0:
245,324,46415,2,0,L|405:304,1,140,8|0,0:0|0:0,0:0:0:0:
383,306,46615,2,0,L|223:286,1,140,8|0,0:0|0:0,0:0:0:0:
160,114,46815,6,0,P|187:60|261:23,1,105.000004005432,12|0,0:0|0:0,0:0:0:0:
344,51,47015,2,0,P|376:101|371:184,1,105.000004005432,8|0,0:0|0:0,0:0:0:0:
304,241,47215,2,0,P|244:244|174:198,1,105.000004005432,8|0,0:0|0:0,0:0:0:0:
204,227,47415,2,0,P|255:222|304:241,1,105.000004005432,8|0,0:0|0:0,0:0:0:0:
427,337,47615,6,0,P|380:360|316:363,1,105.000004005432,8|0,0:0|0:0,0:0:0:0:
183,340,47815,2,0,P|147:301|129:240,1,105.000004005432,8|0,0:0|0:0,0:0:0:0:
116,105,48015,2,0,P|144:61|198:26,1,105.000004005432,8|0,0:0|0:0,0:0:0:0:
187,31,48215,2,0,P|158:74|104:109,1,105.000004005432,8|8,0:0|0:0,0:0:0:0:
0,195,48415,6,0,L|144:177,1,105.000004005432,8|0,0:0|0:0,0:0:0:0:
192,170,48615,2,0,L|336:152,1,105.000004005432,8|0,0:0|0:0,0:0:0:0:
384,145,48815,2,0,L|528:127,1,105.000004005432,8|0,0:0|0:0,0:0:0:0:
488,132,49015,2,0,L|384:146,1,105.000004005432,8|0,0:0|0:0,0:0:0:0:
280,23,49215,6,0,P|302:70|306:132,1,105.000004005432,8|0,0:0|0:0,0:0:0:0:
281,229,49415,2,0,P|251:272|199:306,1,105.000004005432,8|0,0:0|0:0,0:0:0:0:
103,332,49615,2,0,P|50:328|-5:300,1,105.000004005432,8|0,0:0|0:0,0:0:0:0:
3,306,49815,2,0,P|56:310|111:338,1,105.000004005432,8|8,0:0|0:0,0:0:0:0:
163,384,50015,5,8,0:0:0:0:
244,366,50115,1,8,0:0:0:0:
326,348,50215,1,8,0:0:0:0:
264,322,50315,1,8,0:0:0:0:
202,296,50415,1,8,0:0:0:0:
247,266,50515,1,8,0:0:0:0:
292,237,50615,1,8,0:0:0:0:
260,207,50715,1,8,0:0:0:0:
229,178,50815,1,8,0:0:0:0:
244,156,50915,1,8,0:0:0:0:
260,136,51015,1,8,0:0:0:0:
253,121,51115,1,8,0:0:0:0:
246,107,51215,1,8,0:0:0:0:
248,97,51315,1,8,0:0:0:0:
251,88,51415,1,8,0:0:0:0:
250,81,51515,1,8,0:0:0:0:
250,76,51615,6,0,L|138:87,1,83.9999974365235
166,84,51815,2,0,L|250:76,1,83.9999974365235,0|0,0:0|0:0,0:0:0:0:
249,76,52015,2,0,L|137:87,1,83.9999974365235,0|0,0:0|0:0,0:0:0:0:
165,84,52215,2,0,L|249:76,1,83.9999974365235,0|0,1:0|3:0,0:0:0:0:
432,59,52415,6,0,B|445:88|445:88|427:194,1,105.000004005432,0|0,1:0|0:0,0:0:0:0:
366,229,52615,2,0,P|342:195|340:142,1,70,2|0,0:0|0:0,0:0:0:0:
366,229,52815,2,0,P|326:250|310:291,1,87.5,2|0,0:0|0:0,0:0:0:0:
366,229,53015,2,0,L|228:209,1,105.000004005432,2|0,0:0|0:0,0:0:0:0:
0,319,53215,5,4,1:0:0:0:
75,331,53315,1,2,0:3:0:0:
97,320,53415,1,2,0:3:0:0:
113,301,53515,1,2,0:3:0:0:
187,320,53615,5,4,1:0:0:0:
122,279,53715,1,2,0:3:0:0:
125,254,53815,1,2,0:3:0:0:
120,230,53915,1,2,0:3:0:0:
50,257,54015,5,4,1:0:0:0:
109,209,54115,1,2,0:3:0:0:
97,187,54215,1,2,0:3:0:0:
92,163,54315,1,6,1:3:0:0:
95,139,54515,5,2,0:3:0:0:
105,116,54615,1,4,1:0:0:0:
121,98,54715,1,2,0:3:0:0:
111,16,54815,5,4,1:0:0:0:
154,83,54915,1,2,0:3:0:0:
190,84,55015,1,2,0:3:0:0:
222,100,55115,1,2,0:3:0:0:
171,161,55215,5,4,1:0:0:0:
244,129,55315,1,2,0:3:0:0:
250,165,55415,1,2,0:3:0:0:
239,200,55515,1,2,0:3:0:0:
297,254,55615,5,4,1:0:0:0:
220,231,55715,1,2,0:3:0:0:
218,267,55815,1,2,0:3:0:0:
232,301,55915,1,6,1:3:0:0:
259,325,56115,5,2,0:3:0:0:
294,334,56215,1,4,1:0:0:0:
330,327,56315,1,2,0:3:0:0:
398,368,56415,5,4,1:0:0:0:
367,295,56515,1,2,0:3:0:0:
377,247,56615,1,2,0:3:0:0:
359,201,56715,1,2,0:3:0:0:
297,254,56815,5,4,1:0:0:0:
318,175,56915,1,2,0:3:0:0:
299,129,57015,1,2,0:3:0:0:
310,81,57115,1,2,0:3:0:0:
378,122,57215,5,4,1:0:0:0:
347,49,57315,1,2,0:3:0:0:
395,44,57415,1,2,0:3:0:0:
437,68,57515,1,6,1:3:0:0:
456,112,57715,5,2,0:3:0:0:
448,160,57815,1,4,1:0:0:0:
413,195,57915,1,2,0:3:0:0:
443,282,58015,6,0,P|375:268|280:192,1,122.500001168251,4|2,1:0|0:3,0:0:0:0:
243,159,58215,2,0,P|221:93|239:-27,1,122.500001168251,2|2,1:3|0:3,0:0:0:0:
417,0,58415,6,0,P|421:61|406:120,1,122.500001168251,4|2,1:0|0:3,0:0:0:0:
349,207,58615,2,0,P|298:240|239:256,1,122.500001168251,2|2,1:3|0:3,0:0:0:0:
130,244,58815,5,4,1:0:0:0:
57,198,58915,1,2,0:3:0:0:
35,116,59015,1,2,0:3:0:0:
75,40,59115,1,2,0:3:0:0:
155,12,59215,1,2,0:3:0:0:
234,46,59315,1,2,0:3:0:0:
268,124,59415,1,2,0:3:0:0:
240,205,59515,1,2,0:3:0:0:
128,318,59615,6,0,P|255:232|403:213,1,245.000002336502,6|0,1:0|0:0,0:0:0:0:
502,178,59915,2,0,P|380:171|268:124,1,245.000002336502,6|0,1:0|0:0,0:0:0:0:
234,46,60215,2,0,P|233:3|242:44,1,122.500001168251,6|0,1:0|0:0,0:0:0:0:
366,27,60415,6,0,P|422:186|411:344,1,245.000002336502,6|0,1:0|0:0,0:0:0:0:
210,358,60715,2,0,P|221:236|268:124,1,245.000002336502,6|0,1:0|0:0,0:0:0:0:
366,321,61015,5,2,1:2:0:0:
332,180,61115,1,2,1:2:0:0:
434,76,61215,2,0,P|269:102|136:12,1,245.000002336502,6|0,1:0|0:0,0:0:0:0:
24,8,61515,2,0,P|67:170|48:311,1,245.000002336502,6|0,1:0|0:0,0:0:0:0:
155,343,61815,2,0,P|193:323|150:329,1,122.500001168251,6|0,1:0|0:0,0:0:0:0:
30,342,62015,6,0,P|159:316|312:367,1,245.000002336502,6|0,1:0|0:0,0:0:0:0:
384,182,62315,2,0,P|254:269|95:287,1,245.000002336502,6|0,1:0|0:0,0:0:0:0:
229,124,62615,2,0,P|249:191|246:315,1,122.500001168251,6|0,1:0|0:0,0:0:0:0:
415,354,62815,6,0,P|413:180|454:75,1,245.000002336502,6|0,1:0|0:0,0:0:0:0:
256,31,63115,2,0,P|285:149|275:270,1,245.000002336502,6|0,1:0|0:0,0:0:0:0:
110,190,63415,2,0,P|131:227|121:185,1,122.500001168251,6|0,1:0|0:0,0:0:0:0:
350,43,63615,6,0,P|201:81|63:50,1,245.000002336502,6|0,1:0|0:0,0:0:0:0:
93,357,63915,2,0,P|174:242|347:181,1,245.000002336502,6|0,1:0|0:0,0:0:0:0:
391,193,64215,5,2,1:2:0:0:
302,113,64315,1,2,1:2:0:0:
415,75,64415,2,0,P|444:204|396:349,1,245.000002336502,6|0,1:0|0:0,0:0:0:0:
304,384,64715,2,0,P|443:337|538:231,1,245.000002336502,6|0,1:0|0:0,0:0:0:0:
328,287,65015,2,0,P|311:247|325:288,1,122.500001168251,6|0,1:0|0:0,0:0:0:0:
367,100,65215,6,0,P|402:150|417:210,1,122.500001168251,6|0,1:0|0:0,0:0:0:0:
184,355,65415,2,0,P|149:305|135:246,1,122.500001168251,0|0,1:0|0:0,0:0:0:0:
286,209,65615,6,0,P|299:268|290:329,1,122.500001168251,10|0,1:0|0:0,0:0:0:0:
16,301,65815,2,0,P|3:242|13:182,1,122.500001168251,0|0,1:0|0:0,0:0:0:0:
186,30,66015,5,4,1:0:0:0:
205,194,66115,1,2,0:3:0:0:
180,177,66215,1,2,0:3:0:0:
166,152,66315,1,2,0:3:0:0:
324,28,66415,5,4,1:0:0:0:
240,125,66515,1,2,0:3:0:0:
242,95,66615,1,2,0:3:0:0:
256,70,66715,1,2,0:3:0:0:
359,181,66815,5,4,1:0:0:0:
315,119,66915,1,2,0:3:0:0:
341,105,67015,1,2,0:3:0:0:
370,105,67115,1,6,1:3:0:0:
399,115,67315,5,2,0:3:0:0:
421,134,67415,1,4,1:0:0:0:
433,161,67515,1,2,0:3:0:0:
427,285,67615,5,4,1:0:0:0:
359,181,67715,1,2,0:3:0:0:
330,181,67815,1,2,0:3:0:0:
304,195,67915,1,2,0:3:0:0:
352,259,68015,5,4,1:0:0:0:
245,146,68115,1,2,0:3:0:0:
231,171,68215,1,2,0:3:0:0:
229,201,68315,1,2,0:3:0:0:
268,272,68415,5,4,1:0:0:0:
155,228,68515,1,2,0:3:0:0:
169,253,68615,1,2,0:3:0:0:
194,270,68715,1,6,1:3:0:0:
194,270,68915,5,2,0:3:0:0:
161,335,69015,1,4,1:0:0:0:
92,361,69115,1,2,0:3:0:0:
0,179,69215,5,4,1:0:0:0:
43,278,69315,1,2,0:3:0:0:
72,283,69415,1,2,0:3:0:0:
100,275,69515,1,2,0:3:0:0:
204,166,69615,5,4,1:0:0:0:
96,153,69715,1,2,0:3:0:0:
77,176,69815,1,2,0:3:0:0:
70,204,69915,1,2,0:3:0:0:
112,348,70015,5,4,1:0:0:0:
177,261,70115,1,2,0:3:0:0:
167,233,70215,1,2,0:3:0:0:
146,213,70315,1,4,1:0:0:0:
146,213,70515,5,2,0:3:0:0:
243,225,70615,1,4,1:0:0:0:
327,175,70715,1,2,0:3:0:0:
394,231,70815,6,0,P|333:251|227:230,1,122.500001168251,0|2,1:0|0:3,0:0:0:0:
172,183,71015,2,0,P|136:129|129:21,1,122.500001168251,2|2,1:3|0:3,0:0:0:0:
344,288,71215,6,0,P|281:274|199:203,1,122.500001168251,4|2,1:0|0:3,0:0:0:0:
169,131,71415,2,0,P|165:66|213:-30,1,122.500001168251,0|2,1:3|0:3,0:0:0:0:
312,152,71615,5,4,1:0:0:0:
385,198,71715,1,2,0:3:0:0:
407,280,71815,1,2,0:3:0:0:
367,356,71915,1,2,0:3:0:0:
287,384,72015,1,2,0:3:0:0:
208,350,72115,1,2,0:3:0:0:
174,272,72215,1,2,0:3:0:0:
202,191,72315,1,2,0:3:0:0:
266,84,72415,6,0,P|163:182|26:213,1,245.000002336502,6|0,1:0|0:0,0:0:0:0:
2,285,72715,2,0,P|108:344|229:361,1,245.000002336502,6|0,1:0|0:0,0:0:0:0:
258,273,73015,2,0,P|238:239|248:272,1,122.500001168251,6|0,1:0|0:0,0:0:0:0:
384,358,73215,6,0,P|330:308|288:110,1,245.000002336502,6|0,1:0|0:0,0:0:0:0:
380,28,73515,2,0,P|253:137|91:164,1,245.000002336502,6|0,1:0|0:0,0:0:0:0:
47,15,73815,5,2,1:2:0:0:
102,139,73915,1,2,1:2:0:0:
62,270,74015,2,0,P|152:143|188:-13,1,245.000002336502,6|0,1:0|0:0,0:0:0:0:
388,219,74315,2,0,P|339:111|252:-2,1,245.000002336502,6|0,1:0|0:0,0:0:0:0:
261,158,74615,2,0,P|228:181|265:161,1,122.500001168251,6|0,1:0|0:0,0:0:0:0:
343,309,74815,6,0,P|302:191|311:23,1,245.000002336502,6|0,1:0|0:0,0:0:0:0:
504,147,75115,2,0,P|502:268|461:384,1,245.000002336502,6|0,1:0|0:0,0:0:0:0:
392,105,75415,2,0,P|412:176|415:271,1,122.500001168251,6|0,1:0|0:0,0:0:0:0:
368,384,75615,6,0,P|263:271|125:213,1,245.000002336502,6|0,1:0|0:0,0:0:0:0:
18,299,75915,2,0,P|139:225|197:107,1,245.000002336502,6|0,1:0|0:0,0:0:0:0:
79,79,76215,2,0,P|55:43|68:85,1,122.500001168251,6|0,1:0|0:0,0:0:0:0:
239,17,76415,6,0,P|411:38|519:84,1,245.000002336502,6|0,1:0|0:0,0:0:0:0:
370,280,76715,2,0,P|253:317|131:325,1,245.000002336502,6|0,1:0|0:0,0:0:0:0:
163,96,77015,5,2,1:2:0:0:
233,196,77115,1,2,1:2:0:0:
111,206,77215,2,0,P|238:245|294:297,1,122.500001168251,6|0,1:0|0:0,0:0:0:0:
392,72,77415,2,0,P|335:95|275:104,1,122.500001168251,0|0,1:0|0:0,0:0:0:0:
47,9,77615,6,0,P|14:71|12:171,1,122.500001168251,2|0,0:0|0:0,0:0:0:0:
84,197,77815,2,0,P|100:246|135:285,1,105.000004005432,2|0,0:0|0:0,0:0:0:0:
227,238,78015,2,0,P|280:226|339:146,1,87.5,2|0,0:0|0:0,0:0:0:0:
274,104,78215,2,0,P|282:68|244:-2,1,70,2|0,0:0|0:0,0:0:0:0:
175,22,78415,2,0,P|141:19|82:46,1,52.5000020027161,2|0,0:0|0:0,0:0:0:0:
91,122,78615,2,0,P|93:147|107:175,1,35,2|0,0:0|0:0,0:0:0:0:
176,137,78815,6,0,L|179:111,1,17.5,4|0,1:0|0:0,0:0:0:0:
189,150,79015,1,8,1:0:0:0:
202,163,79215,1,8,1:0:0:0:
215,176,79415,1,8,1:0:0:0:
229,189,79615,6,0,L|390:177,1,105.000004005432,8|0,1:2|0:0,0:0:0:0:
502,168,79815,1,8,0:1:0:0:
493,154,80015,5,12,1:0:0:0:
332,264,80115,1,8,0:1:0:0:
452,319,80215,1,8,0:1:0:0:
452,319,80415,6,0,L|435:168,1,105.000004005432,4|0,1:0|0:0,0:0:0:0:
422,29,80615,1,8,0:1:0:0:
434,37,80815,5,8,0:1:0:0:
352,165,80915,1,8,0:1:0:0:
345,4,81015,1,8,1:0:0:0:
345,4,81215,6,0,L|212:17,1,105.000004005432,8|0,1:2|0:0,0:0:0:0:
62,25,81415,1,8,0:1:0:0:
213,100,81515,1,8,0:1:0:0:
39,135,81615,1,8,0:1:0:0:
29,149,81815,1,8,0:1:0:0:
225,197,82015,6,0,L|222:171,1,17.5,4|0,1:0|0:0,0:0:0:0:
212,210,82215,1,8,1:0:0:0:
199,223,82415,1,8,1:0:0:0:
186,236,82615,1,8,1:0:0:0:
172,249,82815,6,0,L|157:123,1,105.000004005432,8|0,1:2|0:0,0:0:0:0:
145,37,83015,1,8,0:1:0:0:
155,53,83215,5,12,1:0:0:0:
85,224,83315,1,8,0:1:0:0:
235,121,83415,1,8,0:1:0:0:
235,121,83615,6,0,L|68:147,1,105.000004005432,4|0,1:0|0:0,0:0:0:0:
0,154,83815,1,8,0:1:0:0:
11,136,84015,5,8,0:1:0:0:
160,254,84115,1,8,0:1:0:0:
10,248,84215,1,8,1:0:0:0:
10,248,84415,2,0,L|147:229,1,105.000004005432,8|0,1:2|0:0,0:0:0:0:
292,207,84615,6,0,B|237:198|198:246|198:246|247:246|262:230,1,175,2|0,1:2|0:0,0:0:0:0:
375,248,84815,2,0,B|410:204|389:146|389:146|364:188|371:210,1,175,2|0,0:0|0:0,0:0:0:0:
300,299,85015,2,0,B|319:351|380:362|380:362|356:319|334:314,1,175,2|0,0:0|0:0,0:0:0:0:
512,360,85215,6,0,B|470:344|463:267|463:267|450:326|374:342,1,210.000008010865,0|0,1:0|0:0,0:0:0:0:
294,208,85515,2,0,P|287:260|307:308,1,105.000004005432,0|0,1:0|0:0,0:0:0:0:
463,267,85715,1,0,0:0:0:0:
475,252,85815,2,0,P|425:236|375:249,1,105.000004005432,0|0,1:0|0:0,0:0:0:0:
231,362,86015,6,0,B|264:325|244:271|244:271|227:262|227:262|195:224|218:172,1,210.000008010865,8|0,0:0|0:0,0:0:0:0:
341,117,86315,2,0,P|325:168|238:238,1,105.000004005432,0|0,1:0|0:0,0:0:0:0:
166,308,86515,1,0,0:0:0:0:
152,292,86615,2,0,P|112:263|26:257,1,105.000004005432,0|0,1:0|1:0,0:0:0:0:
187,98,86815,6,0,P|129:154|225:155,1,210.000008010865,0|0,1:0|0:0,0:0:0:0:
371,128,87115,2,0,P|337:127|241:76,1,105.000004005432,0|0,1:0|0:0,0:0:0:0:
125,31,87315,1,0,0:0:0:0:
104,37,87415,2,0,P|63:81|49:148,1,105.000004005432,0|0,1:0|0:0,0:0:0:0:
133,220,87615,6,0,B|57:271|4:196|4:196|39:216|89:204,1,210.000008010865,8|0,0:0|0:0,0:0:0:0:
152,308,87915,2,0,P|188:287|231:183,1,105.000004005432,0|0,1:0|0:0,0:0:0:0:
280,69,88115,1,0,0:0:0:0:
279,48,88215,2,0,P|315:69|358:173,1,105.000004005432,0|0,1:0|1:0,0:0:0:0:
330,310,88415,5,0,1:0:0:0:
89,379,88615,2,0,P|60:336|40:232,1,105.000004005432,2|0,0:0|1:0,0:0:0:0:
51,166,88815,2,0,P|73:119|153:50,1,105.000004005432,2|0,0:0|0:0,0:0:0:0:
216,26,89015,2,0,P|267:21|367:57,1,105.000004005432,2|0,1:2|0:0,0:0:0:0:
330,310,89215,5,8,0:0:0:0:
151,328,89415,2,0,P|132:300|119:234,1,70,2|0,0:0|1:0,0:0:0:0:
126,192,89615,2,0,P|139:162|190:118,1,70,2|0,0:0|0:0,0:0:0:0:
231,103,89815,2,0,P|263:99|326:122,1,70,2|0,1:2|1:0,0:0:0:0:
510,269,90015,5,2,1:2:0:0:
481,256,90115,2,0,P|466:220|497:133,1,105.000004005432,2|0,1:2|0:0,0:0:0:0:
370,210,90315,5,2,1:2:0:0:
341,223,90415,2,0,P|326:259|357:346,1,87.5,2|0,1:2|0:0,0:0:0:0:
231,244,90615,5,2,1:2:0:0:
202,231,90715,2,0,P|187:195|218:108,1,70,2|0,1:2|0:0,0:0:0:0:
85,211,90915,5,2,0:0:0:0:
56,224,91015,2,0,P|49:242|64:285,1,35,2|0,0:0|0:0,0:0:0:0:
84,384,91215,6,0,P|115:347|142:262,1,105.000004005432,0|0,1:0|3:0,0:0:0:0:
273,167,91415,2,0,P|269:118|228:39,1,105.000004005432,0|0,1:0|3:0,0:0:0:0:
23,92,91615,5,4,1:0:0:0:
86,59,92015,1,0,1:0:0:0:
157,67,92215,1,0,0:0:0:0:
210,113,92415,1,0,1:0:0:0:
237,180,92815,1,0,1:0:0:0:
268,244,93215,1,0,1:0:0:0:
332,274,93415,1,0,0:0:0:0:
396,248,93615,1,0,1:0:0:0:
427,185,93815,1,0,0:0:0:0:
405,120,94015,1,0,1:0:0:0:
341,90,94415,1,0,1:0:0:0:
274,113,94815,1,4,1:0:0:0:
241,175,95215,1,0,1:0:0:0:
252,245,95415,1,0,0:0:0:0:
299,299,95615,1,0,1:0:0:0:
364,325,96015,1,0,1:0:0:0:
434,315,96415,1,2,1:2:0:0:
489,268,96615,1,2,0:2:0:0:
512,201,96815,1,2,1:2:0:0:
507,130,97015,1,2,0:2:0:0:
474,66,97215,1,2,1:2:0:0:
418,23,97415,1,2,0:2:0:0:
348,7,97615,1,8,1:0:0:0:
348,7,98015,5,0,1:0:0:0:
418,23,98215,1,8,0:2:0:0:
474,66,98415,1,0,1:0:0:0:
507,130,98615,1,8,0:2:0:0:
512,201,98815,1,0,1:0:0:0:
489,268,99015,1,8,0:2:0:0:
434,315,99215,1,0,1:0:0:0:
364,325,99415,6,0,L|357:381,2,35,8|8|0,0:2|0:2|1:0,0:0:0:0:
299,299,99815,1,8,0:2:0:0:
252,245,100015,1,0,1:0:0:0:
241,175,100215,1,8,0:2:0:0:
274,113,100415,1,0,1:0:0:0:
341,90,100615,1,8,0:2:0:0:
405,120,100815,1,0,1:0:0:0:
427,185,101015,5,8,0:2:0:0:
418,219,101115,1,8,0:2:0:0:
396,248,101215,1,0,1:0:0:0:
366,268,101315,1,8,0:2:0:0:
332,274,101415,1,0,1:0:0:0:
297,266,101515,1,8,0:2:0:0:
268,244,101615,1,0,1:0:0:0:
249,213,101715,1,8,0:2:0:0:
237,180,101815,1,0,1:0:0:0:
226,145,101915,1,8,0:2:0:0:
210,113,102015,1,0,1:0:0:0:
188,86,102115,1,8,0:2:0:0:
157,67,102215,1,0,1:0:0:0:
122,59,102315,1,8,0:2:0:0:
86,59,102415,1,0,1:0:0:0:
52,69,102515,1,8,0:2:0:0:
23,92,102615,6,0,L|10:141,2,35,0|4|4,1:0|0:2|1:0,0:0:0:0:
447,179,103015,1,2,0:2:0:0:
451,173,103215,1,2,0:2:0:0:
458,175,103415,1,2,0:2:0:0:
458,182,103615,1,2,0:2:0:0:
451,185,103815,1,2,0:2:0:0:
104,311,104015,5,8,1:0:0:0:
456,353,104415,6,0,L|450:296,1,35,4|0,1:2|0:0,0:0:0:0:
318,313,104815,6,0,L|324:256,1,35,2|0,0:0|0:0,0:0:0:0:
456,353,105015,2,0,L|450:296,1,35,2|0,0:0|0:0,0:0:0:0:
318,313,105215,2,0,L|324:256,1,35,2|0,0:0|0:0,0:0:0:0:
456,353,105615,6,0,L|450:296,1,35,2|0,0:0|0:0,0:0:0:0:
318,313,106015,6,0,L|324:256,1,35,2|0,0:0|0:0,0:0:0:0:
456,353,106215,2,0,L|450:296,1,35,2|0,0:0|0:0,0:0:0:0:
318,313,106415,2,0,L|324:256,1,35,2|0,0:0|0:0,0:0:0:0:
456,353,106615,2,0,L|450:296,1,35,2|0,0:0|0:0,0:0:0:0:
318,313,106815,2,0,L|324:256,1,35,2|0,0:0|0:0,0:0:0:0:
456,353,107215,6,0,L|450:296,1,35,2|0,0:0|0:0,0:0:0:0:
459,53,107615,6,0,L|374:33,1,52.5000020027161,6|0,1:2|0:0,0:0:0:0:
296,173,108015,6,0,L|347:165,1,52.5000020027161,2|0,0:0|0:0,0:0:0:0:
459,53,108215,2,0,L|374:33,1,52.5000020027161,2|0,0:0|0:0,0:0:0:0:
296,173,108415,2,0,L|347:165,1,52.5000020027161,2|0,0:0|0:0,0:0:0:0:
459,53,108815,6,0,L|374:33,1,52.5000020027161,2|0,0:0|0:0,0:0:0:0:
296,173,109215,6,0,L|347:165,1,52.5000020027161,0|2,0:0|0:0,0:0:0:0:
459,53,109415,2,0,L|374:33,1,52.5000020027161,6|0,1:2|0:0,0:0:0:0:
296,173,109615,2,0,L|347:165,1,52.5000020027161,2|0,0:0|0:0,0:0:0:0:
459,53,109815,2,0,L|374:33,1,52.5000020027161,2|0,0:0|0:0,0:0:0:0:
296,173,110015,2,0,L|347:165,1,52.5000020027161,6|0,1:2|0:0,0:0:0:0:
459,53,110415,6,0,L|374:33,1,52.5000020027161,2|0,1:2|0:0,0:0:0:0:
7,36,110815,6,0,L|-2:120,1,70,6|0,1:2|0:0,0:0:0:0:
256,98,111215,6,0,L|265:182,1,70,2|0,0:0|0:0,0:0:0:0:
7,36,111415,2,0,L|-2:120,1,70,2|0,0:0|0:0,0:0:0:0:
256,98,111615,2,0,L|265:182,1,70,2|0,0:0|0:0,0:0:0:0:
7,36,112015,6,0,L|-2:120,1,70,2|0,0:0|0:0,0:0:0:0:
256,98,112415,6,0,L|265:182,1,70,2|0,0:0|0:0,0:0:0:0:
7,36,112615,2,0,L|-2:120,1,70,2|0,0:0|0:0,0:0:0:0:
256,98,112815,2,0,L|265:182,1,70,2|0,0:0|0:0,0:0:0:0:
7,36,113015,2,0,L|-2:120,1,70,2|0,0:0|0:0,0:0:0:0:
256,98,113215,2,0,L|265:182,1,70,2|0,0:0|0:0,0:0:0:0:
7,36,113615,6,0,L|-2:120,1,70,2|0,1:0|0:0,0:0:0:0:
124,163,113815,5,0,1:0:0:0:
122,160,113915,1,0,1:0:0:0:
119,158,114015,2,0,P|103:184|124:162,1,87.5,6|0,1:2|0:0,0:0:0:0:
121,157,114215,2,0,P|109:189|125:160,1,105.000004005432,2|0,0:0|0:0,0:0:0:0:
122,154,114415,2,0,P|108:192|127:158,1,122.500001168251,2|0,0:0|0:0,0:0:0:0:
123,151,114615,2,0,P|107:194|129:155,1,140,2|0,0:0|0:0,0:0:0:0:
124,148,114815,2,0,P|106:197|131:153,1,157.500006008148,2|0,0:0|0:0,0:0:0:0:
125,145,115015,2,0,P|105:199|132:150,1,175,2|0,0:0|0:0,0:0:0:0:
126,142,115215,2,0,P|104:202|134:148,1,192.500001835823,2|0,0:0|0:0,0:0:0:0:
127,139,115415,2,0,P|103:204|136:146,1,210.000008010865,2|0,0:0|0:0,0:0:0:0:
116,172,115615,5,0,0:0:0:0:
111,170,115815,1,0,0:0:0:0:
111,165,116015,1,0,0:0:0:0:
116,163,116215,1,0,0:0:0:0:
119,167,116415,1,0,0:0:0:0:
407,328,116815,6,0,P|496:295|455:208,1,210.000008010865,2|0,0:0|0:0,0:0:0:0:
460,210,117015,2,0,P|371:243|412:330,1,210.000008010865,2|0,0:0|0:0,0:0:0:0:
407,328,117215,6,0,L|21:290,1,315.000012016297,4|0,1:0|0:0,0:0:0:0:
0,289,117615,2,0,L|386:251,1,315.000012016297,0|0,0:0|0:0,0:0:0:0:
511,196,118015,2,0,L|125:158,1,315.000012016297,8|0,0:0|0:0,0:0:0:0:
154,72,118415,6,0,L|194:346,1,210.000008010865,0|0,1:0|0:0,0:0:0:0:
265,268,118615,2,0,L|225:-6,1,210.000008010865,0|0,1:0|0:0,0:0:0:0:
62,16,118815,6,0,L|375:46,1,315.000012016297,4|0,1:0|0:0,0:0:0:0:
511,134,119215,2,0,L|197:164,1,315.000012016297,0|0,0:0|0:0,0:0:0:0:
113,75,119615,6,0,L|73:349,1,210.000008010865,8|0,1:2|0:0,0:0:0:0:
196,87,119915,2,0,L|156:361,1,210.000008010865,0|0,1:0|0:0,0:0:0:0:
279,99,120215,2,0,L|239:373,1,210.000008010865,0|0,1:0|0:0,0:0:0:0:
0,382,120415,6,0,L|313:351,1,315.000012016297,4|0,1:0|0:0,0:0:0:0:
479,325,120815,2,0,L|165:294,1,315.000012016297,0|0,0:0|0:0,0:0:0:0:
12,215,121215,2,0,L|325:184,1,315.000012016297,8|0,0:0|0:0,0:0:0:0:
385,83,121615,6,0,L|345:357,1,210.000008010865,0|0,1:0|0:0,0:0:0:0:
274,279,121815,2,0,L|314:5,1,210.000008010865,0|0,1:0|0:0,0:0:0:0:
488,37,122015,6,0,L|174:67,1,315.000012016297,4|0,1:0|0:0,0:0:0:0:
12,153,122415,2,0,L|325:183,1,315.000012016297,0|0,0:0|0:0,0:0:0:0:
421,81,122815,6,0,L|461:355,1,210.000008010865,8|0,1:2|0:0,0:0:0:0:
338,93,123115,2,0,L|378:367,1,210.000008010865,0|0,1:0|0:0,0:0:0:0:
255,105,123415,2,0,L|295:379,1,210.000008010865,0|0,0:0|0:0,0:0:0:0:
422,369,123615,6,0,L|36:331,1,315.000012016297,4|0,1:0|0:0,0:0:0:0:
0,95,124015,2,0,L|386:57,1,315.000012016297,0|0,0:0|0:0,0:0:0:0:
512,297,124415,2,0,L|126:259,1,315.000012016297,8|0,0:0|0:0,0:0:0:0:
78,130,124815,6,0,L|118:404,1,210.000008010865,0|0,1:0|0:0,0:0:0:0:
243,384,125015,2,0,L|203:110,1,210.000008010865,0|0,1:0|0:0,0:0:0:0:
0,2,125215,6,0,L|313:32,1,315.000012016297,4|0,1:0|0:0,0:0:0:0:
512,276,125615,2,0,L|198:306,1,315.000012016297,0|0,0:0|0:0,0:0:0:0:
37,150,126015,6,0,L|-3:424,1,210.000008010865,8|0,1:2|0:0,0:0:0:0:
200,127,126315,2,0,L|160:401,1,210.000008010865,0|0,1:0|0:0,0:0:0:0:
363,104,126615,2,0,L|323:378,1,210.000008010865,0|0,1:0|0:0,0:0:0:0:
97,378,126815,6,0,L|410:347,1,315.000012016297,4|0,1:0|0:0,0:0:0:0:
479,61,127215,2,0,L|165:30,1,315.000012016297,0|0,0:0|0:0,0:0:0:0:
3,293,127615,2,0,L|316:262,1,315.000012016297,8|0,0:0|0:0,0:0:0:0:
492,163,128015,2,0,L|178:193,1,315.000012016297,0|0,0:0|0:0,0:0:0:0:
44,7,128415,6,0,L|4:281,1,210.000008010865,2|0,1:0|0:0,0:0:0:0:
125,352,128615,2,0,L|85:78,1,175,2|0,1:0|0:0,0:0:0:0:
199,55,128815,2,0,L|159:329,1,140,2|0,1:0|0:0,0:0:0:0:
275,268,129015,2,0,L|249:90,1,105.000004005432,2|0,1:0|0:0,0:0:0:0:
353,131,129215,2,0,L|333:268,1,70,2|0,1:0|0:0,0:0:0:0:
425,220,129415,2,0,L|417:167,1,35,2|0,1:0|0:0,0:0:0:0:
502,177,129615,2,0,L|500:189,1,10.5,6|0,1:0|0:0,0:0:0:0:
492,281,130015,5,0,1:0:0:0:
389,295,130115,1,0,1:0:0:0:
294,254,130215,1,0,1:0:0:0:
235,169,130315,1,0,1:0:0:0:
229,66,130415,5,0,1:0:0:0:
221,168,130615,1,0,1:0:0:0:
242,66,130815,1,8,0:0:0:0:
208,163,131015,1,0,1:0:0:0:
255,71,131215,6,0,P|325:73|427:139,1,105.000004005432,4|0,1:0|0:0,0:0:0:0:
449,44,131415,2,0,P|497:94|522:213,1,105.000004005432,4|0,1:0|0:0,0:0:0:0:
474,317,131615,6,0,L|315:301,1,105.000004005432,4|0,1:0|0:0,0:0:0:0:
474,309,131815,2,0,L|314:306,1,105.000004005432,0|0,0:0|0:0,0:0:0:0:
474,299,132015,2,0,L|314:310,1,105.000004005432,0|0,0:0|0:0,0:0:0:0:
473,290,132215,2,0,L|314:315,1,105.000004005432,0|0,0:0|0:0,0:0:0:0:
271,371,132415,6,0,P|240:342|211:217,1,105.000004005432,10|0,0:0|0:0,0:0:0:0:
120,304,132615,1,0,0:0:0:0:
106,321,132715,2,0,P|104:278|172:169,1,105.000004005432,2|0,0:0|0:0,0:0:0:0:
49,168,132915,1,0,0:0:0:0:
24,168,133015,2,0,P|52:137|178:108,1,105.000004005432,2|0,0:0|0:0,0:0:0:0:
190,165,133215,6,0,L|205:6,1,105.000004005432,4|0,1:0|0:0,0:0:0:0:
199,166,133415,2,0,L|201:6,1,105.000004005432,0|0,0:0|0:0,0:0:0:0:
208,165,133615,2,0,L|196:5,1,105.000004005432,0|0,0:0|0:0,0:0:0:0:
217,164,133815,2,0,L|191:5,1,105.000004005432,0|0,0:0|0:0,0:0:0:0:
299,9,134015,6,0,L|330:208,1,105.000004005432,8|0,0:0|0:0,0:0:0:0:
352,4,134215,2,0,L|349:205,1,105.000004005432,0|0,0:0|0:0,0:0:0:0:
407,10,134415,2,0,L|368:208,1,105.000004005432,0|0,0:0|0:0,0:0:0:0:
461,25,134615,2,0,L|389:213,1,105.000004005432,0|0,3:0|0:0,0:0:0:0:
502,289,134815,6,0,L|425:173,1,105.000004005432,4|0,1:0|0:0,0:0:0:0:
353,357,135015,2,0,L|308:225,1,105.000004005432,0|0,0:0|0:0,0:0:0:0:
193,384,135215,2,0,L|184:245,1,105.000004005432,0|0,0:0|0:0,0:0:0:0:
30,368,135415,2,0,L|57:232,1,105.000004005432,0|0,0:0|0:0,0:0:0:0:
53,21,135615,6,0,P|47:78|83:181,1,105.000004005432,10|0,0:0|0:0,0:0:0:0:
190,154,135815,1,0,3:0:0:0:
181,189,135915,2,0,P|217:233|315:280,1,105.000004005432,2|0,0:0|0:0,0:0:0:0:
371,186,136115,1,0,0:0:0:0:
390,217,136215,2,0,P|447:223|550:187,1,105.000004005432,2|0,3:2|0:0,0:0:0:0:
290,14,136415,6,0,P|279:68|311:189,1,105.000004005432,4|0,1:0|0:0,0:0:0:0:
281,14,136615,2,0,P|274:68|317:186,1,105.000004005432,0|0,0:0|0:0,0:0:0:0:
272,14,136815,2,0,P|270:69|323:182,1,105.000004005432,0|0,0:0|0:0,0:0:0:0:
264,16,137015,2,0,P|267:71|329:179,1,105.000004005432,0|0,0:0|0:0,0:0:0:0:
416,241,137215,6,0,P|448:127|395:238,1,315.000012016297,8|0,0:0|0:0,0:0:0:0:
408,320,137615,2,0,P|462:313|506:289,1,105.000004005432,4|0,1:0|0:0,0:0:0:0:
283,117,137815,2,0,P|271:172|289:267,1,105.000004005432,4|0,1:0|0:0,0:0:0:0:
177,287,138015,6,0,P|199:337|295:418,1,105.000004005432,4|0,1:0|0:0,0:0:0:0:
169,291,138215,2,0,P|195:340|297:412,1,105.000004005432,0|0,0:0|0:0,0:0:0:0:
161,296,138415,2,0,P|192:342|300:405,1,105.000004005432,0|0,0:0|0:0,0:0:0:0:
156,303,138615,2,0,P|190:346|303:399,1,105.000004005432,0|0,0:0|0:0,0:0:0:0:
482,327,138815,6,0,L|360:335,1,105.000004005432,10|0,0:0|0:0,0:0:0:0:
414,207,139015,1,0,0:0:0:0:
433,179,139115,2,0,L|317:218,1,105.000004005432,2|0,0:0|0:0,0:0:0:0:
336,80,139315,1,0,0:0:0:0:
347,48,139415,2,0,L|245:115,1,105.000004005432,2|0,0:0|0:0,0:0:0:0:
213,312,139615,6,0,P|218:257|176:139,1,105.000004005432,4|0,1:0|0:0,0:0:0:0:
221,312,139815,2,0,P|222:256|170:143,1,105.000004005432,0|0,0:0|0:0,0:0:0:0:
231,310,140015,2,0,P|227:254|165:146,1,105.000004005432,0|0,0:0|0:0,0:0:0:0:
239,309,140215,2,0,P|231:254|159:152,1,105.000004005432,0|0,0:0|0:0,0:0:0:0:
57,62,140415,6,0,P|112:115|189:140,1,105.000004005432,8|0,0:0|0:0,0:0:0:0:
37,92,140615,2,0,P|100:134|180:145,1,105.000004005432,0|0,0:0|0:0,0:0:0:0:
22,125,140815,2,0,P|91:155|172:153,1,105.000004005432,0|0,0:0|0:0,0:0:0:0:
13,160,141015,2,0,P|87:178|166:161,1,105.000004005432,0|0,3:0|0:0,0:0:0:0:
331,45,141215,6,0,P|278:45|228:61,1,105.000004005432,0|0,1:0|0:0,0:0:0:0:
229,61,141415,2,0,P|280:62|332:45,1,105.000004005432,0|0,1:0|0:0,0:0:0:0:
331,45,141615,2,0,P|278:45|228:61,1,105.000004005432,0|0,1:0|0:0,0:0:0:0:
229,61,141815,2,0,P|280:62|332:45,1,105.000004005432,0|0,1:0|0:0,0:0:0:0:
329,45,142015,6,0,P|316:95|328:153,1,105.000004005432,10|0,0:0|0:0,0:0:0:0:
250,199,142215,2,0,P|283:226|325:239,1,87.5,2|0,0:0|0:0,0:0:0:0:
352,328,142415,2,0,P|381:309|406:284,1,70,2|0,0:0|0:0,0:0:0:0:
494,288,142615,2,0,P|492:262|485:237,1,52.5000020027161,2|0,0:0|0:0,0:0:0:0:
409,180,142815,5,4,0:1:0:0:
398,180,142915,1,0,0:0:0:0:
393,189,143015,1,0,0:0:0:0:
398,199,143115,1,0,0:0:0:0:
409,199,143215,1,0,1:0:0:0:
414,189,143315,1,0,0:0:0:0:
408,182,143415,1,0,0:0:0:0:
399,182,143515,1,0,0:0:0:0:
395,189,143615,1,0,0:0:0:0:
399,197,143715,1,0,0:0:0:0:
408,197,143815,1,0,1:0:0:0:
412,189,143915,1,0,0:0:0:0:
407,184,144015,1,0,0:0:0:0:
400,184,144115,1,0,0:0:0:0:
397,189,144215,1,0,0:0:0:0:
400,195,144315,1,0,0:0:0:0:
407,195,144415,1,0,1:0:0:0:
410,189,144515,1,0,0:0:0:0:
406,186,144615,1,0,0:0:0:0:
401,186,144715,1,0,0:0:0:0:
399,189,144815,1,0,0:0:0:0:
401,193,144915,1,0,0:0:0:0:
406,193,145015,1,0,1:0:0:0:
408,189,145115,1,0,0:0:0:0:
404,189,145215,6,0,P|380:215|352:234,1,70,2|0,0:0|0:0,0:0:0:0:
261,256,145415,2,0,P|226:249|195:234,1,70,2|0,1:2|0:0,0:0:0:0:
424,192,145615,6,0,P|396:228|361:253,1,87.5,2|0,1:2|0:0,0:0:0:0:
268,275,145815,2,0,P|223:267|184:250,1,87.5,2|0,1:2|0:0,0:0:0:0:
30,41,146015,6,0,P|100:134|120:250,1,175,4|0,0:1|0:0,0:0:0:0:
116,188,146415,2,0,P|166:126|189:37,1,140,0|0,1:0|0:0,0:0:0:0:
185,69,146815,2,0,P|222:103|262:183,1,105.000004005432,0|0,0:0|1:0,0:0:0:0:
251,149,147215,2,0,P|302:121|351:61,1,70,0|0,0:0|0:0,0:0:0:0:
310,113,147615,2,0,P|336:140|345:155,2,35,0|4|0,1:0|0:1|0:0,0:0:0:0:
230,98,148215,1,0,1:0:0:0:
376,138,148415,6,0,P|352:111|324:92,1,70,6|0,1:2|0:0,0:0:0:0:
232,70,148615,2,0,P|197:76|166:91,1,70,6|0,0:0|0:0,0:0:0:0:
395,133,148815,6,0,P|366:97|332:72,1,87.5,8|0,1:0|0:0,0:0:0:0:
238,51,149015,2,0,P|193:58|154:75,1,87.5,2|0,0:0|0:0,0:0:0:0:
36,232,149215,5,4,1:0:0:0:
66,20,149415,1,0,0:0:0:0:
104,200,149615,5,0,1:0:0:0:
128,59,149815,1,0,0:0:0:0:
175,174,150015,5,0,1:0:0:0:
197,89,150115,1,0,1:0:0:0:
201,178,150215,5,0,1:0:0:0:
197,89,150315,1,0,1:0:0:0:
235,166,150415,5,0,1:0:0:0:
256,48,150615,1,0,1:0:0:0:
298,207,150815,5,0,1:0:0:0:
328,27,151015,1,0,0:0:0:0:
368,236,151215,5,0,1:0:0:0:
399,34,151415,1,0,0:0:0:0:
462,72,151615,6,0,P|471:106|472:140,1,70,2|0,1:2|0:0,0:0:0:0:
440,228,151815,2,0,P|415:254|386:271,1,70,2|0,1:2|1:0,0:0:0:0:
475,58,152015,6,0,P|489:101|491:144,1,87.5,2|0,1:2|0:0,0:0:0:0:
458,234,152215,2,0,P|427:267|392:291,1,87.5,2|0,1:2|0:0,0:0:0:0:
132,323,152415,5,4,1:0:0:0:
322,254,152615,1,0,0:0:0:0:
103,252,152815,5,0,1:0:0:0:
256,223,153015,1,0,1:0:0:0:
122,181,153215,5,0,1:0:0:0:
215,164,153315,1,0,1:0:0:0:
125,140,153415,5,0,1:0:0:0:
215,164,153515,1,0,1:0:0:0:
142,108,153615,5,0,1:0:0:0:
276,117,153815,1,0,0:0:0:0:
118,39,154015,5,0,1:0:0:0:
323,55,154215,2,0,P|282:68|221:70,1,70,6|0,1:2|0:0,0:0:0:0:
184,93,154415,2,0,P|218:98|251:109,1,70,2|0,1:2|0:0,0:0:0:0:
323,55,154615,2,0,P|282:68|221:70,1,70,2|0,1:2|0:0,0:0:0:0:
37,18,154815,6,0,P|27:52|26:86,1,70,2|0,1:2|0:0,0:0:0:0:
59,174,155015,2,0,P|83:200|112:217,1,70,2|0,1:2|0:0,0:0:0:0:
24,4,155215,6,0,P|9:47|7:90,1,87.5,2|0,1:2|0:0,0:0:0:0:
41,180,155415,2,0,P|71:213|106:237,1,87.5,2|0,1:2|0:0,0:0:0:0:
226,258,155615,6,0,P|295:233|355:154,1,140,12|0,0:0|0:0,0:0:0:0:
226,258,156015,2,0,B|302:248|340:186|340:186|318:113|239:82,1,159.599998051758,8|0,0:0|0:0,0:0:0:0:
226,258,156415,2,0,B|302:248|340:186|340:186|318:113|239:82,1,179.899993686371,8|0,0:0|0:0,0:0:0:0:
226,258,156815,2,0,B|302:248|340:186|340:186|318:113|239:82,1,199.50000190258,8|0,0:0|0:0,0:0:0:0:
226,258,157215,2,0,B|302:248|340:186|340:186|318:113|239:82,1,219.80000083847,8|0,0:0|0:0,0:0:0:0:
226,258,157615,2,0,B|302:248|340:186|340:186|318:113|239:82,1,240.100006777725,8|0,0:0|0:0,0:0:0:0:
226,258,158015,2,0,B|302:248|340:186|340:186|318:113|239:82,1,260.400008145447,8|0,0:0|0:0,0:0:0:0:
226,258,158415,2,0,P|295:233|355:154,1,140,8|0,0:0|0:0,0:0:0:0:
340,186,158615,2,0,P|305:125|248:86,1,140,8|0,0:0|0:0,0:0:0:0:
63,42,158815,6,0,B|35:88|35:88|69:207,1,140,12|0,0:0|0:0,0:0:0:0:
63,42,159215,2,0,B|35:88|35:88|58:170|58:170|142:152|142:152|160:121,1,163.10000653286,8|0,0:0|0:0,0:0:0:0:
63,42,159615,2,0,B|35:88|35:88|58:170|58:170|142:152|142:152|200:58,1,186.900006487999,8|0,0:0|0:0,0:0:0:0:
63,42,160015,2,0,B|35:88|35:88|58:170|58:170|142:152|142:152|200:58,1,210.000008010865,8|0,0:0|0:0,0:0:0:0:
63,42,160415,2,0,B|35:88|35:88|58:170|58:170|142:152|142:152|200:58,1,233.100005690918,8|0,0:0|0:0,0:0:0:0:
63,42,160815,2,0,B|35:88|35:88|58:170|58:170|142:152|142:152|200:58,1,256.899992209034,8|0,0:0|0:0,0:0:0:0:
63,42,161215,2,0,B|35:88|35:88|69:207,1,140,10|0,0:0|0:0,0:0:0:0:
58,170,161415,2,0,B|142:152|142:152|169:105,1,140,10|0,0:0|0:0,0:0:0:0:
248,86,161615,2,0,P|305:125|340:186,1,140,10|0,0:0|0:0,0:0:0:0:
340,185,161815,2,0,P|291:235|226:258,1,140,10|0,0:0|0:0,0:0:0:0:
0,312,162015,6,0,L|149:326,1,105.000004005432,12|0,0:0|0:0,0:0:0:0:
199,333,162215,2,0,L|348:347,1,105.000004005432,8|0,0:0|0:0,0:0:0:0:
398,354,162415,2,0,L|547:368,1,105.000004005432,8|0,0:0|0:0,0:0:0:0:
503,364,162615,2,0,L|354:350,1,105.000004005432,8|0,0:0|0:0,0:0:0:0:
308,384,162815,6,0,P|291:334|291:280,1,105.000004005432,8|0,0:0|0:0,0:0:0:0:
193,224,163015,2,0,P|216:177|254:138,1,105.000004005432,8|0,0:0|0:0,0:0:0:0:
224,29,163215,2,0,P|273:12|327:12,1,105.000004005432,8|0,0:0|0:0,0:0:0:0:
325,11,163415,2,0,P|273:30|218:28,1,105.000004005432,8|8,0:0|0:0,0:0:0:0:
47,52,163615,6,0,P|12:140|24:215,1,105.000004005432,8|0,0:0|0:0,0:0:0:0:
91,241,163815,2,0,P|184:227|243:179,1,105.000004005432,8|0,0:0|0:0,0:0:0:0:
233,109,164015,2,0,P|174:34|103:7,1,105.000004005432,8|0,0:0|0:0,0:0:0:0:
166,29,164215,2,0,P|224:103|295:130,1,105.000004005432,8|0,0:0|0:0,0:0:0:0:
512,137,164415,6,0,P|456:112|364:107,1,105.000004005432,8|0,0:0|0:0,0:0:0:0:
310,116,164615,2,0,P|260:151|210:229,1,105.000004005432,8|0,0:0|0:0,0:0:0:0:
190,280,164815,2,0,P|196:340|238:423,1,105.000004005432,8|0,0:0|0:0,0:0:0:0:
211,380,165015,2,0,P|210:330|189:278,1,105.000004005432,8|8,0:0|0:0,0:0:0:0:
39,38,165215,5,8,0:0:0:0:
34,126,165315,1,8,0:0:0:0:
92,190,165415,1,8,0:0:0:0:
98,128,165515,1,8,0:0:0:0:
147,91,165615,1,8,0:0:0:0:
165,130,165715,1,8,0:0:0:0:
206,142,165815,1,8,0:0:0:0:
220,120,165915,1,8,0:0:0:0:
246,118,166015,1,8,0:0:0:0:
256,129,166115,1,8,0:0:0:0:
272,128,166215,1,8,0:0:0:0:
279,122,166315,1,8,0:0:0:0:
288,124,166415,1,8,0:0:0:0:
292,126,166515,1,8,0:0:0:0:
297,124,166615,1,8,0:0:0:0:
300,123,166715,1,8,0:0:0:0:
303,125,166815,6,0,L|322:242,1,83.9999974365235,4|0,1:0|0:0,0:0:0:0:
316,207,167015,2,0,L|303:125,1,83.9999974365235,0|0,0:0|0:0,0:0:0:0:
303,125,167215,2,0,L|322:242,1,83.9999974365235,0|0,0:0|0:0,0:0:0:0:
316,207,167415,2,0,L|303:125,1,83.9999974365235,0|0,1:0|3:0,0:0:0:0:
392,36,167615,6,0,B|363:51|363:51|210:30,1,105.000004005432,0|0,1:0|0:0,0:0:0:0:
171,27,167815,2,0,P|193:56|245:91,1,70,2|0,0:0|0:0,0:0:0:0:
171,27,168015,2,0,P|133:64|54:78,1,87.5,2|0,0:0|0:0,0:0:0:0:
171,27,168215,2,0,L|159:177,1,105.000004005432,2|0,0:0|0:0,0:0:0:0:
58,339,168415,5,0,3:0:0:0:
54,343,168515,1,2,0:3:0:0:
50,339,168615,1,2,0:3:0:0:
54,336,168715,1,2,0:3:0:0:
213,229,168815,5,0,3:0:0:0:
217,232,168915,1,2,0:3:0:0:
213,236,169015,1,2,0:3:0:0:
209,232,169115,1,2,0:3:0:0:
85,156,169215,5,0,3:0:0:0:
81,159,169315,1,2,0:3:0:0:
85,163,169415,1,2,0:3:0:0:
89,159,169515,1,2,3:3:0:0:
463,179,169715,5,2,0:3:0:0:
339,243,169815,1,2,3:0:0:0:
458,318,169915,1,2,0:3:0:0:
417,250,170015,5,0,3:0:0:0:
421,247,170115,1,2,0:3:0:0:
417,243,170215,1,2,0:3:0:0:
413,247,170315,1,2,0:3:0:0:
265,346,170415,5,0,3:0:0:0:
261,350,170515,1,2,0:3:0:0:
257,346,170615,1,2,0:3:0:0:
261,343,170715,1,2,0:3:0:0:
186,142,170815,5,0,3:0:0:0:
182,138,170915,1,2,0:3:0:0:
178,142,171015,1,2,0:3:0:0:
182,145,171115,1,2,3:3:0:0:
442,137,171315,5,2,0:3:0:0:
412,0,171415,1,2,3:0:0:0:
309,96,171515,1,2,0:3:0:0:
385,74,171615,5,0,3:0:0:0:
387,78,171715,1,2,0:3:0:0:
392,76,171815,1,2,0:3:0:0:
389,71,171915,1,2,0:3:0:0:
238,229,172015,5,0,3:0:0:0:
235,234,172115,1,2,0:3:0:0:
240,236,172215,1,2,0:3:0:0:
242,232,172315,1,2,0:3:0:0:
400,308,172415,5,0,3:0:0:0:
403,313,172515,1,2,0:3:0:0:
398,315,172615,1,2,0:3:0:0:
396,311,172715,1,2,3:3:0:0:
52,249,172915,5,0,0:0:0:0:
185,208,173015,1,2,0:3:0:0:
82,112,173115,1,2,3:0:0:0:
106,186,173215,6,0,P|183:216|308:202,1,122.500001168251,0|2,3:0|0:3,0:0:0:0:
315,180,173415,2,0,P|364:112|383:-11,1,122.500001168251,2|2,1:3|0:3,0:0:0:0:
183,245,173615,6,0,P|265:232|366:158,1,122.500001168251,0|2,3:0|0:3,0:0:0:0:
391,120,173815,2,0,P|400:36|354:-79,1,122.500001168251,2|2,1:3|0:3,0:0:0:0:
186,129,174015,5,2,3:0:0:0:
106,186,174115,1,2,0:3:0:0:
90,281,174215,1,2,0:3:0:0:
145,363,174315,1,2,0:3:0:0:
241,382,174415,1,2,0:3:0:0:
323,329,174515,1,2,0:3:0:0:
329,236,174615,1,2,0:3:0:0:
296,150,174715,1,2,0:3:0:0:
179,37,174815,6,0,P|270:115|390:119,1,245.000002336502,2|0,1:0|0:0,0:0:0:0:
505,241,175115,1,2,1:2:0:0:
464,70,175215,2,0,P|443:100|447:257,1,122.500001168251,2|0,1:0|0:0,0:0:0:0:
375,346,175415,2,0,P|342:294|328:235,1,122.500001168251,2|0,1:0|0:0,0:0:0:0:
95,262,175615,6,0,P|177:173|295:149,1,245.000002336502,2|0,1:0|0:0,0:0:0:0:
3,338,175915,2,0,P|58:150|149:96,1,245.000002336502,2|0,1:0|0:0,0:0:0:0:
255,239,176215,5,2,1:2:0:0:
179,125,176315,1,2,1:2:0:0:
282,28,176415,2,0,P|297:87|295:148,1,122.500001168251,2|0,1:0|0:0,0:0:0:0:
74,93,176615,2,0,P|142:127|176:167,1,122.500001168251,2|0,1:0|0:0,0:0:0:0:
0,282,176815,2,0,P|53:260|105:264,1,122.500001168251,2|0,1:0|0:0,0:0:0:0:
255,239,177015,2,0,P|210:266|170:339,1,122.500001168251,2|0,1:0|0:0,0:0:0:0:
460,378,177215,6,0,P|496:242|463:77,1,245.000002336502,2|0,1:0|0:0,0:0:0:0:
288,96,177515,2,0,P|280:199|331:358,1,245.000002336502,2|0,1:0|0:0,0:0:0:0:
396,225,177815,2,0,P|389:184|387:227,1,122.500001168251,2|0,1:0|0:0,0:0:0:0:
461,113,178015,6,0,P|315:172|186:150,1,245.000002336502,2|0,1:0|0:0,0:0:0:0:
183,23,178315,1,2,1:2:0:0:
80,262,178415,2,0,P|124:179|216:117,1,122.500001168251,2|0,1:0|0:0,0:0:0:0:
0,23,178615,2,0,P|75:68|186:76,1,122.500001168251,2|0,1:0|0:0,0:0:0:0:
308,30,178815,6,0,P|284:122|311:322,1,245.000002336502,2|0,1:0|0:0,0:0:0:0:
146,363,179115,2,0,P|248:301|417:298,1,245.000002336502,2|0,1:0|0:0,0:0:0:0:
512,215,179415,5,2,1:2:0:0:
436,323,179515,1,2,1:2:0:0:
380,200,179615,2,0,P|469:226|521:276,1,122.500001168251,2|0,1:0|0:0,0:0:0:0:
269,107,179815,2,0,P|348:58|383:-2,1,122.500001168251,2|0,1:0|0:0,0:0:0:0:
157,256,180015,6,0,P|178:346|165:406,1,122.500001168251,2|0,1:0|0:0,0:0:0:0:
33,126,180215,2,0,P|7:37|-35:-9,1,122.500001168251,2|0,1:0|0:0,0:0:0:0:
14,317,180415,6,0,P|115:230|277:216,1,245.000002336502,2|0,1:0|0:0,0:0:0:0:
372,279,180715,1,2,1:2:0:0:
225,116,180815,6,0,P|239:183|302:267,1,122.500001168251,2|0,1:0|0:0,0:0:0:0:
512,138,181015,2,0,P|498:71|435:-13,1,122.500001168251,0|0,1:0|0:0,0:0:0:0:
219,23,181215,5,4,1:0:0:0:
150,65,181315,1,2,0:3:0:0:
108,134,181415,1,2,0:3:0:0:
102,215,181515,1,2,0:3:0:0:
242,281,181615,5,0,1:0:0:0:
207,259,181715,1,2,0:3:0:0:
186,225,181815,1,2,0:3:0:0:
183,184,181915,1,2,0:3:0:0:
292,128,182015,5,0,1:0:0:0:
274,139,182115,1,2,0:3:0:0:
264,156,182215,1,2,0:3:0:0:
262,176,182315,1,2,1:3:0:0:
262,176,182515,5,2,0:3:0:0:
301,52,182615,1,2,1:3:0:0:
278,178,182715,1,2,0:3:0:0:
284,49,182815,5,0,1:0:0:0:
224,4,182915,1,2,0:3:0:0:
148,9,183015,1,2,0:3:0:0:
93,60,183115,1,2,0:3:0:0:
198,220,183215,5,0,1:0:0:0:
247,206,183315,1,2,0:3:0:0:
284,171,183415,1,2,0:3:0:0:
302,123,183515,1,2,0:3:0:0:
84,136,183615,5,0,1:0:0:0:
93,160,183715,1,2,0:3:0:0:
107,181,183815,1,2,0:3:0:0:
126,199,183915,1,2,1:3:0:0:
126,199,184115,5,2,0:3:0:0:
149,344,184215,1,2,1:3:0:0:
145,197,184315,1,2,0:3:0:0:
129,344,184415,5,0,1:0:0:0:
175,277,184515,1,2,0:3:0:0:
244,235,184615,1,2,0:3:0:0:
325,225,184715,1,2,0:3:0:0:
223,153,184815,5,0,1:0:0:0:
196,122,184915,1,2,0:3:0:0:
160,104,185015,1,2,0:3:0:0:
119,102,185115,1,2,0:3:0:0:
265,76,185215,5,0,1:0:0:0:
278,60,185315,1,2,0:3:0:0:
296,51,185415,1,2,0:3:0:0:
316,50,185515,1,2,1:3:0:0:
316,50,185715,5,2,0:3:0:0:
206,19,185815,1,2,1:3:0:0:
310,63,185915,1,2,0:3:0:0:
211,5,186015,6,0,P|172:61|155:152,1,122.500001168251,0|2,1:0|0:3,0:0:0:0:
163,251,186215,2,0,P|191:312|262:372,1,122.500001168251,2|2,1:3|0:3,0:0:0:0:
493,271,186415,6,0,P|449:218|365:178,1,122.500001168251,0|2,1:0|0:3,0:0:0:0:
232,143,186615,2,0,P|164:155|88:207,1,122.500001168251,2|2,1:3|0:3,0:0:0:0:
339,291,186815,5,2,0:3:0:0:
419,234,186915,1,2,0:3:0:0:
435,139,187015,1,2,0:3:0:0:
380,57,187115,1,2,0:3:0:0:
284,38,187215,1,2,0:3:0:0:
202,91,187315,1,2,0:3:0:0:
196,184,187415,1,2,0:3:0:0:
229,270,187515,1,2,0:3:0:0:
380,355,187615,6,0,P|254:307|114:328,1,245.000002336502,2|0,1:0|0:0,0:0:0:0:
21,370,187915,1,2,1:2:0:0:
115,240,188015,2,0,P|54:230|0:205,1,122.500001168251,2|0,1:0|0:0,0:0:0:0:
42,13,188215,2,0,P|49:73|73:129,1,122.500001168251,2|0,1:0|0:0,0:0:0:0:
380,71,188415,6,0,P|239:104|128:213,1,245.000002336502,2|0,1:0|0:0,0:0:0:0:
427,242,188715,2,0,P|404:148|469:-26,1,245.000002336502,2|0,1:0|0:0,0:0:0:0:
495,116,189015,5,2,1:2:0:0:
366,191,189115,1,2,1:2:0:0:
247,139,189215,2,0,P|268:80|331:9,1,122.500001168251,2|0,1:0|0:0,0:0:0:0:
323,265,189415,2,0,P|379:238|474:232,1,122.500001168251,2|0,1:0|0:0,0:0:0:0:
127,218,189615,2,0,P|100:161|94:66,1,122.500001168251,2|0,1:0|0:0,0:0:0:0:
196,367,189815,2,0,P|222:310|228:215,1,122.500001168251,2|0,1:0|0:0,0:0:0:0:
9,40,190015,6,0,P|163:102|327:63,1,245.000002336502,2|0,1:0|0:0,0:0:0:0:
400,51,190315,2,0,P|361:117|339:319,1,245.000002336502,2|0,1:0|0:0,0:0:0:0:
463,349,190615,2,0,P|445:311|455:355,1,122.500001168251,2|0,1:0|0:0,0:0:0:0:
486,146,190815,6,0,P|365:195|214:180,1,245.000002336502,2|0,1:0|0:0,0:0:0:0:
201,51,191115,1,2,1:2:0:0:
52,132,191215,2,0,P|29:176|16:298,1,122.500001168251,2|0,1:0|0:0,0:0:0:0:
219,358,191415,2,0,P|207:298|180:243,1,122.500001168251,2|0,1:0|0:0,0:0:0:0:
44,330,191615,6,0,P|178:279|319:297,1,245.000002336502,2|0,1:0|0:0,0:0:0:0:
386,384,191915,2,0,P|304:208|317:88,1,245.000002336502,2|0,1:0|0:0,0:0:0:0:
494,119,192215,5,2,1:2:0:0:
378,185,192315,1,2,1:2:0:0:
382,49,192415,2,0,P|399:119|390:205,1,122.500001168251,2|0,1:0|0:0,0:0:0:0:
147,93,192615,2,0,P|181:42|228:3,1,122.500001168251,0|0,1:0|0:0,0:0:0:0:
16,225,192815,6,0,P|20:264|93:381,1,122.500001168251,2|0,0:0|0:0,0:0:0:0:
101,267,193015,2,0,P|88:213|98:132,1,105.000004005432,2|0,0:0|0:0,0:0:0:0:
166,199,193215,2,0,P|173:242|204:301,1,87.5,2|0,0:0|0:0,0:0:0:0:
249,223,193415,2,0,P|241:186|252:133,1,70,2|0,0:0|0:0,0:0:0:0:
319,182,193615,2,0,P|323:207|342:247,1,52.5000020027161,2|0,0:0|0:0,0:0:0:0:
399,187,193815,2,0,P|394:171|398:138,1,35,2|0,0:0|0:0,0:0:0:0:
471,161,194015,6,0,L|477:191,1,17.5,4|0,1:0|0:0,0:0:0:0:
473,146,194215,1,8,0:1:0:0:
475,131,194415,1,8,0:1:0:0:
477,116,194615,1,8,0:1:0:0:
479,101,194815,6,0,L|334:87,1,105.000004005432,8|0,0:0|0:0,0:0:0:0:
206,74,195015,1,8,0:1:0:0:
193,87,195215,5,12,1:0:0:0:
326,34,195315,1,8,0:1:0:0:
175,13,195415,1,8,0:1:0:0:
175,13,195615,6,0,L|183:140,1,105.000004005432,4|0,1:0|0:0,0:0:0:0:
190,302,195815,1,8,0:1:0:0:
203,286,196015,5,8,0:1:0:0:
256,147,196115,1,8,0:1:0:0:
277,317,196215,1,8,0:1:0:0:
277,317,196415,6,0,L|137:312,1,105.000004005432,8|0,0:0|0:0,0:0:0:0:
46,313,196615,1,8,0:1:0:0:
188,232,196715,1,8,0:1:0:0:
12,202,196815,1,8,0:1:0:0:
23,186,197015,1,8,0:1:0:0:
230,104,197215,6,0,L|236:74,1,17.5,4|0,1:0|0:0,0:0:0:0:
232,119,197415,1,8,0:1:0:0:
234,134,197615,1,8,0:1:0:0:
236,149,197815,1,8,0:1:0:0:
238,164,198015,6,0,L|359:149,1,105.000004005432,8|0,0:0|0:0,0:0:0:0:
506,127,198215,1,8,0:1:0:0:
492,117,198415,5,12,1:0:0:0:
412,5,198515,1,8,0:1:0:0:
412,178,198615,1,8,0:1:0:0:
412,178,198815,6,0,L|426:332,1,105.000004005432,4|0,1:0|0:0,0:0:0:0:
461,384,199015,1,8,0:1:0:0:
477,373,199215,5,8,0:1:0:0:
498,220,199315,1,8,0:1:0:0:
358,333,199415,1,8,1:0:0:0:
358,333,199615,2,0,L|219:318,1,105.000004005432,8|0,0:0|0:0,0:0:0:0:
175,257,199815,6,0,B|211:360|211:360|151:286,1,175,2|0,1:2|0:0,0:0:0:0:
106,189,200015,2,0,B|177:106|177:106|143:195,1,175,2|0,0:0|0:0,0:0:0:0:
82,283,200215,2,0,B|-25:262|-25:262|68:247,1,175,2|0,0:0|0:0,0:0:0:0:
303,68,200415,6,0,B|325:151|244:178|244:178|267:107,1,210.000008010865,0|0,1:0|0:0,0:0:0:0:
212,28,200715,2,0,P|156:25|113:55,1,105.000004005432,0|0,1:0|0:0,0:0:0:0:
16,181,200915,1,0,0:0:0:0:
40,159,201015,2,0,P|41:73|-9:-5,1,105.000004005432,0|0,1:0|0:0,0:0:0:0:
179,104,201215,6,0,B|126:125|110:176|128:228|128:228|163:267|233:269,1,210.000008010865,0|0,1:0|0:0,0:0:0:0:
367,269,201515,2,0,P|345:317|337:369,1,105.000004005432,0|0,1:0|0:0,0:0:0:0:
321,192,201715,1,0,0:0:0:0:
304,169,201815,2,0,P|253:163|205:183,1,105.000004005432,0|0,1:0|0:0,0:0:0:0:
97,362,202015,6,0,B|144:332|207:330|254:357|254:357|242:327|212:308,1,210.000008010865,0|0,1:0|0:0,0:0:0:0:
304,169,202315,2,0,P|291:251|360:343,1,105.000004005432,0|0,1:0|0:0,0:0:0:0:
502,165,202515,1,0,0:0:0:0:
475,148,202615,2,0,P|429:173|398:215,1,105.000004005432,0|0,1:0|0:0,0:0:0:0:
203,34,202815,6,0,P|305:33|375:109,1,210.000008010865,0|0,1:0|0:0,0:0:0:0:
230,124,203115,2,0,P|206:175|208:287,1,105.000004005432,0|0,1:0|0:0,0:0:0:0:
461,300,203315,1,0,0:0:0:0:
481,277,203415,2,0,P|429:285|382:308,1,105.000004005432,0|0,1:0|0:0,0:0:0:0:
255,345,203615,5,0,1:0:0:0:
311,24,203815,2,0,P|341:85|344:182,1,105.000004005432,2|0,0:0|1:0,0:0:0:0:
230,124,204015,2,0,P|221:175|198:222,1,105.000004005432,2|0,0:0|0:0,0:0:0:0:
102,187,204215,2,0,P|59:217|9:234,1,105.000004005432,2|0,1:2|0:0,0:0:0:0:
255,345,204415,5,0,1:0:0:0:
321,100,204615,2,0,P|326:147|312:207,1,70,2|0,0:0|1:0,0:0:0:0:
246,209,204815,2,0,P|216:245|163:278,1,70,2|0,0:0|0:0,0:0:0:0:
115,229,205015,2,0,P|68:234|8:220,1,70,2|0,1:2|0:0,0:0:0:0:
50,56,205215,5,2,1:2:0:0:
130,27,205315,2,0,L|239:39,1,105.000004005432,2|0,1:2|0:0,0:0:0:0:
433,142,205515,5,2,1:2:0:0:
364,117,205615,2,0,L|270:127,1,87.5,2|0,1:2|0:0,0:0:0:0:
92,212,205815,5,2,1:2:0:0:
143,193,205915,2,0,L|213:200,1,70,2|0,1:2|0:0,0:0:0:0:
326,289,206115,5,2,1:2:0:0:
285,274,206215,2,0,L|232:279,1,35,2|0,1:2|0:0,0:0:0:0:
105,290,206415,6,0,P|158:334|264:349,1,105.000004005432,0|0,1:0|3:0,0:0:0:0:
345,196,206615,2,0,P|389:143|404:37,1,105.000004005432,0|0,1:0|3:0,0:0:0:0:
165,52,206815,5,2,3:2:0:0:
98,102,207015,1,0,0:2:0:0:
173,134,207215,1,0,0:2:0:0:
173,134,207615,5,8,0:2:0:0:
89,143,207815,1,0,0:2:0:0:
73,225,208015,1,2,3:2:0:0:
147,266,208215,1,2,0:2:0:0:
208,209,208415,1,2,3:2:0:0:
223,59,208615,1,0,0:2:0:0:
369,31,208815,1,0,0:2:0:0:
442,162,209015,1,0,0:2:0:0:
341,271,209215,1,10,0:2:0:0:
351,193,209515,1,2,0:2:0:0:
413,244,209815,1,2,0:2:0:0:
341,271,210015,5,2,3:2:0:0:
442,162,210215,1,0,0:2:0:0:
369,31,210415,1,0,0:2:0:0:
223,59,210615,1,0,0:2:0:0:
208,209,210815,1,8,0:2:0:0:
147,266,211015,1,0,0:2:0:0:
73,225,211215,1,2,3:2:0:0:
89,143,211415,1,2,0:2:0:0:
173,134,211615,1,2,3:2:0:0:
197,212,211815,1,0,0:2:0:0:
140,256,212015,1,0,0:2:0:0:
79,216,212215,1,0,3:2:0:0:
99,146,212415,1,10,0:2:0:0:
99,146,212715,1,2,0:2:0:0:
99,146,213015,1,2,0:2:0:0:
99,146,213215,5,2,3:2:0:0:
262,241,213415,1,0,0:2:0:0:
98,334,213615,1,0,0:2:0:0:
98,334,214015,5,8,0:2:0:0:
178,245,214215,1,0,0:2:0:0:
291,207,214415,1,2,3:2:0:0:
408,231,214615,1,2,0:2:0:0:
497,310,214815,1,2,3:2:0:0:
345,350,215015,1,0,0:2:0:0:
193,308,215215,1,0,0:2:0:0:
82,196,215415,1,0,0:2:0:0:
42,43,215615,1,10,0:2:0:0:
115,11,215915,1,2,0:2:0:0:
110,88,216215,1,2,0:2:0:0:
42,43,216415,5,2,3:2:0:0:
82,196,216615,1,0,0:2:0:0:
193,308,216815,1,0,0:2:0:0:
345,350,217015,1,0,0:2:0:0:
497,310,217215,1,8,0:2:0:0:
408,231,217415,1,0,0:2:0:0:
291,207,217615,1,2,3:2:0:0:
178,245,217815,1,2,0:2:0:0:
98,334,218015,1,2,3:2:0:0:
175,300,218215,1,0,0:2:0:0:
224,232,218415,1,0,0:2:0:0:
233,148,218615,1,0,3:2:0:0:
198,71,218815,1,10,0:2:0:0:
198,71,219115,1,2,0:2:0:0:
198,71,219415,1,2,0:2:0:0:
321,163,219615,5,2,3:2:0:0:
321,163,219815,1,0,0:2:0:0:
321,163,220015,1,0,0:2:0:0:
101,54,220415,5,8,0:2:0:0:
101,54,220615,1,0,0:2:0:0:
101,54,220815,1,2,3:2:0:0:
101,54,221015,1,2,0:2:0:0:
119,132,221215,1,2,3:2:0:0:
119,132,221415,1,0,0:2:0:0:
119,132,221615,1,0,0:2:0:0:
119,132,221815,1,0,0:2:0:0:
80,201,222015,1,10,0:2:0:0:
132,261,222315,1,2,0:2:0:0:
76,311,222615,1,2,0:2:0:0:
76,311,222815,5,2,3:2:0:0:
76,311,223015,1,0,0:2:0:0:
76,311,223215,1,0,0:2:0:0:
76,311,223415,1,0,0:2:0:0:
132,261,223615,1,8,0:2:0:0:
132,261,223815,1,0,0:2:0:0:
132,261,224015,1,2,3:2:0:0:
132,261,224215,1,2,0:2:0:0:
80,201,224415,1,2,3:2:0:0:
80,201,224615,1,0,0:2:0:0:
80,201,224815,1,0,0:2:0:0:
80,201,225015,1,0,3:2:0:0:
119,132,225215,1,10,0:2:0:0:
101,54,225515,1,2,0:2:0:0:
165,13,225815,1,2,0:2:0:0:
371,232,226015,5,2,3:2:0:0:
371,232,226215,1,0,0:2:0:0:
371,232,226415,1,0,0:2:0:0:
371,232,226815,1,8,0:2:0:0:
371,232,227015,1,0,0:2:0:0:
371,232,227215,1,2,3:2:0:0:
371,232,227415,1,2,0:2:0:0:
371,232,227615,1,2,3:2:0:0:
371,232,227815,1,0,0:2:0:0:
371,232,228015,1,0,0:2:0:0:
371,232,228215,1,0,0:2:0:0:
371,232,228415,1,10,0:2:0:0:
371,232,228715,1,2,0:2:0:0:
371,232,229015,1,2,0:2:0:0:
371,232,229215,1,2,3:2:0:0:
377,229,229415,1,0,0:2:0:0:
378,242,229615,1,0,0:2:0:0:
359,247,229815,1,0,0:2:0:0:
346,223,230015,1,8,0:2:0:0:
371,199,230215,1,0,0:2:0:0:
408,219,230415,1,2,3:2:0:0:
398,269,230615,1,2,0:2:0:0:
321,274,230815,2,0,L|331:132,1,83.9999974365235,0|0,3:2|0:2,0:0:0:0:
326,190,231015,2,0,L|321:274,1,83.9999974365235,0|0,0:2|0:2,0:0:0:0:
321,274,231215,2,0,L|331:132,1,83.9999974365235,0|0,0:2|0:2,0:0:0:0:
326,190,231415,2,0,L|321:274,1,83.9999974365235,0|0,3:2|0:2,0:0:0:0:
321,273,231615,2,0,B|355:348|359:338|308:100,1,175,10|0,0:2|0:2,0:0:0:0:
326,190,231815,2,0,B|292:115|288:125|339:363,1,175,2|0,0:2|0:2,0:0:0:0:
321,274,232015,2,0,B|276:343|274:333|359:98,1,175,2|0,0:2|0:2,0:0:0:0:
326,190,232215,2,0,B|370:120|372:130|288:366,1,175,2|0,0:2|0:2,0:0:0:0:
