osu file format v14

[General]
AudioFilename: audio.mp3
AudioLeadIn: 0
PreviewTime: 166828
Countdown: 0
SampleSet: Soft
StackLeniency: 0.7
Mode: 3
LetterboxInBreaks: 0
SpecialStyle: 0
WidescreenStoryboard: 0

[Editor]
Bookmarks: 38813,142813
DistanceSpacing: 0.8
BeatDivisor: 4
GridSize: 32
TimelineZoom: 1.4

[Metadata]
Title:Burnt Rice (Aiobahn & Jh-Anu Remix)
TitleUnicode:Burnt Rice (Aiobahn & Jh-Anu Remix)
Artist:Shawn Wasabi + YDG feat. YUNG GEMMY
ArtistUnicode:Shawn Wasabi + YDG feat. YUNG GEMMY
Creator:Chrisse
Version:Lemonade
Source:
Tags:fa featured artist electronic complextro edm electro house dubstep trap jersey club future bass experimental english mg mpg mappers mapper's mappers' guild hybrid ln long note sssshawnnnn
BeatmapID:4257475
BeatmapSetID:2040781

[Difficulty]
HPDrainRate:8
CircleSize:4
OverallDifficulty:7.8
ApproachRate:5
SliderMultiplier:1.4
SliderTickRate:1

[Events]
//Background and Video events
0,0,"bg.jpg",0,0
//Break Periods
//Storyboard Layer 0 (Background)
//Storyboard Layer 1 (Fail)
//Storyboard Layer 2 (Pass)
//Storyboard Layer 3 (Foreground)
//Storyboard Layer 4 (Overlay)
//Storyboard Sound Samples

[TimingPoints]
428,400,4,2,1,50,1,0
53228,-100,4,2,1,50,0,1
77628,-100,4,2,1,50,0,0
78828,-100,4,2,1,50,0,1
91628,-100,4,2,1,50,0,0
117228,-100,4,2,1,50,0,1
130028,-100,4,2,1,50,0,0
131628,-100,4,2,1,50,0,1
142828,-100,4,2,1,50,0,0
168428,-100,4,2,1,50,0,1
192828,-100,4,2,1,50,0,0
194028,-100,4,2,1,50,0,1
206828,-100,4,2,1,50,0,0

[HitObjects]
320,192,428,128,0,528:0:0:0:0:
448,192,428,128,0,528:0:0:0:0:
64,192,628,128,0,728:0:0:0:0:
448,192,628,128,0,728:0:0:0:0:
320,192,828,128,0,928:0:0:0:0:
64,192,828,128,0,928:0:0:0:0:
192,192,1028,128,0,1128:0:0:0:0:
320,192,1028,128,0,1128:0:0:0:0:
448,192,1228,128,0,1328:0:0:0:0:
192,192,1228,128,0,1328:0:0:0:0:
64,192,1428,128,0,1528:0:0:0:0:
448,192,1428,128,0,1528:0:0:0:0:
64,192,1628,128,0,2028:0:0:0:0:
192,192,1828,128,0,2028:0:0:0:0:
320,192,2028,1,0,0:0:0:0:
448,192,2028,128,0,2428:0:0:0:0:
320,192,2228,128,0,2428:0:0:0:0:
64,192,2428,128,0,2628:0:0:0:0:
192,192,2428,1,0,0:0:0:0:
448,192,2628,128,0,3028:0:0:0:0:
320,192,2828,128,0,3028:0:0:0:0:
192,192,2828,1,0,0:0:0:0:
64,192,3028,128,0,3228:0:0:0:0:
448,192,3228,128,0,3328:0:0:0:0:
320,192,3228,128,0,3328:0:0:0:0:
320,192,3428,128,0,3528:0:0:0:0:
192,192,3428,128,0,3528:0:0:0:0:
64,192,3628,128,0,4028:0:0:0:0:
192,192,3628,1,0,0:0:0:0:
192,192,3828,128,0,4028:0:0:0:0:
448,192,4028,128,0,4228:0:0:0:0:
320,192,4028,1,0,0:0:0:0:
64,192,4228,128,0,4628:0:0:0:0:
192,192,4428,128,0,4628:0:0:0:0:
320,192,4428,1,0,0:0:0:0:
448,192,4628,128,0,4728:0:0:0:0:
320,192,4628,1,0,0:0:0:0:
192,192,4728,1,0,0:0:0:0:
64,192,4728,1,0,0:0:0:0:
448,192,4828,128,0,5028:0:0:0:0:
192,192,5028,128,0,5128:0:0:0:0:
64,192,5028,128,0,5128:0:0:0:0:
448,192,5228,1,0,0:0:0:0:
320,192,5228,128,0,5628:0:0:0:0:
192,192,5428,128,0,5628:0:0:0:0:
448,192,5628,128,0,6028:0:0:0:0:
64,192,5628,1,0,0:0:0:0:
320,192,5828,128,0,6028:0:0:0:0:
64,192,6028,128,0,6428:0:0:0:0:
192,192,6028,1,0,0:0:0:0:
192,192,6228,128,0,6428:0:0:0:0:
320,192,6428,128,0,6828:0:0:0:0:
448,192,6428,128,0,6528:0:0:0:0:
448,192,6628,128,0,6828:0:0:0:0:
64,192,6828,1,0,0:0:0:0:
192,192,6828,128,0,7228:0:0:0:0:
320,192,7028,128,0,7228:0:0:0:0:
64,192,7228,128,0,7628:0:0:0:0:
448,192,7228,1,0,0:0:0:0:
192,192,7428,128,0,7628:0:0:0:0:
320,192,7628,128,0,8028:0:0:0:0:
448,192,7628,128,0,7728:0:0:0:0:
192,192,7828,128,0,8028:0:0:0:0:
448,192,7928,128,0,8028:0:0:0:0:
64,192,8028,128,0,8428:0:0:0:0:
192,192,8228,128,0,8428:0:0:0:0:
448,192,8228,1,0,0:0:0:0:
320,192,8428,1,0,0:0:0:0:
448,192,8428,128,0,8828:0:0:0:0:
320,192,8628,128,0,8828:0:0:0:0:
64,192,8828,128,0,9028:0:0:0:0:
192,192,8828,1,0,0:0:0:0:
320,192,9028,1,0,0:0:0:0:
448,192,9028,128,0,9428:0:0:0:0:
320,192,9228,128,0,9428:0:0:0:0:
192,192,9228,1,0,0:0:0:0:
192,192,9428,1,0,0:0:0:0:
64,192,9428,128,0,9628:0:0:0:0:
320,192,9628,128,0,9728:0:0:0:0:
448,192,9628,128,0,9728:0:0:0:0:
320,192,9828,128,0,9928:0:0:0:0:
192,192,9828,128,0,9928:0:0:0:0:
64,192,10028,128,0,10428:0:0:0:0:
192,192,10028,1,0,0:0:0:0:
192,192,10228,128,0,10428:0:0:0:0:
448,192,10228,1,0,0:0:0:0:
448,192,10428,128,0,10628:0:0:0:0:
320,192,10428,1,0,0:0:0:0:
192,192,10628,1,0,0:0:0:0:
64,192,10628,128,0,11028:0:0:0:0:
192,192,10828,128,0,11028:0:0:0:0:
320,192,10828,1,0,0:0:0:0:
448,192,11028,128,0,11228:0:0:0:0:
320,192,11028,1,0,0:0:0:0:
192,192,11228,128,0,11328:0:0:0:0:
64,192,11228,128,0,11328:0:0:0:0:
192,192,11428,128,0,11528:0:0:0:0:
320,192,11428,128,0,11528:0:0:0:0:
448,192,11628,128,0,12028:0:0:0:0:
64,192,11628,1,0,0:0:0:0:
320,192,11628,1,0,0:0:0:0:
192,192,11828,128,0,12228:0:0:0:0:
320,192,12028,128,0,12428:0:0:0:0:
448,192,12228,128,0,12428:0:0:0:0:
64,192,12428,128,0,12828:0:0:0:0:
320,192,12628,128,0,13028:0:0:0:0:
192,192,12828,128,0,13228:0:0:0:0:
64,192,13028,128,0,13228:0:0:0:0:
448,192,13228,128,0,13328:0:0:0:0:
448,192,13428,1,0,0:0:0:0:
64,192,13428,128,0,13528:0:0:0:0:
448,192,13628,128,0,13728:0:0:0:0:
448,192,13828,1,0,0:0:0:0:
64,192,13828,128,0,13928:0:0:0:0:
448,192,14028,128,0,14128:0:0:0:0:
320,192,14028,1,0,0:0:0:0:
448,192,14228,1,0,0:0:0:0:
64,192,14228,128,0,14628:0:0:0:0:
192,192,14428,128,0,14628:0:0:0:0:
320,192,14428,1,0,0:0:0:0:
448,192,14628,128,0,14828:0:0:0:0:
320,192,14828,1,0,0:0:0:0:
192,192,14828,128,0,14928:0:0:0:0:
64,192,14828,128,0,14928:0:0:0:0:
448,192,15028,1,0,0:0:0:0:
64,192,15228,128,0,15328:0:0:0:0:
192,192,15228,128,0,15328:0:0:0:0:
320,192,15428,1,0,0:0:0:0:
64,192,15628,128,0,15728:0:0:0:0:
192,192,15628,128,0,15728:0:0:0:0:
448,192,15828,1,0,0:0:0:0:
64,192,16028,128,0,16128:0:0:0:0:
192,192,16028,128,0,16128:0:0:0:0:
192,192,16228,128,0,16328:0:0:0:0:
320,192,16228,128,0,16328:0:0:0:0:
320,192,16428,128,0,16528:0:0:0:0:
448,192,16428,128,0,16528:0:0:0:0:
64,192,16628,1,0,0:0:0:0:
320,192,16828,128,0,16928:0:0:0:0:
448,192,16828,128,0,16928:0:0:0:0:
192,192,17028,1,0,0:0:0:0:
320,192,17228,128,0,17328:0:0:0:0:
448,192,17228,128,0,17328:0:0:0:0:
64,192,17428,1,0,0:0:0:0:
192,192,17528,128,0,17628:0:0:0:0:
448,192,17528,128,0,17628:0:0:0:0:
320,192,17628,1,0,0:0:0:0:
320,192,17828,128,0,17928:0:0:0:0:
64,192,17828,128,0,17928:0:0:0:0:
192,192,18028,128,0,18128:0:0:0:0:
64,192,18028,128,0,18128:0:0:0:0:
448,192,18228,1,0,0:0:0:0:
192,192,18428,128,0,18528:0:0:0:0:
64,192,18428,128,0,18528:0:0:0:0:
320,192,18628,1,0,0:0:0:0:
64,192,18828,128,0,18928:0:0:0:0:
192,192,18828,128,0,18928:0:0:0:0:
448,192,19028,1,0,0:0:0:0:
192,192,19228,128,0,19328:0:0:0:0:
64,192,19228,128,0,19328:0:0:0:0:
192,192,19428,128,0,19528:0:0:0:0:
320,192,19428,128,0,19528:0:0:0:0:
448,192,19628,128,0,19728:0:0:0:0:
320,192,19628,128,0,19728:0:0:0:0:
64,192,19828,1,0,0:0:0:0:
320,192,20028,128,0,20128:0:0:0:0:
448,192,20028,128,0,20128:0:0:0:0:
192,192,20228,1,0,0:0:0:0:
64,192,20428,128,0,20528:0:0:0:0:
448,192,20428,128,0,20528:0:0:0:0:
192,192,20628,1,0,0:0:0:0:
64,192,20728,128,0,20828:0:0:0:0:
448,192,20728,128,0,20828:0:0:0:0:
320,192,20828,1,0,0:0:0:0:
320,192,21028,128,0,21128:0:0:0:0:
192,192,21028,128,0,21128:0:0:0:0:
448,192,21228,1,0,0:0:0:0:
192,192,21228,128,0,21328:0:0:0:0:
64,192,21228,128,0,21328:0:0:0:0:
320,192,21428,1,0,0:0:0:0:
192,192,21628,128,0,21728:0:0:0:0:
64,192,21628,128,0,21728:0:0:0:0:
448,192,21828,1,0,0:0:0:0:
192,192,22028,128,0,22128:0:0:0:0:
64,192,22028,128,0,22128:0:0:0:0:
320,192,22228,1,0,0:0:0:0:
192,192,22428,128,0,22528:0:0:0:0:
64,192,22428,128,0,22528:0:0:0:0:
192,192,22628,128,0,22728:0:0:0:0:
320,192,22628,128,0,22728:0:0:0:0:
320,192,22828,128,0,22928:0:0:0:0:
448,192,22828,128,0,22928:0:0:0:0:
64,192,23028,1,0,0:0:0:0:
320,192,23228,128,0,23328:0:0:0:0:
448,192,23228,128,0,23328:0:0:0:0:
192,192,23428,1,0,0:0:0:0:
320,192,23628,128,0,23728:0:0:0:0:
448,192,23628,128,0,23728:0:0:0:0:
64,192,23828,1,0,0:0:0:0:
192,192,23928,128,0,24028:0:0:0:0:
448,192,23928,128,0,24028:0:0:0:0:
320,192,24028,1,0,0:0:0:0:
320,192,24228,128,0,24328:0:0:0:0:
64,192,24228,128,0,24328:0:0:0:0:
64,192,24428,1,0,0:0:0:0:
192,192,24428,1,0,0:0:0:0:
320,192,24528,1,0,0:0:0:0:
64,192,24628,1,0,0:0:0:0:
448,192,24628,1,0,0:0:0:0:
192,192,24728,1,0,0:0:0:0:
320,192,24828,1,0,0:0:0:0:
448,192,24828,1,0,0:0:0:0:
192,192,24928,1,0,0:0:0:0:
64,192,25028,1,0,0:0:0:0:
448,192,25028,1,0,0:0:0:0:
320,192,25128,1,0,0:0:0:0:
64,192,25228,1,0,0:0:0:0:
192,192,25228,1,0,0:0:0:0:
320,192,25328,1,0,0:0:0:0:
448,192,25428,1,0,0:0:0:0:
64,192,25428,1,0,0:0:0:0:
192,192,25528,1,0,0:0:0:0:
448,192,25628,1,0,0:0:0:0:
320,192,25628,1,0,0:0:0:0:
192,192,25728,1,0,0:0:0:0:
448,192,25828,1,0,0:0:0:0:
64,192,25828,1,0,0:0:0:0:
320,192,25928,1,0,0:0:0:0:
192,192,26028,1,0,0:0:0:0:
64,192,26028,128,0,26128:0:0:0:0:
320,192,26128,1,0,0:0:0:0:
448,192,26128,1,0,0:0:0:0:
192,192,26228,1,0,0:0:0:0:
64,192,26228,128,0,26328:0:0:0:0:
320,192,26328,1,0,0:0:0:0:
448,192,26328,1,0,0:0:0:0:
192,192,26428,1,0,0:0:0:0:
64,192,26428,128,0,26528:0:0:0:0:
320,192,26528,1,0,0:0:0:0:
448,192,26528,1,0,0:0:0:0:
192,192,26628,1,0,0:0:0:0:
64,192,26628,128,0,26728:0:0:0:0:
320,192,26728,1,0,0:0:0:0:
448,192,26728,1,0,0:0:0:0:
192,192,26828,1,0,0:0:0:0:
64,192,26828,128,0,26928:0:0:0:0:
320,192,27028,1,0,0:0:0:0:
448,192,27028,128,0,27128:0:0:0:0:
192,192,27228,1,0,0:0:0:0:
64,192,27228,1,0,0:0:0:0:
320,192,27228,128,0,27328:0:0:0:0:
192,192,27428,128,0,27528:0:0:0:0:
448,192,27628,1,0,0:0:0:0:
64,192,27628,1,0,0:0:0:0:
320,192,27728,1,0,0:0:0:0:
192,192,27828,1,0,0:0:0:0:
448,192,27928,1,0,0:0:0:0:
192,192,28028,1,0,0:0:0:0:
320,192,28128,1,0,0:0:0:0:
64,192,28228,1,0,0:0:0:0:
448,192,28328,1,0,0:0:0:0:
192,192,28428,1,0,0:0:0:0:
320,192,28528,1,0,0:0:0:0:
64,192,28628,1,0,0:0:0:0:
448,192,28728,1,0,0:0:0:0:
192,192,28828,1,0,0:0:0:0:
320,192,28928,1,0,0:0:0:0:
64,192,29028,1,0,0:0:0:0:
448,192,29128,1,0,0:0:0:0:
192,192,29228,1,0,0:0:0:0:
320,192,29328,1,0,0:0:0:0:
64,192,29428,1,0,0:0:0:0:
448,192,29528,1,0,0:0:0:0:
192,192,29628,1,0,0:0:0:0:
320,192,29728,1,0,0:0:0:0:
64,192,29828,1,0,0:0:0:0:
448,192,29928,1,0,0:0:0:0:
192,192,30028,128,0,30328:0:0:0:0:
320,192,30128,1,0,0:0:0:0:
64,192,30228,128,0,30328:0:0:0:0:
448,192,30328,1,0,0:0:0:0:
320,192,30428,128,0,30628:0:0:0:0:
448,192,30528,128,0,30628:0:0:0:0:
64,192,30628,128,0,30828:0:0:0:0:
192,192,30728,128,0,30828:0:0:0:0:
448,192,30828,1,0,0:0:0:0:
320,192,30828,1,0,0:0:0:0:
192,192,30928,1,0,0:0:0:0:
448,192,31028,1,0,0:0:0:0:
64,192,31128,1,0,0:0:0:0:
320,192,31228,1,0,0:0:0:0:
192,192,31328,1,0,0:0:0:0:
448,192,31428,1,0,0:0:0:0:
64,192,31528,1,0,0:0:0:0:
320,192,31628,1,0,0:0:0:0:
192,192,31728,1,0,0:0:0:0:
448,192,31828,1,0,0:0:0:0:
64,192,31928,1,0,0:0:0:0:
320,192,32028,1,0,0:0:0:0:
192,192,32128,1,0,0:0:0:0:
448,192,32228,1,0,0:0:0:0:
64,192,32328,1,0,0:0:0:0:
320,192,32428,1,0,0:0:0:0:
192,192,32528,1,0,0:0:0:0:
448,192,32628,1,0,0:0:0:0:
64,192,32628,1,0,0:0:0:0:
320,192,32728,1,0,0:0:0:0:
192,192,32828,1,0,0:0:0:0:
448,192,32928,1,0,0:0:0:0:
64,192,33028,1,0,0:0:0:0:
192,192,33028,1,0,0:0:0:0:
320,192,33128,1,0,0:0:0:0:
448,192,33228,1,0,0:0:0:0:
192,192,33228,1,0,0:0:0:0:
64,192,33228,128,0,33428:0:0:0:0:
320,192,33428,128,0,33628:0:0:0:0:
192,192,33528,128,0,33628:0:0:0:0:
448,192,33628,128,0,33928:0:0:0:0:
64,192,33628,1,0,0:0:0:0:
320,192,33828,128,0,33928:0:0:0:0:
448,192,34028,1,0,0:0:0:0:
320,192,34028,1,0,0:0:0:0:
64,192,34028,1,0,0:0:0:0:
192,192,34228,1,0,0:0:0:0:
448,192,34428,1,0,0:0:0:0:
64,192,34428,1,0,0:0:0:0:
320,192,34628,1,0,0:0:0:0:
64,192,34828,1,0,0:0:0:0:
192,192,34828,1,0,0:0:0:0:
448,192,34928,1,0,0:0:0:0:
320,192,34928,1,0,0:0:0:0:
64,192,35028,1,0,0:0:0:0:
192,192,35028,1,0,0:0:0:0:
320,192,35128,1,0,0:0:0:0:
448,192,35128,1,0,0:0:0:0:
192,192,35228,1,0,0:0:0:0:
64,192,35228,1,0,0:0:0:0:
448,192,35428,1,0,0:0:0:0:
320,192,35428,1,0,0:0:0:0:
192,192,35628,1,0,0:0:0:0:
64,192,35628,1,0,0:0:0:0:
320,192,35828,1,0,0:0:0:0:
64,192,36028,1,0,0:0:0:0:
448,192,36028,1,0,0:0:0:0:
192,192,36228,1,0,0:0:0:0:
320,192,36428,1,0,0:0:0:0:
448,192,36428,128,0,36528:0:0:0:0:
320,192,36628,1,0,0:0:0:0:
448,192,36628,1,0,0:0:0:0:
64,192,36678,1,0,0:0:0:0:
192,192,36728,1,0,0:0:0:0:
320,192,36778,1,0,0:0:0:0:
448,192,36828,1,0,0:0:0:0:
64,192,36828,128,0,37228:0:0:0:0:
192,192,37028,128,0,37228:0:0:0:0:
320,192,37228,1,0,0:0:0:0:
448,192,37228,1,0,0:0:0:0:
192,192,37428,1,0,0:0:0:0:
448,192,37628,1,0,0:0:0:0:
64,192,37628,1,0,0:0:0:0:
320,192,37828,1,0,0:0:0:0:
192,192,37828,1,0,0:0:0:0:
448,192,38028,1,0,0:0:0:0:
64,192,38028,1,0,0:0:0:0:
320,192,38128,1,0,0:0:0:0:
192,192,38128,1,0,0:0:0:0:
64,192,38228,1,0,0:0:0:0:
448,192,38228,1,0,0:0:0:0:
320,192,38328,1,0,0:0:0:0:
192,192,38328,1,0,0:0:0:0:
64,192,38428,1,0,0:0:0:0:
448,192,38428,1,0,0:0:0:0:
320,192,38628,1,0,0:0:0:0:
192,192,38628,1,0,0:0:0:0:
64,192,38828,1,0,0:0:0:0:
448,192,38828,1,0,0:0:0:0:
64,192,39028,1,0,0:0:0:0:
192,192,39028,1,0,0:0:0:0:
320,192,39028,128,0,39128:0:0:0:0:
320,192,39228,128,0,39328:0:0:0:0:
448,192,39228,1,0,0:0:0:0:
320,192,39428,128,0,39528:0:0:0:0:
448,192,39428,1,0,0:0:0:0:
64,192,39628,1,0,0:0:0:0:
320,192,39628,128,0,39728:0:0:0:0:
192,192,39628,1,0,0:0:0:0:
448,192,39828,1,0,0:0:0:0:
320,192,39828,1,0,0:0:0:0:
64,192,39878,1,0,0:0:0:0:
192,192,39928,1,0,0:0:0:0:
320,192,39978,1,0,0:0:0:0:
64,192,40028,128,0,40428:0:0:0:0:
448,192,40028,1,0,0:0:0:0:
192,192,40228,128,0,40428:0:0:0:0:
448,192,40428,128,0,40528:0:0:0:0:
320,192,40428,128,0,40528:0:0:0:0:
320,192,40828,128,0,40928:0:0:0:0:
448,192,40828,128,0,40928:0:0:0:0:
320,192,41228,128,0,41328:0:0:0:0:
192,192,41228,128,0,41328:0:0:0:0:
64,192,41628,128,0,41728:0:0:0:0:
192,192,41628,128,0,41728:0:0:0:0:
448,192,41828,128,0,41928:0:0:0:0:
192,192,42028,128,0,42128:0:0:0:0:
64,192,42028,128,0,42128:0:0:0:0:
192,192,42428,128,0,42528:0:0:0:0:
320,192,42428,128,0,42528:0:0:0:0:
320,192,42828,128,0,42928:0:0:0:0:
448,192,42828,128,0,42928:0:0:0:0:
64,192,43028,128,0,43128:0:0:0:0:
448,192,43128,128,0,43228:0:0:0:0:
192,192,43228,128,0,43328:0:0:0:0:
64,192,43228,128,0,43328:0:0:0:0:
320,192,43428,128,0,43528:0:0:0:0:
192,192,43628,1,0,0:0:0:0:
448,192,43628,128,0,43728:0:0:0:0:
64,192,43628,128,0,43728:0:0:0:0:
192,192,44028,128,0,44128:0:0:0:0:
320,192,44028,128,0,44128:0:0:0:0:
320,192,44428,128,0,44528:0:0:0:0:
448,192,44428,128,0,44528:0:0:0:0:
192,192,44828,128,0,44928:0:0:0:0:
64,192,44828,128,0,44928:0:0:0:0:
448,192,45028,128,0,45128:0:0:0:0:
192,192,45228,128,0,45328:0:0:0:0:
64,192,45228,128,0,45328:0:0:0:0:
320,192,45428,1,0,0:0:0:0:
448,192,45428,1,0,0:0:0:0:
192,192,45428,1,0,0:0:0:0:
320,192,45628,128,0,45728:0:0:0:0:
448,192,45628,128,0,45728:0:0:0:0:
192,192,45828,1,0,0:0:0:0:
64,192,45828,1,0,0:0:0:0:
320,192,46028,128,0,46128:0:0:0:0:
64,192,46028,1,0,0:0:0:0:
448,192,46028,128,0,46128:0:0:0:0:
192,192,46228,128,0,46328:0:0:0:0:
320,192,46428,1,0,0:0:0:0:
192,192,46428,128,0,46528:0:0:0:0:
192,192,46628,128,0,46728:0:0:0:0:
64,192,46828,1,0,0:0:0:0:
192,192,46828,1,0,0:0:0:0:
448,192,46828,1,0,0:0:0:0:
320,192,47028,1,0,0:0:0:0:
448,192,47028,1,0,0:0:0:0:
320,192,47228,1,0,0:0:0:0:
448,192,47228,1,0,0:0:0:0:
192,192,47428,1,0,0:0:0:0:
64,192,47428,1,0,0:0:0:0:
64,192,47628,1,0,0:0:0:0:
192,192,47628,1,0,0:0:0:0:
320,192,47828,1,0,0:0:0:0:
448,192,47828,1,0,0:0:0:0:
448,192,48028,1,0,0:0:0:0:
320,192,48028,1,0,0:0:0:0:
64,192,48228,1,0,0:0:0:0:
192,192,48228,1,0,0:0:0:0:
320,192,48328,1,0,0:0:0:0:
64,192,48428,1,0,0:0:0:0:
192,192,48428,1,0,0:0:0:0:
448,192,48628,1,0,0:0:0:0:
320,192,48628,1,0,0:0:0:0:
320,192,48828,1,0,0:0:0:0:
448,192,48828,1,0,0:0:0:0:
192,192,49028,1,0,0:0:0:0:
64,192,49028,1,0,0:0:0:0:
192,192,49228,1,0,0:0:0:0:
64,192,49228,1,0,0:0:0:0:
320,192,49428,1,0,0:0:0:0:
448,192,49428,1,0,0:0:0:0:
192,192,49528,1,0,0:0:0:0:
448,192,49628,1,0,0:0:0:0:
320,192,49628,1,0,0:0:0:0:
64,192,49828,1,0,0:0:0:0:
192,192,49828,1,0,0:0:0:0:
320,192,49928,1,0,0:0:0:0:
448,192,49928,1,0,0:0:0:0:
192,192,50028,1,0,0:0:0:0:
64,192,50028,1,0,0:0:0:0:
320,192,50128,1,0,0:0:0:0:
448,192,50128,1,0,0:0:0:0:
192,192,50228,1,0,0:0:0:0:
64,192,50228,1,0,0:0:0:0:
448,192,50328,1,0,0:0:0:0:
192,192,50428,1,0,0:0:0:0:
320,192,50428,1,0,0:0:0:0:
64,192,50528,1,0,0:0:0:0:
448,192,50628,1,0,0:0:0:0:
320,192,50628,1,0,0:0:0:0:
192,192,50728,1,0,0:0:0:0:
64,192,50828,1,0,0:0:0:0:
448,192,50828,1,0,0:0:0:0:
320,192,50928,1,0,0:0:0:0:
64,192,51028,1,0,0:0:0:0:
192,192,51028,1,0,0:0:0:0:
448,192,51128,1,0,0:0:0:0:
192,192,51228,1,0,0:0:0:0:
320,192,51228,1,0,0:0:0:0:
64,192,51328,1,0,0:0:0:0:
320,192,51428,1,0,0:0:0:0:
448,192,51428,1,0,0:0:0:0:
192,192,51528,1,0,0:0:0:0:
64,192,51528,1,0,0:0:0:0:
320,192,51628,1,0,0:0:0:0:
448,192,51628,128,0,51728:0:0:0:0:
448,192,51828,128,0,51928:0:0:0:0:
192,192,51828,1,0,0:0:0:0:
448,192,52028,128,0,52128:0:0:0:0:
448,192,52228,128,0,52328:0:0:0:0:
192,192,52228,1,0,0:0:0:0:
320,192,52328,1,0,0:0:0:0:
192,192,52428,1,0,0:0:0:0:
448,192,52428,128,0,52828:0:0:0:0:
64,192,52628,1,0,0:0:0:0:
320,192,52628,128,0,52728:0:0:0:0:
192,192,52828,128,0,52928:0:0:0:0:
64,192,52828,1,0,0:0:0:0:
320,192,52828,1,0,0:0:0:0:
320,192,53028,128,0,53128:0:0:0:0:
448,192,53028,1,0,0:0:0:0:
64,192,53228,1,0,0:0:0:0:
192,192,53228,1,0,0:0:0:0:
320,192,53328,1,0,0:0:0:0:
448,192,53428,1,0,0:0:0:0:
64,192,53428,1,0,0:0:0:0:
320,192,53528,1,0,0:0:0:0:
448,192,53628,1,0,0:0:0:0:
64,192,53628,1,0,0:0:0:0:
192,192,53728,1,0,0:0:0:0:
320,192,53828,1,0,0:0:0:0:
448,192,53828,1,0,0:0:0:0:
192,192,53928,1,0,0:0:0:0:
448,192,54028,1,0,0:0:0:0:
320,192,54028,1,0,0:0:0:0:
64,192,54128,1,0,0:0:0:0:
320,192,54228,1,0,0:0:0:0:
192,192,54228,1,0,0:0:0:0:
448,192,54328,1,0,0:0:0:0:
64,192,54328,1,0,0:0:0:0:
320,192,54528,1,0,0:0:0:0:
192,192,54628,1,0,0:0:0:0:
448,192,54628,1,0,0:0:0:0:
64,192,54728,1,0,0:0:0:0:
448,192,54828,1,0,0:0:0:0:
320,192,54828,1,0,0:0:0:0:
192,192,54928,1,0,0:0:0:0:
448,192,55028,1,0,0:0:0:0:
64,192,55028,1,0,0:0:0:0:
192,192,55128,1,0,0:0:0:0:
448,192,55228,1,0,0:0:0:0:
64,192,55228,1,0,0:0:0:0:
320,192,55328,1,0,0:0:0:0:
192,192,55428,1,0,0:0:0:0:
64,192,55428,1,0,0:0:0:0:
320,192,55528,1,0,0:0:0:0:
192,192,55628,1,0,0:0:0:0:
64,192,55628,1,0,0:0:0:0:
448,192,55728,1,0,0:0:0:0:
320,192,55828,1,0,0:0:0:0:
192,192,55828,1,0,0:0:0:0:
64,192,55928,1,0,0:0:0:0:
448,192,55928,1,0,0:0:0:0:
192,192,56128,1,0,0:0:0:0:
320,192,56228,1,0,0:0:0:0:
64,192,56228,1,0,0:0:0:0:
448,192,56328,1,0,0:0:0:0:
64,192,56428,1,0,0:0:0:0:
192,192,56428,1,0,0:0:0:0:
320,192,56528,1,0,0:0:0:0:
448,192,56628,1,0,0:0:0:0:
64,192,56628,1,0,0:0:0:0:
320,192,56728,1,0,0:0:0:0:
448,192,56828,1,0,0:0:0:0:
64,192,56828,1,0,0:0:0:0:
192,192,56928,1,0,0:0:0:0:
320,192,57028,1,0,0:0:0:0:
448,192,57028,1,0,0:0:0:0:
192,192,57128,1,0,0:0:0:0:
448,192,57228,1,0,0:0:0:0:
320,192,57228,1,0,0:0:0:0:
64,192,57328,1,0,0:0:0:0:
320,192,57428,1,0,0:0:0:0:
192,192,57428,1,0,0:0:0:0:
448,192,57528,1,0,0:0:0:0:
64,192,57528,1,0,0:0:0:0:
320,192,57728,1,0,0:0:0:0:
192,192,57828,1,0,0:0:0:0:
448,192,57828,1,0,0:0:0:0:
64,192,57928,1,0,0:0:0:0:
448,192,58028,1,0,0:0:0:0:
320,192,58028,1,0,0:0:0:0:
192,192,58128,1,0,0:0:0:0:
448,192,58228,1,0,0:0:0:0:
64,192,58228,1,0,0:0:0:0:
192,192,58328,1,0,0:0:0:0:
448,192,58428,1,0,0:0:0:0:
64,192,58428,1,0,0:0:0:0:
320,192,58528,1,0,0:0:0:0:
192,192,58628,1,0,0:0:0:0:
64,192,58628,1,0,0:0:0:0:
320,192,58728,1,0,0:0:0:0:
192,192,58828,1,0,0:0:0:0:
64,192,58828,128,0,59028:0:0:0:0:
448,192,58928,1,0,0:0:0:0:
320,192,59028,1,0,0:0:0:0:
64,192,59128,1,0,0:0:0:0:
192,192,59128,1,0,0:0:0:0:
320,192,59228,1,0,0:0:0:0:
448,192,59228,128,0,59428:0:0:0:0:
64,192,59328,1,0,0:0:0:0:
320,192,59428,1,0,0:0:0:0:
192,192,59428,1,0,0:0:0:0:
448,192,59528,1,0,0:0:0:0:
64,192,59628,128,0,59828:0:0:0:0:
192,192,59628,128,0,59828:0:0:0:0:
320,192,59828,1,0,0:0:0:0:
192,192,59928,128,0,60128:0:0:0:0:
64,192,59928,128,0,60128:0:0:0:0:
448,192,60028,1,0,0:0:0:0:
192,192,60228,128,0,60328:0:0:0:0:
64,192,60228,128,0,60328:0:0:0:0:
192,192,60428,128,0,60628:0:0:0:0:
64,192,60428,128,0,60628:0:0:0:0:
320,192,60628,1,0,0:0:0:0:
64,192,60728,128,0,60928:0:0:0:0:
192,192,60728,128,0,60928:0:0:0:0:
448,192,60828,1,0,0:0:0:0:
192,192,61028,128,0,61228:0:0:0:0:
320,192,61028,128,0,61128:0:0:0:0:
64,192,61128,128,0,61228:0:0:0:0:
320,192,61228,128,0,61428:0:0:0:0:
448,192,61228,128,0,61428:0:0:0:0:
192,192,61428,1,0,0:0:0:0:
320,192,61528,128,0,61728:0:0:0:0:
448,192,61528,128,0,61728:0:0:0:0:
64,192,61628,1,0,0:0:0:0:
320,192,61828,128,0,61928:0:0:0:0:
448,192,61828,128,0,61928:0:0:0:0:
448,192,62028,128,0,62228:0:0:0:0:
320,192,62028,128,0,62228:0:0:0:0:
192,192,62228,1,0,0:0:0:0:
320,192,62328,128,0,62528:0:0:0:0:
448,192,62328,128,0,62528:0:0:0:0:
64,192,62428,1,0,0:0:0:0:
192,192,62628,128,0,62728:0:0:0:0:
320,192,62628,128,0,62728:0:0:0:0:
64,192,62828,128,0,63028:0:0:0:0:
192,192,62828,128,0,63028:0:0:0:0:
320,192,63028,1,0,0:0:0:0:
192,192,63128,128,0,63328:0:0:0:0:
64,192,63128,128,0,63328:0:0:0:0:
448,192,63228,1,0,0:0:0:0:
192,192,63428,128,0,63528:0:0:0:0:
64,192,63428,128,0,63528:0:0:0:0:
64,192,63628,128,0,63828:0:0:0:0:
192,192,63628,128,0,63828:0:0:0:0:
320,192,63828,1,0,0:0:0:0:
192,192,63928,128,0,64128:0:0:0:0:
64,192,63928,128,0,64128:0:0:0:0:
448,192,64028,1,0,0:0:0:0:
320,192,64228,128,0,64328:0:0:0:0:
192,192,64228,128,0,64428:0:0:0:0:
64,192,64328,128,0,64428:0:0:0:0:
320,192,64428,128,0,64628:0:0:0:0:
448,192,64428,128,0,64628:0:0:0:0:
192,192,64628,1,0,0:0:0:0:
320,192,64728,128,0,64928:0:0:0:0:
448,192,64728,128,0,64928:0:0:0:0:
64,192,64828,1,0,0:0:0:0:
320,192,65028,128,0,65128:0:0:0:0:
448,192,65028,128,0,65128:0:0:0:0:
448,192,65228,128,0,65428:0:0:0:0:
320,192,65228,128,0,65428:0:0:0:0:
192,192,65328,1,0,0:0:0:0:
64,192,65428,1,0,0:0:0:0:
320,192,65528,128,0,65728:0:0:0:0:
448,192,65528,128,0,65728:0:0:0:0:
64,192,65628,1,0,0:0:0:0:
192,192,65628,128,0,65728:0:0:0:0:
192,192,65828,128,0,66028:0:0:0:0:
64,192,65828,128,0,66028:0:0:0:0:
320,192,66028,1,0,0:0:0:0:
448,192,66028,1,0,0:0:0:0:
192,192,66128,1,0,0:0:0:0:
448,192,66228,1,0,0:0:0:0:
64,192,66228,1,0,0:0:0:0:
192,192,66328,1,0,0:0:0:0:
448,192,66428,1,0,0:0:0:0:
64,192,66428,1,0,0:0:0:0:
320,192,66528,1,0,0:0:0:0:
64,192,66628,1,0,0:0:0:0:
192,192,66628,1,0,0:0:0:0:
320,192,66728,1,0,0:0:0:0:
192,192,66828,1,0,0:0:0:0:
64,192,66828,1,0,0:0:0:0:
448,192,66928,1,0,0:0:0:0:
320,192,67028,1,0,0:0:0:0:
192,192,67028,1,0,0:0:0:0:
448,192,67128,1,0,0:0:0:0:
64,192,67128,1,0,0:0:0:0:
192,192,67328,1,0,0:0:0:0:
64,192,67428,1,0,0:0:0:0:
320,192,67428,1,0,0:0:0:0:
448,192,67528,1,0,0:0:0:0:
192,192,67628,1,0,0:0:0:0:
64,192,67628,1,0,0:0:0:0:
320,192,67728,1,0,0:0:0:0:
448,192,67828,1,0,0:0:0:0:
64,192,67828,1,0,0:0:0:0:
320,192,67928,1,0,0:0:0:0:
448,192,68028,1,0,0:0:0:0:
64,192,68028,1,0,0:0:0:0:
192,192,68128,1,0,0:0:0:0:
448,192,68228,1,0,0:0:0:0:
320,192,68228,1,0,0:0:0:0:
192,192,68328,1,0,0:0:0:0:
448,192,68428,1,0,0:0:0:0:
320,192,68428,1,0,0:0:0:0:
64,192,68528,1,0,0:0:0:0:
320,192,68628,1,0,0:0:0:0:
192,192,68628,1,0,0:0:0:0:
64,192,68728,1,0,0:0:0:0:
448,192,68728,1,0,0:0:0:0:
320,192,68928,1,0,0:0:0:0:
448,192,69028,1,0,0:0:0:0:
192,192,69028,1,0,0:0:0:0:
64,192,69128,1,0,0:0:0:0:
320,192,69228,1,0,0:0:0:0:
448,192,69228,1,0,0:0:0:0:
192,192,69328,1,0,0:0:0:0:
448,192,69428,1,0,0:0:0:0:
64,192,69428,1,0,0:0:0:0:
192,192,69528,1,0,0:0:0:0:
448,192,69628,1,0,0:0:0:0:
64,192,69628,1,0,0:0:0:0:
320,192,69728,1,0,0:0:0:0:
64,192,69828,1,0,0:0:0:0:
192,192,69828,1,0,0:0:0:0:
320,192,69928,1,0,0:0:0:0:
192,192,70028,1,0,0:0:0:0:
64,192,70028,1,0,0:0:0:0:
448,192,70128,1,0,0:0:0:0:
320,192,70228,1,0,0:0:0:0:
192,192,70228,1,0,0:0:0:0:
448,192,70328,1,0,0:0:0:0:
64,192,70328,1,0,0:0:0:0:
192,192,70528,1,0,0:0:0:0:
64,192,70628,1,0,0:0:0:0:
320,192,70628,1,0,0:0:0:0:
448,192,70728,1,0,0:0:0:0:
192,192,70828,1,0,0:0:0:0:
64,192,70828,1,0,0:0:0:0:
320,192,70928,1,0,0:0:0:0:
448,192,71028,1,0,0:0:0:0:
64,192,71028,1,0,0:0:0:0:
320,192,71128,1,0,0:0:0:0:
448,192,71228,1,0,0:0:0:0:
64,192,71228,1,0,0:0:0:0:
192,192,71328,1,0,0:0:0:0:
448,192,71428,1,0,0:0:0:0:
320,192,71428,1,0,0:0:0:0:
192,192,71528,1,0,0:0:0:0:
448,192,71628,128,0,71828:0:0:0:0:
320,192,71628,1,0,0:0:0:0:
64,192,71728,1,0,0:0:0:0:
192,192,71828,1,0,0:0:0:0:
320,192,71928,1,0,0:0:0:0:
448,192,71928,1,0,0:0:0:0:
64,192,72028,128,0,72228:0:0:0:0:
192,192,72028,1,0,0:0:0:0:
448,192,72128,1,0,0:0:0:0:
320,192,72228,1,0,0:0:0:0:
192,192,72228,1,0,0:0:0:0:
64,192,72328,1,0,0:0:0:0:
448,192,72428,128,0,72628:0:0:0:0:
320,192,72428,128,0,72628:0:0:0:0:
192,192,72628,1,0,0:0:0:0:
320,192,72728,128,0,72928:0:0:0:0:
448,192,72728,128,0,72928:0:0:0:0:
64,192,72828,1,0,0:0:0:0:
320,192,73028,128,0,73128:0:0:0:0:
448,192,73028,128,0,73128:0:0:0:0:
320,192,73228,128,0,73428:0:0:0:0:
448,192,73228,128,0,73428:0:0:0:0:
192,192,73428,1,0,0:0:0:0:
448,192,73528,128,0,73728:0:0:0:0:
320,192,73528,128,0,73728:0:0:0:0:
64,192,73628,1,0,0:0:0:0:
320,192,73828,128,0,74028:0:0:0:0:
192,192,73828,128,0,73928:0:0:0:0:
448,192,73928,128,0,74028:0:0:0:0:
192,192,74028,128,0,74228:0:0:0:0:
64,192,74028,128,0,74228:0:0:0:0:
320,192,74228,1,0,0:0:0:0:
192,192,74328,128,0,74528:0:0:0:0:
64,192,74328,128,0,74528:0:0:0:0:
448,192,74428,1,0,0:0:0:0:
192,192,74628,128,0,74728:0:0:0:0:
64,192,74628,128,0,74728:0:0:0:0:
64,192,74828,128,0,75028:0:0:0:0:
192,192,74828,128,0,75028:0:0:0:0:
320,192,75028,1,0,0:0:0:0:
192,192,75128,128,0,75328:0:0:0:0:
64,192,75128,128,0,75328:0:0:0:0:
448,192,75228,1,0,0:0:0:0:
320,192,75428,128,0,75528:0:0:0:0:
192,192,75428,128,0,75528:0:0:0:0:
448,192,75628,128,0,75828:0:0:0:0:
320,192,75628,128,0,75828:0:0:0:0:
192,192,75828,1,0,0:0:0:0:
320,192,75928,128,0,76128:0:0:0:0:
448,192,75928,128,0,76128:0:0:0:0:
64,192,76028,1,0,0:0:0:0:
320,192,76228,128,0,76328:0:0:0:0:
448,192,76228,128,0,76328:0:0:0:0:
448,192,76428,128,0,76628:0:0:0:0:
320,192,76428,128,0,76628:0:0:0:0:
192,192,76628,1,0,0:0:0:0:
320,192,76728,128,0,76928:0:0:0:0:
448,192,76728,128,0,76928:0:0:0:0:
64,192,76828,1,0,0:0:0:0:
192,192,77028,128,0,77128:0:0:0:0:
320,192,77028,128,0,77228:0:0:0:0:
448,192,77128,128,0,77228:0:0:0:0:
192,192,77228,128,0,77428:0:0:0:0:
64,192,77228,128,0,77428:0:0:0:0:
448,192,77428,1,0,0:0:0:0:
320,192,77628,1,0,0:0:0:0:
192,192,77678,1,0,0:0:0:0:
64,192,77728,1,0,0:0:0:0:
192,192,77828,1,0,0:0:0:0:
320,192,77878,1,0,0:0:0:0:
448,192,77928,1,0,0:0:0:0:
192,192,78028,1,0,0:0:0:0:
64,192,78028,1,0,0:0:0:0:
64,192,78161,1,0,0:0:0:0:
320,192,78228,1,0,0:0:0:0:
448,192,78228,1,0,0:0:0:0:
192,192,78294,1,0,0:0:0:0:
320,192,78428,1,0,0:0:0:0:
448,192,78428,1,0,0:0:0:0:
64,192,78494,1,0,0:0:0:0:
192,192,78561,1,0,0:0:0:0:
448,192,78628,128,0,78828:0:0:0:0:
320,192,78828,128,0,79128:0:0:0:0:
192,192,78828,128,0,79328:0:0:0:0:
64,192,78828,128,0,79328:0:0:0:0:
448,192,79028,128,0,79428:0:0:0:0:
320,192,79228,128,0,79428:0:0:0:0:
192,192,79428,128,0,79628:0:0:0:0:
64,192,79428,128,0,79628:0:0:0:0:
320,192,79628,1,0,0:0:0:0:
448,192,79628,1,0,0:0:0:0:
192,192,79728,1,0,0:0:0:0:
448,192,79828,1,0,0:0:0:0:
320,192,79878,1,0,0:0:0:0:
192,192,79928,1,0,0:0:0:0:
64,192,79978,1,0,0:0:0:0:
448,192,80028,1,0,0:0:0:0:
320,192,80094,1,0,0:0:0:0:
64,192,80128,1,0,0:0:0:0:
192,192,80194,1,0,0:0:0:0:
448,192,80228,1,0,0:0:0:0:
320,192,80294,1,0,0:0:0:0:
192,192,80361,1,0,0:0:0:0:
320,192,80428,1,0,0:0:0:0:
448,192,80428,1,0,0:0:0:0:
64,192,80428,1,0,0:0:0:0:
192,192,80528,1,0,0:0:0:0:
448,192,80628,1,0,0:0:0:0:
320,192,80728,1,0,0:0:0:0:
64,192,80828,1,0,0:0:0:0:
192,192,80894,1,0,0:0:0:0:
448,192,80928,1,0,0:0:0:0:
320,192,80994,1,0,0:0:0:0:
64,192,81028,1,0,0:0:0:0:
192,192,81094,1,0,0:0:0:0:
320,192,81161,1,0,0:0:0:0:
448,192,81228,1,0,0:0:0:0:
192,192,81228,1,0,0:0:0:0:
64,192,81228,1,0,0:0:0:0:
448,192,81378,1,0,0:0:0:0:
320,192,81428,1,0,0:0:0:0:
64,192,81478,1,0,0:0:0:0:
192,192,81528,1,0,0:0:0:0:
448,192,81578,1,0,0:0:0:0:
320,192,81628,1,0,0:0:0:0:
192,192,81828,1,0,0:0:0:0:
64,192,81878,1,0,0:0:0:0:
192,192,82028,128,0,82328:0:0:0:0:
320,192,82028,128,0,82528:0:0:0:0:
448,192,82028,128,0,82528:0:0:0:0:
64,192,82228,128,0,82628:0:0:0:0:
192,192,82428,128,0,82628:0:0:0:0:
320,192,82628,128,0,82828:0:0:0:0:
448,192,82628,128,0,82828:0:0:0:0:
192,192,82828,1,0,0:0:0:0:
64,192,82828,1,0,0:0:0:0:
320,192,82928,1,0,0:0:0:0:
64,192,83028,1,0,0:0:0:0:
192,192,83078,1,0,0:0:0:0:
320,192,83128,1,0,0:0:0:0:
448,192,83178,1,0,0:0:0:0:
64,192,83228,1,0,0:0:0:0:
192,192,83294,1,0,0:0:0:0:
448,192,83328,1,0,0:0:0:0:
320,192,83394,1,0,0:0:0:0:
64,192,83428,1,0,0:0:0:0:
192,192,83494,1,0,0:0:0:0:
320,192,83561,1,0,0:0:0:0:
192,192,83628,1,0,0:0:0:0:
64,192,83628,1,0,0:0:0:0:
448,192,83628,1,0,0:0:0:0:
320,192,83728,1,0,0:0:0:0:
64,192,83828,1,0,0:0:0:0:
192,192,83928,1,0,0:0:0:0:
448,192,84028,1,0,0:0:0:0:
320,192,84094,1,0,0:0:0:0:
64,192,84128,1,0,0:0:0:0:
192,192,84194,1,0,0:0:0:0:
448,192,84228,1,0,0:0:0:0:
320,192,84294,1,0,0:0:0:0:
192,192,84361,1,0,0:0:0:0:
64,192,84428,1,0,0:0:0:0:
320,192,84428,1,0,0:0:0:0:
448,192,84428,1,0,0:0:0:0:
64,192,84578,1,0,0:0:0:0:
192,192,84628,1,0,0:0:0:0:
448,192,84678,1,0,0:0:0:0:
320,192,84728,1,0,0:0:0:0:
64,192,84778,1,0,0:0:0:0:
192,192,84828,1,0,0:0:0:0:
448,192,85028,1,0,0:0:0:0:
320,192,85078,1,0,0:0:0:0:
448,192,85228,1,0,0:0:0:0:
64,192,85228,128,0,85528:0:0:0:0:
192,192,85228,1,0,0:0:0:0:
320,192,85428,128,0,85528:0:0:0:0:
192,192,85528,1,0,0:0:0:0:
448,192,85528,1,0,0:0:0:0:
64,192,85628,128,0,85828:0:0:0:0:
320,192,85628,1,0,0:0:0:0:
192,192,85828,1,0,0:0:0:0:
448,192,85828,128,0,86228:0:0:0:0:
64,192,86028,1,0,0:0:0:0:
320,192,86028,128,0,86228:0:0:0:0:
192,192,86228,128,0,86628:0:0:0:0:
64,192,86328,1,0,0:0:0:0:
448,192,86328,1,0,0:0:0:0:
320,192,86428,128,0,86628:0:0:0:0:
64,192,86628,1,0,0:0:0:0:
448,192,86628,1,0,0:0:0:0:
320,192,86728,1,0,0:0:0:0:
192,192,86728,1,0,0:0:0:0:
448,192,86828,1,0,0:0:0:0:
64,192,86828,128,0,87128:0:0:0:0:
320,192,87028,128,0,87128:0:0:0:0:
192,192,87128,1,0,0:0:0:0:
448,192,87128,1,0,0:0:0:0:
64,192,87228,128,0,87428:0:0:0:0:
320,192,87228,1,0,0:0:0:0:
192,192,87428,1,0,0:0:0:0:
448,192,87428,128,0,87828:0:0:0:0:
64,192,87628,1,0,0:0:0:0:
320,192,87628,128,0,87828:0:0:0:0:
64,192,87828,128,0,88228:0:0:0:0:
320,192,87928,1,0,0:0:0:0:
448,192,87928,1,0,0:0:0:0:
192,192,88028,128,0,88228:0:0:0:0:
320,192,88228,1,0,0:0:0:0:
448,192,88228,1,0,0:0:0:0:
192,192,88328,1,0,0:0:0:0:
64,192,88328,1,0,0:0:0:0:
448,192,88428,1,0,0:0:0:0:
320,192,88428,1,0,0:0:0:0:
64,192,88528,1,0,0:0:0:0:
320,192,88628,1,0,0:0:0:0:
192,192,88728,1,0,0:0:0:0:
64,192,88728,1,0,0:0:0:0:
448,192,88828,1,0,0:0:0:0:
192,192,88928,1,0,0:0:0:0:
448,192,89028,1,0,0:0:0:0:
320,192,89028,1,0,0:0:0:0:
64,192,89128,1,0,0:0:0:0:
320,192,89228,1,0,0:0:0:0:
192,192,89228,1,0,0:0:0:0:
448,192,89328,1,0,0:0:0:0:
64,192,89428,128,0,89528:0:0:0:0:
320,192,89528,1,0,0:0:0:0:
192,192,89528,1,0,0:0:0:0:
448,192,89628,128,0,89728:0:0:0:0:
192,192,89728,128,0,89828:0:0:0:0:
320,192,89828,128,0,89928:0:0:0:0:
448,192,89828,1,0,0:0:0:0:
192,192,89928,128,0,90028:0:0:0:0:
64,192,89928,1,0,0:0:0:0:
448,192,90028,1,0,0:0:0:0:
320,192,90028,1,0,0:0:0:0:
64,192,90128,1,0,0:0:0:0:
192,192,90128,1,0,0:0:0:0:
192,192,90328,1,0,0:0:0:0:
64,192,90328,1,0,0:0:0:0:
448,192,90428,1,0,0:0:0:0:
320,192,90428,1,0,0:0:0:0:
320,192,90628,1,0,0:0:0:0:
448,192,90628,1,0,0:0:0:0:
192,192,90728,1,0,0:0:0:0:
64,192,90728,1,0,0:0:0:0:
448,192,90828,1,0,0:0:0:0:
192,192,90928,1,0,0:0:0:0:
64,192,90928,1,0,0:0:0:0:
448,192,91028,1,0,0:0:0:0:
320,192,91028,1,0,0:0:0:0:
64,192,91228,1,0,0:0:0:0:
192,192,91228,1,0,0:0:0:0:
320,192,91328,1,0,0:0:0:0:
448,192,91428,1,0,0:0:0:0:
192,192,91528,1,0,0:0:0:0:
448,192,91628,1,0,0:0:0:0:
320,192,91628,1,0,0:0:0:0:
64,192,91628,128,0,91728:0:0:0:0:
448,192,92028,128,0,92128:0:0:0:0:
64,192,92028,1,0,0:0:0:0:
320,192,92228,128,0,92328:0:0:0:0:
192,192,92428,128,0,92528:0:0:0:0:
64,192,92428,1,0,0:0:0:0:
64,192,92828,128,0,92928:0:0:0:0:
448,192,92828,1,0,0:0:0:0:
192,192,93228,128,0,93328:0:0:0:0:
320,192,93228,1,0,0:0:0:0:
448,192,93428,128,0,93528:0:0:0:0:
320,192,93628,128,0,93728:0:0:0:0:
64,192,93628,1,0,0:0:0:0:
320,192,93828,128,0,93928:0:0:0:0:
448,192,94028,1,0,0:0:0:0:
192,192,94028,128,0,94428:0:0:0:0:
320,192,94228,128,0,94428:0:0:0:0:
64,192,94428,128,0,94828:0:0:0:0:
448,192,94428,1,0,0:0:0:0:
192,192,94628,128,0,94828:0:0:0:0:
448,192,94828,128,0,94928:0:0:0:0:
320,192,94828,1,0,0:0:0:0:
64,192,95228,128,0,95328:0:0:0:0:
320,192,95228,1,0,0:0:0:0:
192,192,95428,128,0,95528:0:0:0:0:
320,192,95628,128,0,95728:0:0:0:0:
64,192,95628,1,0,0:0:0:0:
448,192,96028,128,0,96128:0:0:0:0:
192,192,96028,1,0,0:0:0:0:
320,192,96428,128,0,96528:0:0:0:0:
64,192,96428,1,0,0:0:0:0:
64,192,96628,128,0,97028:0:0:0:0:
448,192,96628,1,0,0:0:0:0:
192,192,96828,128,0,97028:0:0:0:0:
320,192,96828,1,0,0:0:0:0:
448,192,97028,128,0,97428:0:0:0:0:
320,192,97228,128,0,97428:0:0:0:0:
192,192,97228,1,0,0:0:0:0:
64,192,97428,128,0,97828:0:0:0:0:
448,192,97628,128,0,97828:0:0:0:0:
320,192,97628,1,0,0:0:0:0:
192,192,97828,128,0,98028:0:0:0:0:
64,192,98028,1,0,0:0:0:0:
448,192,98028,128,0,98128:0:0:0:0:
320,192,98228,1,0,0:0:0:0:
192,192,98228,1,0,0:0:0:0:
448,192,98428,1,0,0:0:0:0:
64,192,98428,1,0,0:0:0:0:
320,192,98428,128,0,98728:0:0:0:0:
64,192,98628,1,0,0:0:0:0:
192,192,98628,128,0,98728:0:0:0:0:
448,192,98828,1,0,0:0:0:0:
192,192,98828,1,0,0:0:0:0:
320,192,98828,128,0,98928:0:0:0:0:
448,192,99028,1,0,0:0:0:0:
64,192,99028,1,0,0:0:0:0:
320,192,99228,1,0,0:0:0:0:
64,192,99228,1,0,0:0:0:0:
192,192,99228,128,0,99328:0:0:0:0:
448,192,99428,1,0,0:0:0:0:
320,192,99428,1,0,0:0:0:0:
192,192,99528,1,0,0:0:0:0:
64,192,99528,1,0,0:0:0:0:
448,192,99628,1,0,0:0:0:0:
320,192,99628,128,0,99928:0:0:0:0:
64,192,99828,1,0,0:0:0:0:
192,192,99828,128,0,99928:0:0:0:0:
320,192,100028,1,0,0:0:0:0:
64,192,100028,1,0,0:0:0:0:
448,192,100028,128,0,100328:0:0:0:0:
192,192,100228,1,0,0:0:0:0:
320,192,100228,128,0,100328:0:0:0:0:
448,192,100428,1,0,0:0:0:0:
64,192,100428,1,0,0:0:0:0:
192,192,100428,128,0,100528:0:0:0:0:
64,192,100628,1,0,0:0:0:0:
320,192,100628,1,0,0:0:0:0:
192,192,100828,1,0,0:0:0:0:
448,192,100828,1,0,0:0:0:0:
320,192,100828,128,0,100928:0:0:0:0:
192,192,101028,1,0,0:0:0:0:
64,192,101028,1,0,0:0:0:0:
448,192,101128,1,0,0:0:0:0:
320,192,101178,1,0,0:0:0:0:
64,192,101228,128,0,101328:0:0:0:0:
192,192,101228,128,0,101328:0:0:0:0:
448,192,101328,1,0,0:0:0:0:
320,192,101428,1,0,0:0:0:0:
64,192,101528,1,0,0:0:0:0:
448,192,101628,128,0,101728:0:0:0:0:
192,192,101628,128,0,101728:0:0:0:0:
320,192,101728,1,0,0:0:0:0:
192,192,101828,128,0,101928:0:0:0:0:
64,192,101828,128,0,101928:0:0:0:0:
448,192,101928,1,0,0:0:0:0:
320,192,102028,128,0,102128:0:0:0:0:
64,192,102028,128,0,102128:0:0:0:0:
192,192,102128,1,0,0:0:0:0:
448,192,102228,1,0,0:0:0:0:
64,192,102328,1,0,0:0:0:0:
192,192,102428,128,0,102528:0:0:0:0:
320,192,102428,128,0,102528:0:0:0:0:
448,192,102528,1,0,0:0:0:0:
64,192,102628,1,0,0:0:0:0:
320,192,102728,1,0,0:0:0:0:
192,192,102778,1,0,0:0:0:0:
448,192,102828,128,0,102928:0:0:0:0:
64,192,102828,128,0,103028:0:0:0:0:
192,192,103028,128,0,103128:0:0:0:0:
320,192,103028,1,0,0:0:0:0:
64,192,103228,128,0,103328:0:0:0:0:
448,192,103428,128,0,103528:0:0:0:0:
320,192,103428,1,0,0:0:0:0:
192,192,103528,1,0,0:0:0:0:
320,192,103628,128,0,103728:0:0:0:0:
64,192,103628,1,0,0:0:0:0:
448,192,103828,1,0,0:0:0:0:
192,192,103828,1,0,0:0:0:0:
64,192,104028,1,0,0:0:0:0:
320,192,104028,128,0,104228:0:0:0:0:
448,192,104028,1,0,0:0:0:0:
192,192,104228,1,0,0:0:0:0:
448,192,104428,1,0,0:0:0:0:
192,192,104428,128,0,104528:0:0:0:0:
320,192,104428,1,0,0:0:0:0:
64,192,104628,1,0,0:0:0:0:
320,192,104828,128,0,104928:0:0:0:0:
448,192,104828,1,0,0:0:0:0:
192,192,105028,128,0,105128:0:0:0:0:
64,192,105228,128,0,105328:0:0:0:0:
448,192,105228,1,0,0:0:0:0:
320,192,105428,1,0,0:0:0:0:
64,192,105628,1,0,0:0:0:0:
192,192,105628,128,0,105728:0:0:0:0:
320,192,105828,1,0,0:0:0:0:
192,192,106028,1,0,0:0:0:0:
448,192,106028,128,0,106128:0:0:0:0:
64,192,106228,128,0,106328:0:0:0:0:
448,192,106428,1,0,0:0:0:0:
320,192,106428,128,0,106528:0:0:0:0:
192,192,106628,128,0,106728:0:0:0:0:
64,192,106828,1,0,0:0:0:0:
448,192,106828,128,0,106928:0:0:0:0:
320,192,107028,1,0,0:0:0:0:
64,192,107228,128,0,107328:0:0:0:0:
448,192,107228,1,0,0:0:0:0:
192,192,107428,1,0,0:0:0:0:
448,192,107628,1,0,0:0:0:0:
320,192,107628,128,0,107728:0:0:0:0:
64,192,107628,1,0,0:0:0:0:
192,192,107828,1,0,0:0:0:0:
448,192,108028,128,0,108128:0:0:0:0:
320,192,108028,1,0,0:0:0:0:
192,192,108228,128,0,108328:0:0:0:0:
64,192,108428,128,0,108528:0:0:0:0:
448,192,108428,1,0,0:0:0:0:
320,192,108628,1,0,0:0:0:0:
192,192,108828,128,0,108928:0:0:0:0:
64,192,108828,1,0,0:0:0:0:
448,192,109028,1,0,0:0:0:0:
192,192,109228,1,0,0:0:0:0:
320,192,109228,128,0,109328:0:0:0:0:
192,192,109428,128,0,109528:0:0:0:0:
448,192,109428,1,0,0:0:0:0:
64,192,109428,1,0,0:0:0:0:
320,192,109628,1,0,0:0:0:0:
448,192,109628,128,0,109728:0:0:0:0:
64,192,109828,128,0,109928:0:0:0:0:
192,192,110028,1,0,0:0:0:0:
320,192,110028,128,0,110128:0:0:0:0:
64,192,110028,1,0,0:0:0:0:
448,192,110228,1,0,0:0:0:0:
320,192,110428,1,0,0:0:0:0:
192,192,110428,128,0,110528:0:0:0:0:
64,192,110628,1,0,0:0:0:0:
448,192,110828,128,0,110928:0:0:0:0:
320,192,110828,1,0,0:0:0:0:
192,192,110828,1,0,0:0:0:0:
64,192,111028,1,0,0:0:0:0:
448,192,111228,1,0,0:0:0:0:
320,192,111228,128,0,111328:0:0:0:0:
192,192,111428,128,0,111528:0:0:0:0:
448,192,111628,1,0,0:0:0:0:
64,192,111628,128,0,111728:0:0:0:0:
320,192,111828,1,0,0:0:0:0:
192,192,112028,128,0,112128:0:0:0:0:
64,192,112028,1,0,0:0:0:0:
448,192,112228,1,0,0:0:0:0:
64,192,112428,128,0,112528:0:0:0:0:
192,192,112428,1,0,0:0:0:0:
448,192,112628,128,0,112728:0:0:0:0:
192,192,112828,128,0,112928:0:0:0:0:
64,192,112828,1,0,0:0:0:0:
320,192,113028,128,0,113128:0:0:0:0:
448,192,113228,128,0,113328:0:0:0:0:
192,192,113228,1,0,0:0:0:0:
64,192,113428,1,0,0:0:0:0:
64,192,113628,128,0,113728:0:0:0:0:
192,192,113628,1,0,0:0:0:0:
320,192,113828,1,0,0:0:0:0:
448,192,113828,1,0,0:0:0:0:
192,192,113928,1,0,0:0:0:0:
64,192,113928,1,0,0:0:0:0:
448,192,114028,1,0,0:0:0:0:
320,192,114028,128,0,114128:0:0:0:0:
64,192,114228,1,0,0:0:0:0:
320,192,114328,1,0,0:0:0:0:
192,192,114428,1,0,0:0:0:0:
64,192,114428,128,0,114528:0:0:0:0:
448,192,114528,1,0,0:0:0:0:
192,192,114628,128,0,114728:0:0:0:0:
320,192,114728,1,0,0:0:0:0:
448,192,114828,128,0,114928:0:0:0:0:
64,192,114828,1,0,0:0:0:0:
192,192,114928,1,0,0:0:0:0:
448,192,115028,128,0,115228:0:0:0:0:
320,192,115128,1,0,0:0:0:0:
192,192,115228,1,0,0:0:0:0:
64,192,115228,128,0,115328:0:0:0:0:
448,192,115328,1,0,0:0:0:0:
64,192,115428,128,0,115628:0:0:0:0:
192,192,115528,1,0,0:0:0:0:
448,192,115628,1,0,0:0:0:0:
320,192,115628,128,0,115828:0:0:0:0:
192,192,115828,128,0,116028:0:0:0:0:
64,192,116028,128,0,116228:0:0:0:0:
320,192,116228,128,0,116428:0:0:0:0:
64,192,116428,128,0,116628:0:0:0:0:
64,192,116728,1,0,0:0:0:0:
448,192,116828,128,0,116928:0:0:0:0:
448,192,117028,128,0,117128:0:0:0:0:
320,192,117028,128,0,117128:0:0:0:0:
448,192,117228,1,0,0:0:0:0:
192,192,117228,128,0,117528:0:0:0:0:
320,192,117228,128,0,118028:0:0:0:0:
64,192,117428,128,0,117528:0:0:0:0:
192,192,117628,128,0,117928:0:0:0:0:
64,192,117628,128,0,117828:0:0:0:0:
448,192,117828,128,0,117928:0:0:0:0:
192,192,118028,128,0,118428:0:0:0:0:
64,192,118028,1,0,0:0:0:0:
448,192,118028,1,0,0:0:0:0:
448,192,118228,128,0,118428:0:0:0:0:
320,192,118428,128,0,118828:0:0:0:0:
64,192,118428,128,0,118628:0:0:0:0:
192,192,118628,128,0,118828:0:0:0:0:
448,192,118628,1,0,0:0:0:0:
448,192,118828,128,0,119128:0:0:0:0:
64,192,118828,1,0,0:0:0:0:
320,192,119028,128,0,119128:0:0:0:0:
448,192,119228,128,0,119528:0:0:0:0:
320,192,119228,128,0,119428:0:0:0:0:
64,192,119428,128,0,119528:0:0:0:0:
448,192,119628,128,0,120228:0:0:0:0:
64,192,119628,1,0,0:0:0:0:
320,192,119628,1,0,0:0:0:0:
192,192,119828,128,0,120128:0:0:0:0:
320,192,119928,128,0,120428:0:0:0:0:
192,192,120228,128,0,120428:0:0:0:0:
64,192,120428,128,0,120728:0:0:0:0:
448,192,120428,1,0,0:0:0:0:
192,192,120628,128,0,120728:0:0:0:0:
64,192,120828,128,0,121128:0:0:0:0:
192,192,120828,128,0,121028:0:0:0:0:
448,192,121028,128,0,121128:0:0:0:0:
64,192,121228,128,0,121528:0:0:0:0:
448,192,121228,1,0,0:0:0:0:
320,192,121228,1,0,0:0:0:0:
192,192,121428,128,0,121528:0:0:0:0:
64,192,121628,128,0,122028:0:0:0:0:
448,192,121628,128,0,121828:0:0:0:0:
192,192,121828,128,0,122028:0:0:0:0:
320,192,121828,1,0,0:0:0:0:
320,192,122028,128,0,122328:0:0:0:0:
448,192,122028,1,0,0:0:0:0:
192,192,122228,128,0,122328:0:0:0:0:
320,192,122428,128,0,122728:0:0:0:0:
192,192,122428,128,0,122628:0:0:0:0:
448,192,122628,128,0,122728:0:0:0:0:
64,192,122828,128,0,123128:0:0:0:0:
320,192,122828,128,0,123328:0:0:0:0:
192,192,122828,1,0,0:0:0:0:
448,192,123028,1,0,0:0:0:0:
192,192,123128,128,0,123628:0:0:0:0:
448,192,123228,128,0,123428:0:0:0:0:
64,192,123428,128,0,123628:0:0:0:0:
320,192,123428,1,0,0:0:0:0:
320,192,123628,128,0,123928:0:0:0:0:
448,192,123628,128,0,124428:0:0:0:0:
192,192,123828,128,0,123928:0:0:0:0:
320,192,124028,128,0,124328:0:0:0:0:
64,192,124028,128,0,124228:0:0:0:0:
192,192,124228,128,0,124328:0:0:0:0:
192,192,124428,128,0,124828:0:0:0:0:
64,192,124428,1,0,0:0:0:0:
320,192,124428,1,0,0:0:0:0:
64,192,124628,128,0,124828:0:0:0:0:
320,192,124828,128,0,125228:0:0:0:0:
448,192,124828,128,0,125028:0:0:0:0:
192,192,125028,128,0,125228:0:0:0:0:
64,192,125028,1,0,0:0:0:0:
448,192,125228,128,0,125528:0:0:0:0:
64,192,125228,1,0,0:0:0:0:
320,192,125428,128,0,125528:0:0:0:0:
448,192,125628,128,0,125928:0:0:0:0:
320,192,125628,128,0,125828:0:0:0:0:
192,192,125828,128,0,125928:0:0:0:0:
448,192,126028,128,0,126628:0:0:0:0:
192,192,126028,1,0,0:0:0:0:
320,192,126028,1,0,0:0:0:0:
192,192,126228,128,0,126528:0:0:0:0:
64,192,126228,1,0,0:0:0:0:
320,192,126328,128,0,126828:0:0:0:0:
192,192,126628,128,0,126828:0:0:0:0:
64,192,126828,128,0,127128:0:0:0:0:
448,192,126828,1,0,0:0:0:0:
192,192,127028,128,0,127128:0:0:0:0:
64,192,127228,128,0,127528:0:0:0:0:
192,192,127228,128,0,127428:0:0:0:0:
448,192,127428,128,0,127528:0:0:0:0:
64,192,127628,128,0,127928:0:0:0:0:
448,192,127628,1,0,0:0:0:0:
320,192,127628,1,0,0:0:0:0:
192,192,127828,128,0,127928:0:0:0:0:
64,192,128028,128,0,128428:0:0:0:0:
448,192,128028,128,0,128228:0:0:0:0:
192,192,128228,128,0,128428:0:0:0:0:
320,192,128228,1,0,0:0:0:0:
320,192,128428,128,0,128528:0:0:0:0:
448,192,128428,128,0,128728:0:0:0:0:
320,192,128628,128,0,128728:0:0:0:0:
192,192,128828,128,0,128928:0:0:0:0:
64,192,128828,128,0,129128:0:0:0:0:
192,192,129028,128,0,129128:0:0:0:0:
448,192,129228,128,0,129328:0:0:0:0:
320,192,129228,128,0,129528:0:0:0:0:
64,192,129228,1,0,0:0:0:0:
448,192,129428,128,0,129528:0:0:0:0:
320,192,129628,128,0,130028:0:0:0:0:
192,192,129628,128,0,129728:0:0:0:0:
192,192,129828,128,0,130028:0:0:0:0:
448,192,130028,1,0,0:0:0:0:
64,192,130028,128,0,130228:0:0:0:0:
320,192,130228,1,0,0:0:0:0:
192,192,130328,1,0,0:0:0:0:
64,192,130428,1,0,0:0:0:0:
448,192,130428,128,0,130828:0:0:0:0:
320,192,130628,1,0,0:0:0:0:
192,192,130828,1,0,0:0:0:0:
64,192,130828,1,0,0:0:0:0:
320,192,130828,128,0,131028:0:0:0:0:
64,192,131028,128,0,131228:0:0:0:0:
320,192,131228,128,0,131628:0:0:0:0:
448,192,131228,128,0,131428:0:0:0:0:
192,192,131428,128,0,131628:0:0:0:0:
64,192,131428,1,0,0:0:0:0:
64,192,131628,1,0,0:0:0:0:
448,192,131628,128,0,132028:0:0:0:0:
320,192,131828,128,0,132228:0:0:0:0:
192,192,132028,128,0,132228:0:0:0:0:
64,192,132028,1,0,0:0:0:0:
64,192,132228,128,0,132428:0:0:0:0:
192,192,132428,1,0,0:0:0:0:
448,192,132428,1,0,0:0:0:0:
320,192,132428,128,0,132628:0:0:0:0:
64,192,132628,128,0,132828:0:0:0:0:
192,192,132728,128,0,132828:0:0:0:0:
320,192,132828,128,0,133228:0:0:0:0:
448,192,132828,1,0,0:0:0:0:
192,192,133028,128,0,133228:0:0:0:0:
64,192,133228,1,0,0:0:0:0:
448,192,133228,128,0,133628:0:0:0:0:
320,192,133428,128,0,133828:0:0:0:0:
192,192,133628,128,0,133828:0:0:0:0:
64,192,133628,1,0,0:0:0:0:
448,192,133828,128,0,134028:0:0:0:0:
320,192,134028,1,0,0:0:0:0:
64,192,134028,128,0,134428:0:0:0:0:
192,192,134028,128,0,134128:0:0:0:0:
192,192,134228,128,0,134428:0:0:0:0:
448,192,134428,128,0,134828:0:0:0:0:
320,192,134428,128,0,134528:0:0:0:0:
320,192,134628,128,0,134828:0:0:0:0:
64,192,134628,1,0,0:0:0:0:
64,192,134828,1,0,0:0:0:0:
192,192,134828,128,0,135228:0:0:0:0:
448,192,135028,128,0,135428:0:0:0:0:
320,192,135228,128,0,135528:0:0:0:0:
64,192,135228,128,0,135328:0:0:0:0:
64,192,135428,128,0,135628:0:0:0:0:
320,192,135628,128,0,135928:0:0:0:0:
192,192,135628,1,0,0:0:0:0:
448,192,135628,128,0,135728:0:0:0:0:
448,192,135828,128,0,136028:0:0:0:0:
64,192,135828,1,0,0:0:0:0:
192,192,135928,128,0,136128:0:0:0:0:
320,192,136028,128,0,136428:0:0:0:0:
192,192,136228,128,0,136428:0:0:0:0:
64,192,136228,1,0,0:0:0:0:
64,192,136428,128,0,136828:0:0:0:0:
448,192,136428,128,0,136528:0:0:0:0:
448,192,136628,128,0,136828:0:0:0:0:
192,192,136828,128,0,137428:0:0:0:0:
320,192,136828,1,0,0:0:0:0:
64,192,137028,1,0,0:0:0:0:
320,192,137228,128,0,137428:0:0:0:0:
64,192,137228,1,0,0:0:0:0:
448,192,137228,1,0,0:0:0:0:
448,192,137428,128,0,137628:0:0:0:0:
192,192,137628,128,0,138028:0:0:0:0:
64,192,137628,128,0,137828:0:0:0:0:
320,192,137828,128,0,138028:0:0:0:0:
448,192,137828,1,0,0:0:0:0:
448,192,138028,1,0,0:0:0:0:
64,192,138028,128,0,138428:0:0:0:0:
192,192,138228,128,0,138628:0:0:0:0:
320,192,138428,128,0,138628:0:0:0:0:
448,192,138428,1,0,0:0:0:0:
448,192,138628,128,0,138828:0:0:0:0:
320,192,138828,1,0,0:0:0:0:
64,192,138828,1,0,0:0:0:0:
192,192,138828,128,0,139028:0:0:0:0:
448,192,139028,128,0,139228:0:0:0:0:
320,192,139128,128,0,139228:0:0:0:0:
192,192,139228,128,0,139628:0:0:0:0:
64,192,139228,1,0,0:0:0:0:
320,192,139428,128,0,139628:0:0:0:0:
448,192,139628,1,0,0:0:0:0:
64,192,139628,128,0,140028:0:0:0:0:
192,192,139828,128,0,140228:0:0:0:0:
320,192,140028,128,0,140228:0:0:0:0:
448,192,140028,1,0,0:0:0:0:
64,192,140228,128,0,140428:0:0:0:0:
192,192,140428,1,0,0:0:0:0:
448,192,140428,128,0,140828:0:0:0:0:
320,192,140428,128,0,140528:0:0:0:0:
320,192,140628,128,0,140828:0:0:0:0:
64,192,140828,128,0,141228:0:0:0:0:
192,192,140828,128,0,140928:0:0:0:0:
192,192,141028,128,0,141228:0:0:0:0:
448,192,141028,1,0,0:0:0:0:
448,192,141228,1,0,0:0:0:0:
320,192,141228,128,0,141328:0:0:0:0:
320,192,141428,128,0,141528:0:0:0:0:
320,192,141628,128,0,141728:0:0:0:0:
64,192,141628,1,0,0:0:0:0:
320,192,141828,128,0,141928:0:0:0:0:
320,192,142028,128,0,142428:0:0:0:0:
192,192,142028,128,0,142228:0:0:0:0:
448,192,142028,1,0,0:0:0:0:
64,192,142228,128,0,142428:0:0:0:0:
448,192,142428,128,0,142628:0:0:0:0:
192,192,142428,128,0,142828:0:0:0:0:
320,192,142628,128,0,142828:0:0:0:0:
64,192,142828,1,0,0:0:0:0:
448,192,142828,1,0,0:0:0:0:
192,192,143028,1,0,0:0:0:0:
320,192,143228,1,0,0:0:0:0:
448,192,143228,1,0,0:0:0:0:
192,192,143428,1,0,0:0:0:0:
64,192,143428,1,0,0:0:0:0:
320,192,143628,1,0,0:0:0:0:
64,192,143828,1,0,0:0:0:0:
192,192,143828,1,0,0:0:0:0:
320,192,144028,1,0,0:0:0:0:
448,192,144028,1,0,0:0:0:0:
64,192,144228,1,0,0:0:0:0:
192,192,144278,1,0,0:0:0:0:
448,192,144328,1,0,0:0:0:0:
320,192,144378,1,0,0:0:0:0:
64,192,144428,1,0,0:0:0:0:
192,192,144428,1,0,0:0:0:0:
448,192,144628,1,0,0:0:0:0:
320,192,144628,1,0,0:0:0:0:
192,192,144828,1,0,0:0:0:0:
64,192,145028,1,0,0:0:0:0:
448,192,145028,1,0,0:0:0:0:
192,192,145228,1,0,0:0:0:0:
320,192,145228,128,0,145628:0:0:0:0:
192,192,145428,128,0,145628:0:0:0:0:
64,192,145428,1,0,0:0:0:0:
448,192,145628,128,0,146028:0:0:0:0:
64,192,145628,1,0,0:0:0:0:
320,192,145828,128,0,146028:0:0:0:0:
192,192,145828,1,0,0:0:0:0:
192,192,146028,1,0,0:0:0:0:
64,192,146028,1,0,0:0:0:0:
320,192,146228,1,0,0:0:0:0:
64,192,146428,1,0,0:0:0:0:
448,192,146428,1,0,0:0:0:0:
192,192,146628,1,0,0:0:0:0:
320,192,146628,1,0,0:0:0:0:
448,192,146828,1,0,0:0:0:0:
192,192,147028,1,0,0:0:0:0:
64,192,147028,1,0,0:0:0:0:
320,192,147228,1,0,0:0:0:0:
448,192,147228,1,0,0:0:0:0:
64,192,147428,1,0,0:0:0:0:
192,192,147478,1,0,0:0:0:0:
448,192,147528,1,0,0:0:0:0:
320,192,147578,1,0,0:0:0:0:
192,192,147628,1,0,0:0:0:0:
64,192,147628,1,0,0:0:0:0:
448,192,147828,1,0,0:0:0:0:
320,192,147828,1,0,0:0:0:0:
192,192,148028,1,0,0:0:0:0:
64,192,148228,1,0,0:0:0:0:
448,192,148228,1,0,0:0:0:0:
320,192,148428,128,0,148828:0:0:0:0:
192,192,148428,128,0,148628:0:0:0:0:
448,192,148628,128,0,148828:0:0:0:0:
64,192,148628,1,0,0:0:0:0:
192,192,148828,128,0,149228:0:0:0:0:
64,192,148828,128,0,149028:0:0:0:0:
320,192,149028,128,0,149228:0:0:0:0:
448,192,149028,1,0,0:0:0:0:
448,192,149228,1,0,0:0:0:0:
64,192,149228,1,0,0:0:0:0:
192,192,149428,1,0,0:0:0:0:
448,192,149628,1,0,0:0:0:0:
320,192,149628,1,0,0:0:0:0:
192,192,149828,1,0,0:0:0:0:
64,192,149828,1,0,0:0:0:0:
448,192,150028,1,0,0:0:0:0:
320,192,150028,1,0,0:0:0:0:
64,192,150128,1,0,0:0:0:0:
192,192,150128,1,0,0:0:0:0:
448,192,150228,1,0,0:0:0:0:
320,192,150228,1,0,0:0:0:0:
192,192,150328,1,0,0:0:0:0:
64,192,150328,1,0,0:0:0:0:
320,192,150428,1,0,0:0:0:0:
448,192,150428,1,0,0:0:0:0:
64,192,150628,1,0,0:0:0:0:
192,192,150628,1,0,0:0:0:0:
320,192,150828,1,0,0:0:0:0:
448,192,150828,1,0,0:0:0:0:
192,192,151028,1,0,0:0:0:0:
448,192,151228,1,0,0:0:0:0:
64,192,151228,1,0,0:0:0:0:
320,192,151428,1,0,0:0:0:0:
192,192,151628,1,0,0:0:0:0:
64,192,151628,128,0,151728:0:0:0:0:
192,192,151828,1,0,0:0:0:0:
64,192,151828,1,0,0:0:0:0:
448,192,151878,1,0,0:0:0:0:
320,192,151928,1,0,0:0:0:0:
192,192,151978,1,0,0:0:0:0:
64,192,152028,1,0,0:0:0:0:
448,192,152028,128,0,152428:0:0:0:0:
320,192,152228,128,0,152428:0:0:0:0:
192,192,152428,1,0,0:0:0:0:
64,192,152428,1,0,0:0:0:0:
320,192,152628,1,0,0:0:0:0:
64,192,152828,1,0,0:0:0:0:
448,192,152828,1,0,0:0:0:0:
192,192,153028,1,0,0:0:0:0:
320,192,153028,1,0,0:0:0:0:
64,192,153228,1,0,0:0:0:0:
448,192,153228,1,0,0:0:0:0:
192,192,153328,1,0,0:0:0:0:
320,192,153328,1,0,0:0:0:0:
448,192,153428,1,0,0:0:0:0:
64,192,153428,1,0,0:0:0:0:
192,192,153528,1,0,0:0:0:0:
320,192,153528,1,0,0:0:0:0:
448,192,153628,1,0,0:0:0:0:
64,192,153628,1,0,0:0:0:0:
192,192,153828,1,0,0:0:0:0:
320,192,153828,1,0,0:0:0:0:
448,192,154028,1,0,0:0:0:0:
64,192,154028,1,0,0:0:0:0:
448,192,154228,1,0,0:0:0:0:
320,192,154228,1,0,0:0:0:0:
192,192,154228,128,0,154328:0:0:0:0:
192,192,154428,128,0,154528:0:0:0:0:
64,192,154428,1,0,0:0:0:0:
192,192,154628,128,0,154728:0:0:0:0:
64,192,154628,1,0,0:0:0:0:
448,192,154828,1,0,0:0:0:0:
192,192,154828,128,0,154928:0:0:0:0:
320,192,154828,1,0,0:0:0:0:
64,192,155028,1,0,0:0:0:0:
192,192,155028,1,0,0:0:0:0:
448,192,155078,1,0,0:0:0:0:
320,192,155128,1,0,0:0:0:0:
192,192,155178,1,0,0:0:0:0:
448,192,155228,128,0,155628:0:0:0:0:
64,192,155228,1,0,0:0:0:0:
320,192,155428,128,0,155628:0:0:0:0:
64,192,155628,128,0,155728:0:0:0:0:
192,192,155628,128,0,155728:0:0:0:0:
192,192,156028,128,0,156128:0:0:0:0:
64,192,156028,128,0,156128:0:0:0:0:
448,192,156228,1,0,0:0:0:0:
192,192,156428,128,0,156528:0:0:0:0:
320,192,156428,128,0,156528:0:0:0:0:
64,192,156628,1,0,0:0:0:0:
448,192,156828,128,0,156928:0:0:0:0:
320,192,156828,128,0,156928:0:0:0:0:
64,192,157028,128,0,157228:0:0:0:0:
320,192,157228,128,0,157328:0:0:0:0:
448,192,157228,128,0,157328:0:0:0:0:
64,192,157428,1,0,0:0:0:0:
320,192,157628,128,0,157728:0:0:0:0:
192,192,157628,128,0,157728:0:0:0:0:
448,192,157828,1,0,0:0:0:0:
192,192,158028,128,0,158128:0:0:0:0:
64,192,158028,128,0,158128:0:0:0:0:
320,192,158228,128,0,158428:0:0:0:0:
64,192,158428,128,0,158528:0:0:0:0:
448,192,158428,128,0,158528:0:0:0:0:
192,192,158628,128,0,158828:0:0:0:0:
64,192,158828,1,0,0:0:0:0:
320,192,158828,128,0,158928:0:0:0:0:
448,192,158828,128,0,158928:0:0:0:0:
192,192,159228,128,0,159328:0:0:0:0:
320,192,159228,128,0,159328:0:0:0:0:
448,192,159428,1,0,0:0:0:0:
192,192,159628,128,0,159728:0:0:0:0:
64,192,159628,128,0,159728:0:0:0:0:
320,192,159828,1,0,0:0:0:0:
320,192,160028,128,0,160128:0:0:0:0:
448,192,160028,128,0,160128:0:0:0:0:
64,192,160228,128,0,160428:0:0:0:0:
320,192,160428,128,0,160528:0:0:0:0:
448,192,160428,128,0,160528:0:0:0:0:
192,192,160628,1,0,0:0:0:0:
192,192,160828,128,0,160928:0:0:0:0:
64,192,160828,128,0,160928:0:0:0:0:
448,192,161028,1,0,0:0:0:0:
192,192,161228,128,0,161328:0:0:0:0:
64,192,161228,128,0,161328:0:0:0:0:
320,192,161228,128,0,161528:0:0:0:0:
192,192,161428,128,0,161528:0:0:0:0:
320,192,161628,128,0,161728:0:0:0:0:
192,192,161628,128,0,161928:0:0:0:0:
448,192,161628,128,0,161728:0:0:0:0:
320,192,161828,128,0,161928:0:0:0:0:
448,192,162028,1,0,0:0:0:0:
320,192,162028,1,0,0:0:0:0:
64,192,162028,1,0,0:0:0:0:
192,192,162228,1,0,0:0:0:0:
64,192,162228,1,0,0:0:0:0:
192,192,162428,1,0,0:0:0:0:
64,192,162428,1,0,0:0:0:0:
320,192,162628,1,0,0:0:0:0:
448,192,162628,1,0,0:0:0:0:
448,192,162828,1,0,0:0:0:0:
320,192,162828,1,0,0:0:0:0:
192,192,163028,1,0,0:0:0:0:
64,192,163028,1,0,0:0:0:0:
64,192,163228,1,0,0:0:0:0:
192,192,163228,1,0,0:0:0:0:
448,192,163428,1,0,0:0:0:0:
320,192,163428,1,0,0:0:0:0:
192,192,163528,1,0,0:0:0:0:
448,192,163628,1,0,0:0:0:0:
320,192,163628,1,0,0:0:0:0:
64,192,163828,1,0,0:0:0:0:
192,192,163828,1,0,0:0:0:0:
192,192,164028,1,0,0:0:0:0:
64,192,164028,1,0,0:0:0:0:
320,192,164228,1,0,0:0:0:0:
448,192,164228,1,0,0:0:0:0:
320,192,164428,1,0,0:0:0:0:
448,192,164428,1,0,0:0:0:0:
192,192,164628,1,0,0:0:0:0:
64,192,164628,1,0,0:0:0:0:
64,192,164828,1,0,0:0:0:0:
192,192,164828,1,0,0:0:0:0:
448,192,165028,1,0,0:0:0:0:
320,192,165028,1,0,0:0:0:0:
192,192,165128,1,0,0:0:0:0:
64,192,165128,1,0,0:0:0:0:
320,192,165228,1,0,0:0:0:0:
448,192,165228,1,0,0:0:0:0:
192,192,165328,1,0,0:0:0:0:
64,192,165428,1,0,0:0:0:0:
448,192,165528,1,0,0:0:0:0:
192,192,165628,1,0,0:0:0:0:
320,192,165628,1,0,0:0:0:0:
64,192,165728,1,0,0:0:0:0:
448,192,165828,1,0,0:0:0:0:
320,192,165828,1,0,0:0:0:0:
192,192,165928,1,0,0:0:0:0:
64,192,166028,1,0,0:0:0:0:
448,192,166028,1,0,0:0:0:0:
320,192,166128,1,0,0:0:0:0:
64,192,166228,1,0,0:0:0:0:
192,192,166228,1,0,0:0:0:0:
448,192,166328,1,0,0:0:0:0:
192,192,166428,1,0,0:0:0:0:
320,192,166428,1,0,0:0:0:0:
64,192,166528,1,0,0:0:0:0:
320,192,166628,1,0,0:0:0:0:
448,192,166628,1,0,0:0:0:0:
192,192,166728,1,0,0:0:0:0:
64,192,166728,1,0,0:0:0:0:
320,192,166828,1,0,0:0:0:0:
448,192,166828,128,0,166928:0:0:0:0:
448,192,167028,128,0,167128:0:0:0:0:
192,192,167028,1,0,0:0:0:0:
448,192,167228,128,0,167328:0:0:0:0:
448,192,167428,128,0,167528:0:0:0:0:
192,192,167428,1,0,0:0:0:0:
320,192,167528,1,0,0:0:0:0:
64,192,167628,1,0,0:0:0:0:
448,192,167628,128,0,168028:0:0:0:0:
320,192,167828,128,0,168028:0:0:0:0:
192,192,167828,1,0,0:0:0:0:
64,192,168028,128,0,168128:0:0:0:0:
64,192,168228,128,0,168428:0:0:0:0:
192,192,168228,128,0,168428:0:0:0:0:
448,192,168428,1,0,0:0:0:0:
320,192,168428,1,0,0:0:0:0:
192,192,168528,1,0,0:0:0:0:
64,192,168628,1,0,0:0:0:0:
448,192,168628,1,0,0:0:0:0:
192,192,168728,1,0,0:0:0:0:
64,192,168828,1,0,0:0:0:0:
448,192,168828,1,0,0:0:0:0:
320,192,168928,1,0,0:0:0:0:
192,192,169028,1,0,0:0:0:0:
64,192,169028,1,0,0:0:0:0:
320,192,169128,1,0,0:0:0:0:
64,192,169228,1,0,0:0:0:0:
192,192,169228,1,0,0:0:0:0:
448,192,169328,1,0,0:0:0:0:
192,192,169428,1,0,0:0:0:0:
320,192,169428,1,0,0:0:0:0:
64,192,169528,1,0,0:0:0:0:
448,192,169528,1,0,0:0:0:0:
192,192,169728,1,0,0:0:0:0:
320,192,169828,1,0,0:0:0:0:
64,192,169828,1,0,0:0:0:0:
448,192,169928,1,0,0:0:0:0:
64,192,170028,1,0,0:0:0:0:
192,192,170028,1,0,0:0:0:0:
320,192,170128,1,0,0:0:0:0:
64,192,170228,1,0,0:0:0:0:
448,192,170228,1,0,0:0:0:0:
320,192,170328,1,0,0:0:0:0:
64,192,170428,1,0,0:0:0:0:
448,192,170428,1,0,0:0:0:0:
192,192,170528,1,0,0:0:0:0:
320,192,170628,1,0,0:0:0:0:
448,192,170628,1,0,0:0:0:0:
192,192,170728,1,0,0:0:0:0:
320,192,170828,1,0,0:0:0:0:
448,192,170828,1,0,0:0:0:0:
64,192,170928,1,0,0:0:0:0:
192,192,171028,1,0,0:0:0:0:
320,192,171028,1,0,0:0:0:0:
448,192,171128,1,0,0:0:0:0:
64,192,171128,1,0,0:0:0:0:
320,192,171328,1,0,0:0:0:0:
192,192,171428,1,0,0:0:0:0:
448,192,171428,1,0,0:0:0:0:
64,192,171528,1,0,0:0:0:0:
448,192,171628,1,0,0:0:0:0:
320,192,171628,1,0,0:0:0:0:
192,192,171728,1,0,0:0:0:0:
64,192,171828,1,0,0:0:0:0:
448,192,171828,1,0,0:0:0:0:
192,192,171928,1,0,0:0:0:0:
64,192,172028,1,0,0:0:0:0:
448,192,172028,1,0,0:0:0:0:
320,192,172128,1,0,0:0:0:0:
192,192,172228,1,0,0:0:0:0:
64,192,172228,1,0,0:0:0:0:
320,192,172328,1,0,0:0:0:0:
64,192,172428,1,0,0:0:0:0:
192,192,172428,1,0,0:0:0:0:
448,192,172528,1,0,0:0:0:0:
192,192,172628,1,0,0:0:0:0:
320,192,172628,1,0,0:0:0:0:
64,192,172728,1,0,0:0:0:0:
448,192,172728,1,0,0:0:0:0:
192,192,172928,1,0,0:0:0:0:
320,192,173028,1,0,0:0:0:0:
64,192,173028,1,0,0:0:0:0:
448,192,173128,1,0,0:0:0:0:
64,192,173228,1,0,0:0:0:0:
192,192,173228,1,0,0:0:0:0:
320,192,173328,1,0,0:0:0:0:
64,192,173428,1,0,0:0:0:0:
448,192,173428,1,0,0:0:0:0:
320,192,173528,1,0,0:0:0:0:
64,192,173628,1,0,0:0:0:0:
448,192,173628,1,0,0:0:0:0:
192,192,173728,1,0,0:0:0:0:
320,192,173828,1,0,0:0:0:0:
448,192,173828,1,0,0:0:0:0:
192,192,173928,1,0,0:0:0:0:
320,192,174028,1,0,0:0:0:0:
448,192,174028,128,0,174228:0:0:0:0:
64,192,174128,1,0,0:0:0:0:
192,192,174228,1,0,0:0:0:0:
448,192,174328,1,0,0:0:0:0:
320,192,174328,1,0,0:0:0:0:
192,192,174428,1,0,0:0:0:0:
64,192,174428,128,0,174628:0:0:0:0:
448,192,174528,1,0,0:0:0:0:
192,192,174628,1,0,0:0:0:0:
320,192,174628,1,0,0:0:0:0:
64,192,174728,1,0,0:0:0:0:
320,192,174828,128,0,175028:0:0:0:0:
448,192,174828,128,0,175028:0:0:0:0:
192,192,175028,1,0,0:0:0:0:
64,192,175128,1,0,0:0:0:0:
320,192,175128,1,0,0:0:0:0:
448,192,175228,128,0,175328:0:0:0:0:
320,192,175428,128,0,175528:0:0:0:0:
448,192,175428,128,0,175528:0:0:0:0:
448,192,175628,128,0,175828:0:0:0:0:
320,192,175628,128,0,175828:0:0:0:0:
192,192,175828,1,0,0:0:0:0:
320,192,175928,128,0,176128:0:0:0:0:
448,192,175928,128,0,176128:0:0:0:0:
64,192,176028,1,0,0:0:0:0:
192,192,176228,128,0,176328:0:0:0:0:
320,192,176228,128,0,176428:0:0:0:0:
448,192,176328,128,0,176428:0:0:0:0:
192,192,176428,128,0,176528:0:0:0:0:
64,192,176428,128,0,176528:0:0:0:0:
64,192,176628,128,0,176728:0:0:0:0:
320,192,176728,1,0,0:0:0:0:
448,192,176728,1,0,0:0:0:0:
64,192,176828,128,0,176928:0:0:0:0:
64,192,177028,128,0,177128:0:0:0:0:
192,192,177028,128,0,177128:0:0:0:0:
64,192,177228,128,0,177428:0:0:0:0:
192,192,177228,128,0,177428:0:0:0:0:
320,192,177428,1,0,0:0:0:0:
64,192,177528,128,0,177728:0:0:0:0:
192,192,177528,128,0,177728:0:0:0:0:
448,192,177628,1,0,0:0:0:0:
192,192,177828,128,0,177928:0:0:0:0:
320,192,177828,128,0,177928:0:0:0:0:
320,192,178028,128,0,178228:0:0:0:0:
448,192,178028,128,0,178228:0:0:0:0:
192,192,178228,1,0,0:0:0:0:
64,192,178328,1,0,0:0:0:0:
320,192,178328,1,0,0:0:0:0:
448,192,178428,128,0,178528:0:0:0:0:
320,192,178628,128,0,178728:0:0:0:0:
448,192,178628,128,0,178728:0:0:0:0:
448,192,178828,128,0,179028:0:0:0:0:
320,192,178828,128,0,179028:0:0:0:0:
192,192,179028,1,0,0:0:0:0:
320,192,179128,128,0,179328:0:0:0:0:
448,192,179128,128,0,179328:0:0:0:0:
64,192,179228,1,0,0:0:0:0:
320,192,179428,128,0,179628:0:0:0:0:
192,192,179428,128,0,179528:0:0:0:0:
448,192,179528,128,0,179628:0:0:0:0:
64,192,179628,128,0,179728:0:0:0:0:
192,192,179628,128,0,179728:0:0:0:0:
64,192,179828,128,0,179928:0:0:0:0:
448,192,179928,1,0,0:0:0:0:
320,192,179928,1,0,0:0:0:0:
64,192,180028,128,0,180128:0:0:0:0:
64,192,180228,128,0,180328:0:0:0:0:
192,192,180228,128,0,180328:0:0:0:0:
64,192,180428,128,0,180628:0:0:0:0:
192,192,180428,128,0,180628:0:0:0:0:
448,192,180628,1,0,0:0:0:0:
64,192,180728,128,0,180928:0:0:0:0:
192,192,180728,128,0,180928:0:0:0:0:
320,192,180828,128,0,180928:0:0:0:0:
320,192,181028,128,0,181228:0:0:0:0:
448,192,181028,128,0,181228:0:0:0:0:
192,192,181228,1,0,0:0:0:0:
64,192,181228,1,0,0:0:0:0:
320,192,181328,1,0,0:0:0:0:
64,192,181428,1,0,0:0:0:0:
448,192,181428,1,0,0:0:0:0:
320,192,181528,1,0,0:0:0:0:
64,192,181628,1,0,0:0:0:0:
448,192,181628,1,0,0:0:0:0:
192,192,181728,1,0,0:0:0:0:
448,192,181828,1,0,0:0:0:0:
320,192,181828,1,0,0:0:0:0:
192,192,181928,1,0,0:0:0:0:
320,192,182028,1,0,0:0:0:0:
448,192,182028,1,0,0:0:0:0:
64,192,182128,1,0,0:0:0:0:
192,192,182228,1,0,0:0:0:0:
320,192,182228,1,0,0:0:0:0:
64,192,182328,1,0,0:0:0:0:
448,192,182328,1,0,0:0:0:0:
320,192,182528,128,0,182728:0:0:0:0:
448,192,182628,1,0,0:0:0:0:
192,192,182628,128,0,182828:0:0:0:0:
64,192,182728,128,0,182828:0:0:0:0:
320,192,182828,1,0,0:0:0:0:
448,192,182828,1,0,0:0:0:0:
192,192,182928,1,0,0:0:0:0:
64,192,183028,1,0,0:0:0:0:
448,192,183028,1,0,0:0:0:0:
192,192,183128,1,0,0:0:0:0:
64,192,183228,1,0,0:0:0:0:
448,192,183228,1,0,0:0:0:0:
320,192,183328,1,0,0:0:0:0:
64,192,183428,1,0,0:0:0:0:
192,192,183428,1,0,0:0:0:0:
320,192,183528,1,0,0:0:0:0:
64,192,183628,1,0,0:0:0:0:
192,192,183628,1,0,0:0:0:0:
448,192,183728,1,0,0:0:0:0:
192,192,183828,1,0,0:0:0:0:
320,192,183828,1,0,0:0:0:0:
448,192,183928,1,0,0:0:0:0:
64,192,183928,1,0,0:0:0:0:
192,192,184128,128,0,184328:0:0:0:0:
64,192,184228,1,0,0:0:0:0:
320,192,184228,128,0,184428:0:0:0:0:
448,192,184328,128,0,184428:0:0:0:0:
192,192,184428,1,0,0:0:0:0:
64,192,184428,1,0,0:0:0:0:
320,192,184528,1,0,0:0:0:0:
64,192,184628,1,0,0:0:0:0:
448,192,184628,1,0,0:0:0:0:
320,192,184728,1,0,0:0:0:0:
64,192,184828,1,0,0:0:0:0:
448,192,184828,1,0,0:0:0:0:
192,192,184928,1,0,0:0:0:0:
448,192,185028,1,0,0:0:0:0:
320,192,185028,1,0,0:0:0:0:
192,192,185128,1,0,0:0:0:0:
320,192,185228,1,0,0:0:0:0:
448,192,185228,1,0,0:0:0:0:
64,192,185328,1,0,0:0:0:0:
192,192,185428,1,0,0:0:0:0:
320,192,185428,1,0,0:0:0:0:
64,192,185528,1,0,0:0:0:0:
448,192,185528,1,0,0:0:0:0:
320,192,185728,128,0,185928:0:0:0:0:
448,192,185828,1,0,0:0:0:0:
192,192,185828,128,0,186028:0:0:0:0:
64,192,185928,128,0,186028:0:0:0:0:
320,192,186028,1,0,0:0:0:0:
448,192,186028,1,0,0:0:0:0:
192,192,186128,1,0,0:0:0:0:
64,192,186228,1,0,0:0:0:0:
448,192,186228,1,0,0:0:0:0:
192,192,186328,1,0,0:0:0:0:
64,192,186428,1,0,0:0:0:0:
448,192,186428,1,0,0:0:0:0:
320,192,186528,1,0,0:0:0:0:
64,192,186628,1,0,0:0:0:0:
192,192,186628,1,0,0:0:0:0:
320,192,186728,1,0,0:0:0:0:
64,192,186828,128,0,187028:0:0:0:0:
192,192,186828,1,0,0:0:0:0:
448,192,186928,128,0,187028:0:0:0:0:
320,192,187028,128,0,187128:0:0:0:0:
64,192,187128,1,0,0:0:0:0:
192,192,187128,128,0,187228:0:0:0:0:
448,192,187228,128,0,187428:0:0:0:0:
320,192,187228,1,0,0:0:0:0:
192,192,187328,128,0,187428:0:0:0:0:
64,192,187428,1,0,0:0:0:0:
320,192,187428,128,0,187628:0:0:0:0:
448,192,187528,128,0,187628:0:0:0:0:
192,192,187628,128,0,187828:0:0:0:0:
64,192,187628,128,0,187828:0:0:0:0:
320,192,187828,1,0,0:0:0:0:
448,192,187928,1,0,0:0:0:0:
192,192,187928,1,0,0:0:0:0:
64,192,188028,128,0,188128:0:0:0:0:
192,192,188228,128,0,188328:0:0:0:0:
64,192,188228,128,0,188328:0:0:0:0:
64,192,188428,128,0,188628:0:0:0:0:
192,192,188428,128,0,188628:0:0:0:0:
320,192,188628,1,0,0:0:0:0:
192,192,188728,128,0,188928:0:0:0:0:
64,192,188728,128,0,188928:0:0:0:0:
448,192,188828,1,0,0:0:0:0:
320,192,189028,128,0,189128:0:0:0:0:
192,192,189028,128,0,189228:0:0:0:0:
64,192,189128,128,0,189228:0:0:0:0:
320,192,189228,128,0,189328:0:0:0:0:
448,192,189228,128,0,189328:0:0:0:0:
448,192,189428,128,0,189528:0:0:0:0:
192,192,189528,1,0,0:0:0:0:
64,192,189528,1,0,0:0:0:0:
448,192,189628,128,0,189728:0:0:0:0:
448,192,189828,128,0,189928:0:0:0:0:
320,192,189828,128,0,189928:0:0:0:0:
448,192,190028,128,0,190228:0:0:0:0:
320,192,190028,128,0,190228:0:0:0:0:
192,192,190228,1,0,0:0:0:0:
448,192,190328,128,0,190528:0:0:0:0:
320,192,190328,128,0,190528:0:0:0:0:
64,192,190428,1,0,0:0:0:0:
320,192,190628,128,0,190728:0:0:0:0:
192,192,190628,128,0,190728:0:0:0:0:
192,192,190828,128,0,191028:0:0:0:0:
64,192,190828,128,0,191028:0:0:0:0:
320,192,191028,1,0,0:0:0:0:
448,192,191128,1,0,0:0:0:0:
192,192,191128,1,0,0:0:0:0:
64,192,191228,128,0,191328:0:0:0:0:
192,192,191428,128,0,191528:0:0:0:0:
64,192,191428,128,0,191528:0:0:0:0:
64,192,191628,128,0,191828:0:0:0:0:
192,192,191628,128,0,191828:0:0:0:0:
320,192,191828,1,0,0:0:0:0:
192,192,191928,128,0,192128:0:0:0:0:
64,192,191928,128,0,192128:0:0:0:0:
448,192,192028,1,0,0:0:0:0:
192,192,192228,128,0,192428:0:0:0:0:
320,192,192228,128,0,192328:0:0:0:0:
64,192,192328,128,0,192428:0:0:0:0:
320,192,192428,128,0,192628:0:0:0:0:
448,192,192428,128,0,192628:0:0:0:0:
64,192,192628,1,0,0:0:0:0:
192,192,192828,1,0,0:0:0:0:
320,192,192878,1,0,0:0:0:0:
448,192,192928,1,0,0:0:0:0:
320,192,193028,1,0,0:0:0:0:
192,192,193078,1,0,0:0:0:0:
64,192,193128,1,0,0:0:0:0:
448,192,193228,1,0,0:0:0:0:
320,192,193228,1,0,0:0:0:0:
448,192,193361,1,0,0:0:0:0:
64,192,193428,1,0,0:0:0:0:
192,192,193428,1,0,0:0:0:0:
320,192,193494,1,0,0:0:0:0:
192,192,193628,1,0,0:0:0:0:
64,192,193628,1,0,0:0:0:0:
448,192,193694,1,0,0:0:0:0:
320,192,193761,1,0,0:0:0:0:
64,192,193828,128,0,194028:0:0:0:0:
448,192,194028,128,0,194528:0:0:0:0:
320,192,194028,128,0,194528:0:0:0:0:
192,192,194028,128,0,194328:0:0:0:0:
64,192,194228,128,0,194628:0:0:0:0:
192,192,194428,128,0,194628:0:0:0:0:
448,192,194628,128,0,194828:0:0:0:0:
320,192,194628,128,0,194828:0:0:0:0:
64,192,194828,1,0,0:0:0:0:
192,192,194828,1,0,0:0:0:0:
320,192,194928,1,0,0:0:0:0:
64,192,195028,1,0,0:0:0:0:
192,192,195078,1,0,0:0:0:0:
320,192,195128,1,0,0:0:0:0:
448,192,195178,1,0,0:0:0:0:
64,192,195228,1,0,0:0:0:0:
192,192,195294,1,0,0:0:0:0:
448,192,195328,1,0,0:0:0:0:
320,192,195394,1,0,0:0:0:0:
64,192,195428,1,0,0:0:0:0:
192,192,195494,1,0,0:0:0:0:
320,192,195561,1,0,0:0:0:0:
448,192,195628,1,0,0:0:0:0:
64,192,195628,1,0,0:0:0:0:
192,192,195628,1,0,0:0:0:0:
320,192,195728,1,0,0:0:0:0:
64,192,195828,1,0,0:0:0:0:
192,192,195928,1,0,0:0:0:0:
448,192,196028,1,0,0:0:0:0:
320,192,196094,1,0,0:0:0:0:
64,192,196128,1,0,0:0:0:0:
192,192,196194,1,0,0:0:0:0:
448,192,196228,1,0,0:0:0:0:
320,192,196294,1,0,0:0:0:0:
192,192,196361,1,0,0:0:0:0:
448,192,196428,1,0,0:0:0:0:
320,192,196428,1,0,0:0:0:0:
64,192,196428,1,0,0:0:0:0:
64,192,196578,1,0,0:0:0:0:
192,192,196628,1,0,0:0:0:0:
448,192,196678,1,0,0:0:0:0:
320,192,196728,1,0,0:0:0:0:
64,192,196778,1,0,0:0:0:0:
192,192,196828,1,0,0:0:0:0:
320,192,197028,1,0,0:0:0:0:
448,192,197078,1,0,0:0:0:0:
64,192,197228,128,0,197728:0:0:0:0:
192,192,197228,128,0,197728:0:0:0:0:
320,192,197228,128,0,197528:0:0:0:0:
448,192,197428,128,0,197828:0:0:0:0:
320,192,197628,128,0,197828:0:0:0:0:
64,192,197828,128,0,198028:0:0:0:0:
192,192,197828,128,0,198028:0:0:0:0:
448,192,198028,1,0,0:0:0:0:
320,192,198028,1,0,0:0:0:0:
192,192,198128,1,0,0:0:0:0:
448,192,198228,1,0,0:0:0:0:
320,192,198278,1,0,0:0:0:0:
192,192,198328,1,0,0:0:0:0:
64,192,198378,1,0,0:0:0:0:
448,192,198428,1,0,0:0:0:0:
320,192,198494,1,0,0:0:0:0:
64,192,198528,1,0,0:0:0:0:
192,192,198594,1,0,0:0:0:0:
448,192,198628,1,0,0:0:0:0:
320,192,198694,1,0,0:0:0:0:
192,192,198761,1,0,0:0:0:0:
64,192,198828,1,0,0:0:0:0:
448,192,198828,1,0,0:0:0:0:
320,192,198828,1,0,0:0:0:0:
192,192,198928,1,0,0:0:0:0:
448,192,199028,1,0,0:0:0:0:
320,192,199128,1,0,0:0:0:0:
64,192,199228,1,0,0:0:0:0:
192,192,199294,1,0,0:0:0:0:
448,192,199328,1,0,0:0:0:0:
320,192,199394,1,0,0:0:0:0:
64,192,199428,1,0,0:0:0:0:
192,192,199494,1,0,0:0:0:0:
320,192,199561,1,0,0:0:0:0:
64,192,199628,1,0,0:0:0:0:
192,192,199628,1,0,0:0:0:0:
448,192,199628,1,0,0:0:0:0:
448,192,199778,1,0,0:0:0:0:
320,192,199828,1,0,0:0:0:0:
64,192,199878,1,0,0:0:0:0:
192,192,199928,1,0,0:0:0:0:
448,192,199978,1,0,0:0:0:0:
320,192,200028,1,0,0:0:0:0:
64,192,200228,1,0,0:0:0:0:
192,192,200278,1,0,0:0:0:0:
320,192,200428,1,0,0:0:0:0:
448,192,200428,128,0,200728:0:0:0:0:
64,192,200428,1,0,0:0:0:0:
192,192,200628,128,0,200728:0:0:0:0:
64,192,200728,1,0,0:0:0:0:
320,192,200728,1,0,0:0:0:0:
192,192,200828,1,0,0:0:0:0:
448,192,200828,128,0,201028:0:0:0:0:
64,192,201028,128,0,201428:0:0:0:0:
320,192,201028,1,0,0:0:0:0:
192,192,201228,128,0,201428:0:0:0:0:
448,192,201228,1,0,0:0:0:0:
320,192,201428,128,0,201828:0:0:0:0:
64,192,201528,1,0,0:0:0:0:
448,192,201528,1,0,0:0:0:0:
192,192,201628,128,0,201828:0:0:0:0:
64,192,201828,1,0,0:0:0:0:
448,192,201828,1,0,0:0:0:0:
320,192,201928,1,0,0:0:0:0:
192,192,201928,1,0,0:0:0:0:
448,192,202028,128,0,202328:0:0:0:0:
64,192,202028,1,0,0:0:0:0:
192,192,202228,128,0,202328:0:0:0:0:
64,192,202328,1,0,0:0:0:0:
320,192,202328,1,0,0:0:0:0:
192,192,202428,1,0,0:0:0:0:
448,192,202428,128,0,202628:0:0:0:0:
64,192,202628,128,0,203028:0:0:0:0:
320,192,202628,1,0,0:0:0:0:
192,192,202828,128,0,203028:0:0:0:0:
448,192,202828,1,0,0:0:0:0:
448,192,203028,128,0,203428:0:0:0:0:
64,192,203128,1,0,0:0:0:0:
192,192,203128,1,0,0:0:0:0:
320,192,203228,128,0,203428:0:0:0:0:
64,192,203428,1,0,0:0:0:0:
192,192,203428,1,0,0:0:0:0:
448,192,203528,1,0,0:0:0:0:
320,192,203528,1,0,0:0:0:0:
192,192,203628,1,0,0:0:0:0:
64,192,203628,1,0,0:0:0:0:
320,192,203728,1,0,0:0:0:0:
64,192,203828,1,0,0:0:0:0:
448,192,203928,1,0,0:0:0:0:
320,192,203928,1,0,0:0:0:0:
192,192,204028,1,0,0:0:0:0:
448,192,204128,1,0,0:0:0:0:
64,192,204228,1,0,0:0:0:0:
320,192,204228,1,0,0:0:0:0:
192,192,204328,1,0,0:0:0:0:
320,192,204428,1,0,0:0:0:0:
448,192,204428,1,0,0:0:0:0:
64,192,204528,1,0,0:0:0:0:
320,192,204628,128,0,204728:0:0:0:0:
64,192,204728,1,0,0:0:0:0:
192,192,204728,1,0,0:0:0:0:
448,192,204828,128,0,204928:0:0:0:0:
192,192,204928,128,0,205028:0:0:0:0:
448,192,205028,1,0,0:0:0:0:
320,192,205028,128,0,205128:0:0:0:0:
64,192,205128,1,0,0:0:0:0:
192,192,205128,128,0,205228:0:0:0:0:
320,192,205228,1,0,0:0:0:0:
448,192,205228,1,0,0:0:0:0:
192,192,205328,1,0,0:0:0:0:
64,192,205328,1,0,0:0:0:0:
64,192,205528,1,0,0:0:0:0:
192,192,205528,1,0,0:0:0:0:
320,192,205628,1,0,0:0:0:0:
448,192,205628,1,0,0:0:0:0:
448,192,205828,1,0,0:0:0:0:
320,192,205828,1,0,0:0:0:0:
192,192,205928,1,0,0:0:0:0:
64,192,205928,1,0,0:0:0:0:
448,192,206028,1,0,0:0:0:0:
64,192,206128,1,0,0:0:0:0:
192,192,206128,1,0,0:0:0:0:
320,192,206228,1,0,0:0:0:0:
448,192,206228,1,0,0:0:0:0:
192,192,206428,1,0,0:0:0:0:
64,192,206428,1,0,0:0:0:0:
320,192,206528,1,0,0:0:0:0:
448,192,206628,1,0,0:0:0:0:
192,192,206728,1,0,0:0:0:0:
64,192,206828,1,0,0:0:0:0:
320,192,206828,1,0,0:0:0:0:
448,192,206828,1,0,0:0:0:0:
64,192,207028,1,0,0:0:0:0:
448,192,207228,1,0,0:0:0:0:
192,192,207428,1,0,0:0:0:0:
320,192,207628,1,0,0:0:0:0:
64,192,207628,1,0,0:0:0:0:
448,192,207628,1,0,0:0:0:0:
192,192,207728,1,0,0:0:0:0:
448,192,207828,1,0,0:0:0:0:
320,192,207878,1,0,0:0:0:0:
64,192,207928,1,0,0:0:0:0:
192,192,207978,1,0,0:0:0:0:
320,192,208028,1,0,0:0:0:0:
448,192,208028,1,0,0:0:0:0:
192,192,208228,1,0,0:0:0:0:
448,192,208428,1,0,0:0:0:0:
64,192,208428,1,0,0:0:0:0:
320,192,208628,1,0,0:0:0:0:
320,192,208828,1,0,0:0:0:0:
192,192,209028,1,0,0:0:0:0:
192,192,209228,1,0,0:0:0:0:
64,192,209228,1,0,0:0:0:0:
448,192,209228,1,0,0:0:0:0:
320,192,209428,1,0,0:0:0:0:
448,192,209478,1,0,0:0:0:0:
192,192,209528,1,0,0:0:0:0:
64,192,209578,1,0,0:0:0:0:
320,192,209628,1,0,0:0:0:0:
192,192,209728,1,0,0:0:0:0:
448,192,209828,1,0,0:0:0:0:
320,192,209878,1,0,0:0:0:0:
64,192,209928,1,0,0:0:0:0:
192,192,209978,1,0,0:0:0:0:
448,192,210028,1,0,0:0:0:0:
320,192,210028,1,0,0:0:0:0:
448,192,210228,1,0,0:0:0:0:
64,192,210428,1,0,0:0:0:0:
64,192,210628,1,0,0:0:0:0:
320,192,210828,1,0,0:0:0:0:
192,192,210828,1,0,0:0:0:0:
448,192,210828,1,0,0:0:0:0:
64,192,210928,1,0,0:0:0:0:
448,192,211028,1,0,0:0:0:0:
320,192,211078,1,0,0:0:0:0:
64,192,211128,1,0,0:0:0:0:
192,192,211178,1,0,0:0:0:0:
320,192,211228,1,0,0:0:0:0:
448,192,211228,1,0,0:0:0:0:
192,192,211428,1,0,0:0:0:0:
64,192,211628,1,0,0:0:0:0:
448,192,211628,1,0,0:0:0:0:
320,192,211828,1,0,0:0:0:0:
320,192,212028,1,0,0:0:0:0:
192,192,212228,1,0,0:0:0:0:
64,192,212228,1,0,0:0:0:0:
64,192,212428,1,0,0:0:0:0:
192,192,212428,1,0,0:0:0:0:
320,192,212428,1,0,0:0:0:0:
448,192,212628,1,0,0:0:0:0:
320,192,212678,1,0,0:0:0:0:
64,192,212728,1,0,0:0:0:0:
192,192,212778,1,0,0:0:0:0:
320,192,212828,1,0,0:0:0:0:
64,192,212928,1,0,0:0:0:0:
448,192,213028,1,0,0:0:0:0:
320,192,213078,1,0,0:0:0:0:
64,192,213128,1,0,0:0:0:0:
192,192,213178,1,0,0:0:0:0:
448,192,213228,1,0,0:0:0:0:
320,192,213228,1,0,0:0:0:0:
448,192,213428,1,0,0:0:0:0:
64,192,213628,1,0,0:0:0:0:
320,192,213828,1,0,0:0:0:0:
64,192,214028,1,0,0:0:0:0:
448,192,214028,1,0,0:0:0:0:
192,192,214028,1,0,0:0:0:0:
320,192,214128,1,0,0:0:0:0:
64,192,214228,1,0,0:0:0:0:
192,192,214278,1,0,0:0:0:0:
448,192,214328,1,0,0:0:0:0:
320,192,214378,1,0,0:0:0:0:
64,192,214428,1,0,0:0:0:0:
192,192,214428,1,0,0:0:0:0:
320,192,214628,1,0,0:0:0:0:
448,192,214828,1,0,0:0:0:0:
64,192,214828,1,0,0:0:0:0:
192,192,215028,1,0,0:0:0:0:
192,192,215228,1,0,0:0:0:0:
320,192,215428,1,0,0:0:0:0:
64,192,215628,1,0,0:0:0:0:
448,192,215628,1,0,0:0:0:0:
320,192,215628,1,0,0:0:0:0:
192,192,215828,1,0,0:0:0:0:
64,192,215878,1,0,0:0:0:0:
320,192,215928,1,0,0:0:0:0:
448,192,215978,1,0,0:0:0:0:
192,192,216028,1,0,0:0:0:0:
320,192,216128,1,0,0:0:0:0:
64,192,216228,1,0,0:0:0:0:
192,192,216278,1,0,0:0:0:0:
448,192,216328,1,0,0:0:0:0:
320,192,216378,1,0,0:0:0:0:
192,192,216428,1,0,0:0:0:0:
64,192,216428,1,0,0:0:0:0:
64,192,216628,1,0,0:0:0:0:
448,192,216828,1,0,0:0:0:0:
448,192,217028,1,0,0:0:0:0:
64,192,217228,1,0,0:0:0:0:
320,192,217228,1,0,0:0:0:0:
192,192,217228,1,0,0:0:0:0:
448,192,217328,1,0,0:0:0:0:
64,192,217428,1,0,0:0:0:0:
192,192,217478,1,0,0:0:0:0:
448,192,217528,1,0,0:0:0:0:
320,192,217578,1,0,0:0:0:0:
64,192,217628,1,0,0:0:0:0:
192,192,217628,1,0,0:0:0:0:
320,192,217828,1,0,0:0:0:0:
64,192,218028,1,0,0:0:0:0:
448,192,218028,1,0,0:0:0:0:
192,192,218228,1,0,0:0:0:0:
192,192,218428,1,0,0:0:0:0:
448,192,218628,1,0,0:0:0:0:
320,192,218628,1,0,0:0:0:0:
192,192,218828,1,0,0:0:0:0:
320,192,218828,1,0,0:0:0:0:
448,192,218828,1,0,0:0:0:0:
64,192,219028,1,0,0:0:0:0:
192,192,219078,1,0,0:0:0:0:
448,192,219128,1,0,0:0:0:0:
320,192,219178,1,0,0:0:0:0:
192,192,219228,1,0,0:0:0:0:
448,192,219328,1,0,0:0:0:0:
64,192,219428,1,0,0:0:0:0:
192,192,219478,1,0,0:0:0:0:
448,192,219528,1,0,0:0:0:0:
320,192,219578,1,0,0:0:0:0:
192,192,219628,1,0,0:0:0:0:
64,192,219628,1,0,0:0:0:0:
64,192,219828,1,0,0:0:0:0:
320,192,220028,1,0,0:0:0:0:
320,192,220228,1,0,0:0:0:0:
448,192,220428,1,0,0:0:0:0:
192,192,220428,1,0,0:0:0:0:
64,192,220428,1,0,0:0:0:0:
320,192,220528,1,0,0:0:0:0:
64,192,220628,1,0,0:0:0:0:
192,192,220678,1,0,0:0:0:0:
448,192,220728,1,0,0:0:0:0:
320,192,220778,1,0,0:0:0:0:
64,192,220828,1,0,0:0:0:0:
192,192,220828,1,0,0:0:0:0:
320,192,221028,1,0,0:0:0:0:
448,192,221228,1,0,0:0:0:0:
64,192,221228,1,0,0:0:0:0:
192,192,221428,1,0,0:0:0:0:
192,192,221628,1,0,0:0:0:0:
320,192,221828,1,0,0:0:0:0:
64,192,222028,1,0,0:0:0:0:
448,192,222028,1,0,0:0:0:0:
320,192,222028,1,0,0:0:0:0:
192,192,222128,1,0,0:0:0:0:
448,192,222228,1,0,0:0:0:0:
320,192,222278,1,0,0:0:0:0:
64,192,222328,1,0,0:0:0:0:
192,192,222378,1,0,0:0:0:0:
320,192,222428,1,0,0:0:0:0:
64,192,222528,1,0,0:0:0:0:
448,192,222628,1,0,0:0:0:0:
320,192,222678,1,0,0:0:0:0:
64,192,222728,1,0,0:0:0:0:
192,192,222778,1,0,0:0:0:0:
448,192,222828,1,0,0:0:0:0:
320,192,222828,1,0,0:0:0:0:
64,192,223028,1,0,0:0:0:0:
64,192,223228,1,0,0:0:0:0:
448,192,223428,1,0,0:0:0:0:
320,192,223628,1,0,0:0:0:0:
448,192,223628,1,0,0:0:0:0:
192,192,223628,1,0,0:0:0:0:
64,192,223728,1,0,0:0:0:0:
320,192,223828,1,0,0:0:0:0:
192,192,223878,1,0,0:0:0:0:
448,192,223928,1,0,0:0:0:0:
320,192,223978,1,0,0:0:0:0:
192,192,224028,1,0,0:0:0:0:
64,192,224028,1,0,0:0:0:0:
320,192,224228,1,0,0:0:0:0:
64,192,224428,1,0,0:0:0:0:
448,192,224428,1,0,0:0:0:0:
192,192,224628,1,0,0:0:0:0:
192,192,224828,1,0,0:0:0:0:
448,192,225028,1,0,0:0:0:0:
320,192,225028,1,0,0:0:0:0:
448,192,225228,1,0,0:0:0:0:
192,192,225228,1,0,0:0:0:0:
64,192,225228,1,0,0:0:0:0:
320,192,225328,1,0,0:0:0:0:
64,192,225428,1,0,0:0:0:0:
192,192,225478,1,0,0:0:0:0:
448,192,225528,1,0,0:0:0:0:
320,192,225578,1,0,0:0:0:0:
64,192,225628,1,0,0:0:0:0:
448,192,225728,1,0,0:0:0:0:
192,192,225828,1,0,0:0:0:0:
320,192,225878,1,0,0:0:0:0:
64,192,225928,1,0,0:0:0:0:
192,192,225978,1,0,0:0:0:0:
320,192,226028,1,0,0:0:0:0:
448,192,226028,1,0,0:0:0:0:
448,192,226228,1,0,0:0:0:0:
64,192,226428,1,0,0:0:0:0:
320,192,226628,1,0,0:0:0:0:
192,192,226828,1,0,0:0:0:0:
448,192,226828,1,0,0:0:0:0:
64,192,226828,1,0,0:0:0:0:
320,192,226928,1,0,0:0:0:0:
64,192,227028,1,0,0:0:0:0:
192,192,227078,1,0,0:0:0:0:
448,192,227128,1,0,0:0:0:0:
320,192,227178,1,0,0:0:0:0:
64,192,227228,1,0,0:0:0:0:
192,192,227228,1,0,0:0:0:0:
320,192,227428,1,0,0:0:0:0:
64,192,227628,1,0,0:0:0:0:
448,192,227628,1,0,0:0:0:0:
192,192,227828,1,0,0:0:0:0:
192,192,228028,1,0,0:0:0:0:
448,192,228228,1,0,0:0:0:0:
320,192,228428,1,0,0:0:0:0:
448,192,228428,1,0,0:0:0:0:
192,192,228428,1,0,0:0:0:0:
64,192,228528,1,0,0:0:0:0:
320,192,228628,1,0,0:0:0:0:
192,192,228678,1,0,0:0:0:0:
448,192,228728,1,0,0:0:0:0:
320,192,228778,1,0,0:0:0:0:
64,192,228828,1,0,0:0:0:0:
448,192,228928,1,0,0:0:0:0:
192,192,229028,1,0,0:0:0:0:
320,192,229078,1,0,0:0:0:0:
64,192,229128,1,0,0:0:0:0:
192,192,229178,1,0,0:0:0:0:
448,192,229228,1,0,0:0:0:0:
320,192,229228,1,0,0:0:0:0:
448,192,229428,1,0,0:0:0:0:
64,192,229628,1,0,0:0:0:0:
64,192,229828,1,0,0:0:0:0:
448,192,230028,1,0,0:0:0:0:
320,192,230028,1,0,0:0:0:0:
192,192,230028,1,0,0:0:0:0:
64,192,230128,1,0,0:0:0:0:
320,192,230228,1,0,0:0:0:0:
192,192,230278,1,0,0:0:0:0:
448,192,230328,1,0,0:0:0:0:
320,192,230378,1,0,0:0:0:0:
192,192,230428,1,0,0:0:0:0:
64,192,230428,1,0,0:0:0:0:
64,192,230628,1,0,0:0:0:0:
320,192,230828,1,0,0:0:0:0:
448,192,230828,1,0,0:0:0:0:
448,192,231028,1,0,0:0:0:0:
448,192,231228,1,0,0:0:0:0:
448,192,231428,1,0,0:0:0:0:
64,192,231428,1,0,0:0:0:0:
448,192,231628,1,0,0:0:0:0:
192,192,231628,1,0,0:0:0:0:
64,192,231628,1,0,0:0:0:0:
320,192,231828,1,0,0:0:0:0:
448,192,231878,1,0,0:0:0:0:
192,192,231928,1,0,0:0:0:0:
64,192,231978,1,0,0:0:0:0:
320,192,232028,1,0,0:0:0:0:
64,192,232228,1,0,0:0:0:0:
192,192,232278,1,0,0:0:0:0:
448,192,232328,1,0,0:0:0:0:
320,192,232378,1,0,0:0:0:0:
192,192,232428,1,0,0:0:0:0:
