osu file format v14

[General]
AudioFilename: audio.mp3
AudioLeadIn: 0
PreviewTime: 83360
Countdown: 0
SampleSet: Soft
StackLeniency: 0.7
Mode: 0
LetterboxInBreaks: 0
WidescreenStoryboard: 0

[Editor]
DistanceSpacing: 1
BeatDivisor: 2
GridSize: 8
TimelineZoom: 1

[Metadata]
Title:Burnt Rice (feat. Yung GEMMY)
TitleUnicode:Burnt Rice (feat. Yung GEMMY)
Artist:Shawn Wasabi + YDG
ArtistUnicode:Shawn Wasabi + YDG
Creator:Spork Lover
Version:Easy
Source:
Tags:Electronic Dance DeRandom Otaku Ren sssshawnnnn
BeatmapID:1199810
BeatmapSetID:566394

[Difficulty]
HPDrainRate:2.1
CircleSize:2.6
OverallDifficulty:2.1
ApproachRate:3.1
SliderMultiplier:0.85
SliderTickRate:1

[Events]
//Background and Video events
0,0,"burnt rice.jpg",0,0
//Break Periods
2,22066,23438
2,60866,63938
2,67066,68438
2,114691,115860
//Storyboard Layer 0 (Background)
//Storyboard Layer 1 (Fail)
//Storyboard Layer 2 (Pass)
//Storyboard Layer 3 (Foreground)
//Storyboard Sound Samples

[TimingPoints]
866,375,4,2,2,80,1,0
5366,-100,4,2,1,80,0,0
12866,-100,4,2,2,80,0,0
13241,-100,4,2,1,80,0,0
16991,-100,4,2,3,80,0,0
17366,-100,4,2,1,80,0,0
18491,-100,4,3,2,80,0,0
18866,-100,4,2,2,80,0,0
19241,-100,4,2,1,80,0,0
21116,-100,4,3,2,80,0,0
21491,-100,4,2,1,50,0,0
21866,-100,4,2,2,85,0,0
24866,-100,4,2,2,90,0,0
25241,-100,4,2,5,75,0,0
30116,-100,4,2,2,75,0,0
30491,-100,4,2,5,75,0,0
30866,-100,4,2,5,75,0,0
33116,-100,4,2,2,75,0,0
33491,-100,4,2,5,75,0,0
33866,-100,4,2,5,60,0,0
36866,-100,4,2,1,60,0,0
37991,-100,4,3,1,90,0,1
42866,-100,4,3,1,90,0,0
43616,-100,4,3,1,90,0,1
45866,-100,4,3,3,90,0,1
48866,-100,4,3,1,90,0,0
49991,-100,4,3,1,90,0,1
54116,-100,4,3,1,90,0,0
55991,-100,4,3,1,90,0,1
57866,-100,4,3,3,90,0,1
59366,-100,4,3,3,90,0,0
64991,-100,4,2,1,75,0,0
66866,-100,4,3,2,75,0,0
69866,-100,4,2,1,75,0,0
72116,-100,4,2,1,60,0,0
72866,-100,4,2,5,75,0,0
78116,-100,4,2,2,90,0,0
78491,-100,4,2,5,75,0,0
78866,-100,4,2,5,75,0,0
84866,-100,4,3,1,50,0,0
85991,-100,4,3,1,90,0,1
90866,-100,4,3,1,90,0,0
91991,-100,4,3,1,90,0,1
93866,-100,4,3,3,90,0,1
96866,-100,4,3,1,90,0,0
97991,-100,4,2,1,90,0,1
103991,-100,4,3,1,90,0,1
104178,-100,4,2,1,90,0,1
107366,-100,4,2,1,90,0,0
108866,-100,4,2,1,90,0,1
114491,-100,4,3,2,90,0,0
117288,487.80487804878,4,2,1,65,1,0

[Colours]
Combo1 : 174,189,189
Combo2 : 255,255,43
Combo3 : 0,202,202
Combo4 : 226,224,156
Combo5 : 167,213,216
Combo6 : 156,156,146

[HitObjects]
164,242,866,6,2,B|208:236|237:210|237:210|310:211|351:260,1,170,2|0,0:0|0:0,0:0:0:0:
442,353,2366,2,0,P|471:313|482:263,1,85,0|0,0:0|0:0,0:0:0:0:
481,194,3116,1,0,0:0:0:0:
321,233,3866,6,2,B|315:189|289:160|289:160|290:87|339:46,1,170,2|0,0:0|0:0,0:0:0:0:
482,82,5366,2,0,B|485:123|485:123|465:161,1,85,0|0,0:0|0:0,0:0:0:0:
402,221,6116,2,0,B|364:238|364:238|288:229,1,85,0|0,0:0|0:0,0:0:0:0:
264,168,6866,6,2,P|229:145|111:194,1,170
111,267,7991,1,2,0:0:0:0:
193,288,8366,2,0,P|232:308|268:346,2,85,0|2|2,0:0|0:0|0:0,0:0:0:0:
111,267,9491,1,2,0:0:0:0:
117,182,9866,6,2,P|186:139|264:168,1,170
321,230,10991,1,2,0:0:0:0:
381,170,11366,2,0,P|398:127|391:75,2,85,0|2|2,0:0|0:0|0:0,0:0:0:0:
321,230,12491,1,2,0:0:0:0:
348,310,12866,6,2,L|435:356,1,85,2|0,0:0|0:0,0:0:0:0:
480,286,13616,2,8,L|393:240,1,85,8|0,0:0|0:0,0:0:0:0:
321,230,14366,1,0,0:0:0:0:
265,294,14741,1,0,0:0:0:0:
180,304,15116,2,8,P|134:296|86:270,1,85,8|0,0:0|0:0,0:0:0:0:
30,229,15866,6,2,B|61:195|54:150,1,85,2|0,0:0|0:0,0:0:0:0:
41,65,16616,2,8,B|86:58|120:91,1,85,8|2,0:0|0:0,0:0:0:0:
159,164,17366,1,0,0:0:0:0:
223,219,17741,1,0,0:0:0:0:
306,234,18116,2,8,P|351:225|413:190,1,85,8|4,0:0|0:0,0:0:0:0:
452,155,18866,6,2,B|469:193|469:193|467:234,2,85,2|0|8,0:0|0:0|0:0,0:0:0:0:
396,92,19991,1,0,0:0:0:0:
325,140,20366,2,2,P|283:157|219:155,1,85,0|2,0:0|0:0,0:0:0:0:
181,102,21116,2,4,P|139:85|75:87,1,85,4|8,0:0|0:0,0:0:0:0:
26,125,21866,5,2,0:0:0:0:
367,247,24866,6,2,B|373:293|373:293|357:362,2,85,2|0|2,0:0|0:0|0:0,0:0:0:0:
316,178,25991,1,0,0:0:0:0:
268,245,26366,2,0,B|262:291|262:291|278:360,2,85,0|0|2,0:0|0:0|0:0,0:0:0:0:
316,178,27491,1,2,0:0:0:0:
253,120,27866,6,0,P|198:90|82:89,1,170,0|2,0:0|0:0,0:0:0:0:
13,116,28991,1,0,0:0:0:0:
75,173,29366,2,0,P|130:203|246:204,1,170,0|2,0:0|0:0,0:0:0:0:
316,178,30491,1,2,0:0:0:0:
370,113,30866,6,0,B|386:73|386:73|380:20,2,85,0|0|2,0:0|0:0|0:0,0:0:0:0:
316,178,31991,1,0,0:0:0:0:
367,245,32366,2,0,B|383:285|383:285|377:338,2,85,0|0|2,0:0|0:0|0:0,0:0:0:0:
316,178,33491,1,2,0:0:0:0:
256,192,33866,12,0,35366,0:0:0:0:
268,46,36866,6,0,P|274:103|165:165,1,170
109,154,37991,1,4,0:0:0:0:
135,234,38366,2,0,B|171:260|214:253|214:253|240:301|286:308,1,170,0|8,0:0|0:0,0:0:0:0:
362,292,39491,1,4,0:0:0:0:
360,207,39866,6,0,B|369:170|408:140|408:140|392:99|339:91,1,170,0|8,0:0|0:0,0:0:0:0:
258,82,40991,1,4,0:0:0:0:
195,139,41366,2,0,B|177:179|199:232,1,85,0|0,0:0|0:0,0:0:0:0:
179,306,42116,2,8,B|148:341|105:345,1,85,8|4,0:0|0:0,0:0:0:0:
21,344,42866,6,0,B|18:301|54:269|54:269|69:217|33:164,1,170,0|8,0:0|0:0,0:0:0:0:
5,111,43991,1,4,0:0:0:0:
89,112,44366,2,0,B|140:118|165:148|165:148|215:161|245:130,1,170,0|8,0:0|0:0,0:0:0:0:
283,57,45491,1,4,0:0:0:0:
256,192,45866,12,0,47366,0:0:0:0:
177,109,48866,6,0,P|230:111|298:24,1,170,0|8,0:0|0:0,0:0:0:0:
210,23,49991,1,4,0:0:0:0:
124,34,50366,2,0,B|88:72|87:113|87:113|104:171|65:223,1,170,0|8,0:0|0:0,0:0:0:0:
106,274,51491,1,4,0:0:0:0:
168,215,51866,6,0,B|190:187|242:180|242:180|282:196|327:188,1,170,0|8,0:0|0:0,0:0:0:0:
365,112,52991,1,4,0:0:0:0:
309,47,53366,2,0,P|269:32|227:33,1,85,0|0,0:0|0:0,0:0:0:0:
156,82,54116,2,8,P|145:122|118:158,1,85,8|0,0:0|0:0,0:0:0:0:
37,176,54866,6,0,P|32:256|96:232,1,170,0|8,0:0|0:0,0:0:0:0:
120,157,55991,1,4,0:0:0:0:
175,221,56366,2,0,B|204:241|257:235|257:235|292:210|337:207,1,170,0|8,0:0|0:0,0:0:0:0:
412,245,57491,1,4,0:0:0:0:
256,192,57866,12,0,59366,0:0:0:0:
223,223,65366,6,0,P|215:275|177:317,2,85,2|0|2,0:0|0:0|0:0,0:0:0:0:
299,185,66491,2,0,L|400:187,1,85,0|2,0:0|0:0,0:0:0:0:
341,156,69866,6,0,B|359:239|359:239|338:322,1,170,4|0,0:0|0:0,0:0:0:0:
167,321,71366,2,0,B|146:238|146:238|164:155,1,170,4|0,0:0|2:0,0:0:0:0:
310,64,72866,6,0,B|347:42|347:42|399:38,2,85,0|0|2,0:0|0:0|0:0,0:0:0:0:
255,129,73991,1,0,0:0:0:0:
204,60,74366,2,0,B|166:37|166:37|114:32,1,85,0|0,0:0|0:0,0:0:0:0:
95,113,75116,2,2,B|131:134|131:134|183:139,1,85
255,129,75866,6,0,B|277:174|309:191|309:191|338:244|332:297,1,170,0|2,0:0|0:0,0:0:0:0:
326,358,76991,1,0,0:0:0:0:
241,366,77366,2,0,B|200:367|159:343|159:343|141:311|95:290,1,170,0|2,0:0|0:0,0:0:0:0:
66,210,78491,1,2,0:0:0:0:
150,203,78866,6,0,P|191:191|228:153,2,85,0|0|2,0:0|0:0|0:0,0:0:0:0:
66,210,79991,1,0,0:0:0:0:
57,125,80366,2,0,P|68:83|106:46,1,85,0|0,0:0|0:0,0:0:0:0:
181,53,81116,2,0,P|221:65|262:59,1,85,2|0,0:0|0:0,0:0:0:0:
256,192,81866,12,0,83366,0:0:0:0:
227,168,84866,6,0,P|227:112|211:56,1,85,0|0,0:0|0:0,0:0:0:0:
155,29,85616,1,8,0:0:0:0:
97,91,85991,2,4,B|83:139|88:180|88:180|122:220|135:277,1,170,4|0,0:0|0:0,0:0:0:0:
201,290,87116,2,8,P|243:290|282:274,1,85,8|4,0:0|0:0,0:0:0:0:
307,193,87866,6,0,B|301:148|324:111,1,85,0|0,0:0|0:0,0:0:0:0:
316,27,88616,2,8,B|358:29|392:59|392:59|433:77,1,127.5,8|0,0:0|0:0,0:0:0:0:
510,44,89553,6,0,B|534:111|466:159,1,127.5,0|8,0:0|0:0,0:0:0:0:
394,191,90491,1,4,0:0:0:0:
463,239,90866,6,0,B|498:274|495:337,1,85,0|0,0:0|0:0,0:0:0:0:
444,383,91616,1,8,0:0:0:0:
370,340,91991,2,4,B|335:320|294:322|294:322|242:300|216:243,1,170,4|0,0:0|0:0,0:0:0:0:
210,179,93116,1,8,0:0:0:0:
256,192,93866,12,0,95366,0:0:0:0:
209,149,96866,6,0,P|258:125|282:92,1,85,0|0,0:0|0:0,0:0:0:0:
308,22,97616,1,0,0:0:0:0:
370,80,97991,2,0,B|376:128|357:164|357:164|353:210|398:272,1,170
440,302,99116,1,8,0:0:0:0:
358,324,99491,1,0,0:0:0:0:
280,359,99866,6,2,B|240:366|240:366|178:353,1,85,2|0,0:0|0:0,0:0:0:0:
132,300,100616,1,8,0:0:0:0:
211,269,100991,2,0,B|241:233|243:189|243:189|287:167|299:115,1,170,0|0,0:0|0:0,0:0:0:0:
348,60,102116,2,0,P|308:45|266:47,1,85,8|0,0:0|0:0,0:0:0:0:
210,110,102866,6,0,P|158:110|118:90,1,85,2|0,0:0|0:0,0:0:0:0:
62,41,103616,1,8,0:0:0:0:
46,124,103991,2,0,B|34:170|58:208|58:208|66:254|45:297,1,170,4|0,0:0|0:0,0:0:0:0:
0,359,105116,1,8,0:0:0:0:
84,368,105491,1,0,0:0:0:0:
256,192,105866,12,0,107366,0:0:0:0:
432,316,108866,6,0,P|400:344|360:355,1,85,2|0,0:0|0:0,0:0:0:0:
287,310,109616,2,0,P|278:268|289:228,1,85
363,185,110366,2,0,P|403:198|432:227,2,85,2|0|0,0:0|0:0|0:0,0:0:0:0:
289,227,111491,1,2,0:0:0:0:
271,143,111866,6,0,P|271:100|254:62,1,85,2|0,0:0|0:0,0:0:0:0:
173,36,112616,2,0,P|135:56|111:90,1,85
127,174,113366,2,0,P|163:196|204:199,2,85,2|0|0,0:0|0:0|0:0,0:0:0:0:
45,149,114491,1,4,0:0:0:0:
382,162,117288,6,0,B|358:187|391:214|386:235|386:235|366:257|366:257|365:277,2,127.5,2|0|0,0:0|0:0|0:0,0:0:0:0:
355,81,119239,2,0,B|335:82|335:82|313:102|313:102|293:110|265:74|242:134,1,127.5,2|0,0:0|0:0,0:0:0:0:
