osu file format v14

[General]
AudioFilename: Shawn Wasabi + YDG - Burnt Rice (feat. YUNG GEMMY).mp3
AudioLeadIn: 0
PreviewTime: 35687
Countdown: 1
SampleSet: Soft
StackLeniency: 0.7
Mode: 0
LetterboxInBreaks: 0
WidescreenStoryboard: 0

[Editor]
Bookmarks: 25702,37187,61187
DistanceSpacing: 2.1
BeatDivisor: 4
GridSize: 4
TimelineZoom: 4.399998

[Metadata]
Title:Burnt Rice (feat. YUNG GEMMY)
TitleUnicode:Burnt Rice (feat. YUNG GEMMY)
Artist:Shawn Wasabi + YDG
ArtistUnicode:Shawn Wasabi + YDG
Creator:Thievley
Version:Insane
Source:
Tags:
BeatmapID:874365
BeatmapSetID:402020

[Difficulty]
HPDrainRate:6
CircleSize:4
OverallDifficulty:7
ApproachRate:9.3
SliderMultiplier:1.4
SliderTickRate:1

[Events]
//Background and Video events
0,0,"IA2.jpg",0,0
//Break Periods
//Storyboard Layer 0 (Background)
//Storyboard Layer 1 (Fail)
//Storyboard Layer 2 (Pass)
//Storyboard Layer 3 (Foreground)
//Storyboard Sound Samples

[TimingPoints]
1187,375,4,2,0,90,1,0
2124,-100,4,2,0,11,0,0
2312,-100,4,2,0,100,0,0
2499,-100,4,2,0,11,0,0
2687,-100,4,2,0,100,0,0
3624,-100,4,2,0,11,0,0
3812,-100,4,2,0,100,0,0
3999,-100,4,2,0,11,0,0
4187,-100,4,2,0,100,0,0
5124,-100,4,2,0,11,0,0
5312,-100,4,2,0,100,0,0
5499,-100,4,2,0,11,0,0
5687,-100,4,2,0,100,0,0
6624,-100,4,2,0,11,0,0
6812,-100,4,2,0,100,0,0
6999,-100,4,2,0,11,0,0
7187,-100,4,2,0,90,0,0
25187,-100,4,2,0,90,0,0
38687,-100,4,2,0,90,0,1
55187,-100,4,2,0,90,0,1
61187,-100,4,2,0,90,0,0
86687,-100,4,2,0,90,0,1
109187,-100,4,2,0,90,0,0
110124,-100,4,2,0,11,0,0
110312,-100,4,2,0,100,0,0
110499,-100,4,2,0,11,0,0
110687,-100,4,2,0,100,0,0
111624,-100,4,2,0,11,0,0
111812,-100,4,2,0,100,0,0
111999,-100,4,2,0,11,0,0
112093,-100,4,2,0,100,0,0
113124,-100,4,2,0,11,0,0
113312,-100,4,2,0,100,0,0
113499,-100,4,2,0,11,0,0
113687,-100,4,2,0,100,0,0
114624,-100,4,2,0,11,0,0
114812,-100,4,2,0,100,0,0
114999,-100,4,2,0,11,0,0
115187,-100,4,2,0,100,0,0

[Colours]
Combo1 : 190,208,211
Combo2 : 155,227,176
Combo3 : 135,140,192
Combo4 : 241,237,150

[HitObjects]
176,96,1187,5,0,0:0:0:0:
72,160,1562,1,0,0:0:0:0:
72,160,1749,1,0,0:0:0:0:
168,244,1937,2,0,P|208:252|256:244,1,70
304,140,2312,2,0,P|269:134|235:136,1,70
320,228,2687,5,0,0:0:0:0:
400,132,2874,1,0,0:0:0:0:
476,232,3062,1,0,0:0:0:0:
400,132,3249,1,0,0:0:0:0:
236,136,3437,2,0,P|188:88|180:64,1,70
292,16,3812,2,0,P|324:40|348:80,1,70
320,228,4187,5,0,0:0:0:0:
188,196,4562,1,0,0:0:0:0:
188,196,4749,1,0,0:0:0:0:
76,256,4937,2,0,P|44:248|4:208,1,70
55,110,5312,2,0,P|95:126|127:158,1,70
156,264,5687,5,0,0:0:0:0:
116,144,5874,1,0,0:0:0:0:
20,228,6062,1,0,0:0:0:0:
120,148,6249,1,0,0:0:0:0:
248,252,6437,2,0,B|256:188|256:188|256:188|272:172,1,70
148,328,6812,2,0,B|156:264|156:264|156:264|172:248,1,70
336,308,7187,5,0,0:0:0:0:
336,308,7562,2,0,P|392:308|432:300,1,70
500,192,7937,1,0,0:0:0:0:
356,216,8124,2,0,L|364:232,2,17.5
356,216,8312,2,0,P|324:160|332:96,1,105
380,72,8687,5,0,0:0:0:0:
224,40,8874,2,0,L|224:64,2,17.5
224,40,9062,2,0,B|168:40|168:40|128:56,1,70
64,208,9437,2,0,L|104:208,1,35
416,208,9812,2,0,L|456:208,1,35
224,128,10187,5,0,0:0:0:0:
224,128,10562,2,0,P|168:128|128:136,1,70
40,200,10937,1,0,0:0:0:0:
128,32,11124,2,0,L|104:32,2,17.5
128,32,11312,2,0,P|160:88|152:152,1,105
136,224,11687,5,0,0:0:0:0:
288,280,11874,2,0,L|288:248,2,17.5
288,288,12062,2,0,B|344:288|344:288|384:272,1,70
360,88,12437,2,0,B|304:88|304:88|264:104,1,70
192,200,12812,1,0,0:0:0:0:
368,192,12999,1,0,0:0:0:0:
136,112,13187,5,0,0:0:0:0:
136,112,13374,1,0,0:0:0:0:
136,296,13562,2,0,P|192:304|216:296,1,70
328,192,13937,2,0,B|352:184|352:184|472:184,1,140
360,336,14499,1,0,0:0:0:0:
360,344,14687,5,0,0:0:0:0:
256,176,14874,1,0,0:0:0:0:
256,176,15062,1,0,0:0:0:0:
464,224,15249,1,0,0:0:0:0:
432,104,15437,2,0,P|400:96|352:112,1,70
288,256,15812,2,0,P|248:264|200:248,1,70
88,88,16187,6,0,P|88:40|104:-8,2,70
176,64,16749,1,0,0:0:0:0:
72,240,16937,2,0,P|128:248|160:240,1,70
280,304,17312,1,0,0:0:0:0:
280,312,17499,1,0,0:0:0:0:
432,192,17687,6,0,P|400:136|376:120,1,70
256,48,18062,1,0,0:0:0:0:
328,184,18249,1,0,0:0:0:0:
232,144,18437,2,0,B|176:144|176:144|152:160,1,70
112,240,18812,1,0,0:0:0:0:
120,272,18999,1,0,0:0:0:0:
256,344,19187,6,0,L|328:344,1,70
336,232,19562,1,0,0:0:0:0:
432,328,19749,1,0,0:0:0:0:
464,120,19937,2,0,P|464:72|432:16,1,105
336,8,20312,1,0,0:0:0:0:
464,128,20499,1,0,0:0:0:0:
248,248,20687,6,0,P|237:214|242:180,1,70
352,208,21062,1,0,0:0:0:0:
352,208,21249,1,0,0:0:0:0:
152,288,21437,2,0,L|72:288,1,70
200,80,21812,5,0,0:0:0:0:
232,80,21905,1,0,0:0:0:0:
264,80,21999,1,0,0:0:0:0:
304,80,22093,1,0,0:0:0:0:
336,80,22187,1,0,0:0:0:0:
256,192,23687,12,0,24999,0:0:0:0:
160,120,25187,6,0,L|240:120,1,70
128,232,25562,2,0,L|48:232,1,70
312,144,25937,2,0,P|312:104|296:72,1,70
280,296,26312,2,0,L|264:256,1,35
136,128,26499,2,0,L|120:88,1,35
72,280,26687,6,0,P|112:280|152:264,1,70
288,176,27062,2,0,P|248:176|208:192,1,70
304,328,27437,2,0,L|376:328,1,70
426,257,27718,2,0,L|498:257,1,70
312,320,27999,1,0,0:0:0:0:
296,176,28187,6,0,L|296:104,1,70
176,32,28562,2,0,L|176:112,1,70
132,270,28937,2,0,P|172:278|204:270,1,70
275,227,29218,2,0,L|275:179,2,35
160,184,29499,2,0,P|160:144|160:144,1,35
238,107,29687,6,0,P|286:99|318:107,1,70
400,192,30062,2,0,P|440:200|480:192,1,70
368,51,30437,2,0,L|368:131,1,70
406,200,30718,2,0,L|406:280,1,70
208,232,30999,1,0,0:0:0:0:
208,232,31093,1,0,0:0:0:0:
208,232,31187,6,0,P|160:240|136:232,1,70
72,152,31562,2,0,P|68:117|76:83,1,70
224,72,31937,2,0,P|231:111|224:152,1,70
108,270,32312,1,0,0:0:0:0:
282,274,32499,1,0,0:0:0:0:
64,184,32687,6,0,L|63:111,1,70
176,88,33062,2,0,L|176:8,1,70
296,128,33437,2,0,P|336:136|376:128,1,70
440,88,33718,2,0,P|448:128|438:173,1,70
400,248,33999,1,0,0:0:0:0:
256,192,34187,12,0,35687,0:0:0:0:
296,128,37187,5,0,0:0:0:0:
296,128,37468,1,0,0:0:0:0:
296,128,37749,1,0,0:0:0:0:
224,328,37937,1,0,0:0:0:0:
56,240,38124,1,0,0:0:0:0:
152,224,38312,2,0,P|160:192|160:144,1,70
120,88,38593,1,0,0:0:0:0:
120,88,38687,6,0,P|174:76|222:100,1,105
272,160,39062,2,0,L|272:232,1,70
416,184,39437,2,0,L|416:104,1,70
496,288,39812,1,0,0:0:0:0:
304,192,39999,1,0,0:0:0:0:
304,192,40093,1,0,0:0:0:0:
304,192,40187,6,0,P|264:200|192:184,1,105
120,224,40562,2,0,P|111:190|118:156,1,70
189,83,40937,1,0,0:0:0:0:
201,188,41124,1,0,0:0:0:0:
304,72,41312,2,0,L|384:72,1,70
456,32,41593,1,0,0:0:0:0:
456,32,41687,6,0,P|464:64|417:137,1,105
434,126,42062,1,0,0:0:0:0:
259,129,42249,1,0,0:0:0:0:
336,280,42437,2,0,P|296:288|264:280,1,70
256,280,42718,1,0,0:0:0:0:
240,272,42812,1,0,0:0:0:0:
152,181,42999,1,0,0:0:0:0:
64,224,43187,6,0,P|59:153|83:112,2,105
168,288,43937,1,0,0:0:0:0:
291,165,44124,1,0,0:0:0:0:
168,281,44312,1,0,0:0:0:0:
243,84,44499,1,0,0:0:0:0:
243,84,44593,1,0,0:0:0:0:
243,84,44687,6,0,P|295:74|355:94,1,105
421,129,45062,2,0,P|453:129|493:105,1,70
416,32,45437,1,0,0:0:0:0:
304,152,45624,1,0,0:0:0:0:
432,256,45812,1,0,0:0:0:0:
304,152,45999,2,0,L|304:104,1,35
192,168,46187,6,0,L|192:216,5,35
152,352,46749,2,0,L|152:304,1,35
80,232,46937,2,0,L|80:192,5,35
200,256,47499,2,0,L|235:256,1,35
335,327,47687,6,0,L|375:327,7,35
417,253,48437,6,0,L|337:253,1,70
263,279,48718,2,0,L|212:279,3,35
249,188,49187,5,0,0:0:0:0:
249,188,49468,5,0,0:0:0:0:
249,188,49749,5,0,0:0:0:0:
112,267,49937,1,0,0:0:0:0:
154,97,50124,1,0,0:0:0:0:
314,246,50312,2,0,P|330:206|330:174,1,70
283,99,50593,1,0,0:0:0:0:
283,99,50687,6,0,P|315:91|387:105,1,105
458,152,51062,2,0,P|466:128|458:72,1,70
344,176,51437,1,0,0:0:0:0:
493,265,51624,1,0,0:0:0:0:
339,349,51812,2,0,P|347:325|339:269,1,70
264,312,52093,1,0,0:0:0:0:
264,312,52187,6,0,P|200:320|152:312,1,105
80,288,52562,2,0,L|80:360,1,70
176,216,52937,2,0,L|176:144,1,70
320,210,53312,1,0,0:0:0:0:
275,295,53499,1,0,0:0:0:0:
293,299,53593,1,0,0:0:0:0:
307,303,53687,6,0,P|349:301|383:285,1,70
440,219,53968,2,0,L|399:205,1,35
320,128,54249,1,0,0:0:0:0:
208,272,54437,2,0,P|176:248|160:208,1,70
146,135,54718,2,0,L|146:87,2,35
256,72,54999,2,0,L|304:72,1,35
368,120,55187,6,0,P|376:88|360:16,2,105
224,224,55937,2,0,L|224:304,1,70
432,288,56312,1,0,0:0:0:0:
360,128,56499,1,0,0:0:0:0:
360,128,56593,1,0,0:0:0:0:
360,128,56687,6,0,P|320:112|256:128,1,105
192,184,57062,2,0,P|160:184|120:168,1,70
168,96,57437,1,0,0:0:0:0:
16,184,57624,1,0,0:0:0:0:
88,56,57812,2,0,P|112:32|160:16,1,70
256,48,58093,6,0,L|312:48,1,35
256,192,58374,12,0,59687,0:0:0:0:
256,40,61187,5,0,0:0:0:0:
256,40,61562,1,0,0:0:0:0:
256,40,61937,1,0,0:0:0:0:
464,152,62312,1,0,0:0:0:0:
456,128,62499,1,0,0:0:0:0:
344,232,62687,6,0,B|296:256|248:216|200:248,2,140
392,56,63718,2,0,P|320:40|280:56,1,105
200,128,64187,6,0,B|183:148|183:148|125:108|64:160,3,140
128,208,65499,1,0,0:0:0:0:
369,60,65687,6,0,P|376:94|368:128,1,70
205,121,66062,2,0,P|208:87|224:56,1,70
416,200,66437,1,0,0:0:0:0:
408,248,66531,1,0,0:0:0:0:
368,280,66625,1,0,0:0:0:0:
328,288,66718,1,0,0:0:0:0:
280,280,66812,1,0,0:0:0:0:
240,272,66906,1,0,0:0:0:0:
200,280,67000,1,0,0:0:0:0:
168,296,67093,1,0,0:0:0:0:
120,312,67187,6,0,B|99:282|99:282|131:229|97:169,3,140
32,232,68499,1,0,0:0:0:0:
96,64,68687,5,0,0:0:0:0:
96,64,68780,1,0,0:0:0:0:
96,64,68874,1,0,0:0:0:0:
232,112,69062,2,0,P|264:120|312:112,1,70
456,24,69437,2,0,L|416:24,2,35
424,136,69718,1,0,0:0:0:0:
424,136,69812,2,0,L|424:208,1,70
307,283,70187,6,0,P|191:273|149:298,1,140
83,355,70749,1,0,0:0:0:0:
168,193,70937,2,0,P|188:124|181:54,1,140
32,158,71499,1,0,0:0:0:0:
178,194,71687,6,0,L|261:191,1,70
420,250,72062,2,0,L|361:252,2,35
280,136,72437,2,0,L|360:136,1,70
186,189,72718,2,0,L|64:187,1,105
352,264,73187,6,0,L|272:264,1,70
384,152,73562,2,0,L|464:152,1,70
200,240,73937,2,0,P|200:280|216:312,1,70
232,88,74312,2,0,L|248:128,1,35
376,256,74499,2,0,L|392:296,1,35
440,104,74687,6,0,P|400:104|360:120,1,70
224,208,75062,2,0,P|264:208|304:192,1,70
208,56,75437,2,0,L|136:56,1,70
87,127,75718,2,0,L|15:127,1,70
200,64,75999,1,0,0:0:0:0:
216,208,76187,6,0,L|216:280,1,70
336,352,76562,2,0,L|336:272,1,70
354,107,76937,2,0,P|314:99|282:107,1,70
216,158,77218,2,0,L|216:206,2,35
317,180,77499,2,0,P|317:220|317:220,1,35
272,291,77687,6,0,P|224:299|192:291,1,70
112,192,78062,2,0,P|72:184|32:192,1,70
179,298,78437,2,0,L|179:218,1,70
112,192,78718,2,0,L|112:112,1,70
304,152,78999,1,0,0:0:0:0:
304,152,79093,1,0,0:0:0:0:
304,152,79187,6,0,P|352:144|376:152,1,70
452,235,79562,2,0,P|456:270|448:304,1,70
288,296,79937,2,0,P|280:256|288:224,1,70
421,115,80312,1,0,0:0:0:0:
246,113,80499,1,0,0:0:0:0:
448,200,80687,6,0,L|449:273,1,70
344,256,81062,2,0,L|344:336,1,70
216,256,81437,2,0,P|176:248|136:256,1,70
72,304,81718,2,0,P|64:264|64:224,1,70
112,136,81999,1,0,0:0:0:0:
256,192,82187,12,0,83687,0:0:0:0:
216,240,85187,5,0,0:0:0:0:
216,240,85468,1,0,0:0:0:0:
216,240,85749,1,0,0:0:0:0:
288,40,85937,1,0,0:0:0:0:
456,128,86124,1,0,0:0:0:0:
360,144,86312,2,0,P|352:176|352:224,1,70
392,288,86593,1,0,0:0:0:0:
392,288,86687,6,0,P|338:300|290:276,1,105
246,206,87062,2,0,L|246:134,1,70
96,184,87437,2,0,L|96:264,1,70
16,80,87812,1,0,0:0:0:0:
208,176,87999,1,0,0:0:0:0:
208,176,88093,1,0,0:0:0:0:
208,176,88187,6,0,P|248:168|320:184,1,105
385,211,88562,2,0,P|392:177|384:144,1,70
328,293,88937,1,0,0:0:0:0:
311,180,89124,1,0,0:0:0:0:
208,296,89312,2,0,L|128:296,1,70
138,296,89593,1,0,0:0:0:0:
184,32,89874,5,0,0:0:0:0:
64,128,90062,1,0,0:0:0:0:
184,32,90249,1,0,0:0:0:0:
64,128,90437,1,0,0:0:0:0:
296,176,90624,1,0,0:0:0:0:
296,176,90718,1,0,0:0:0:0:
296,176,90812,1,0,0:0:0:0:
368,32,90999,1,0,0:0:0:0:
461,127,91187,6,0,P|480:190|477:243,2,105
368,28,91937,1,0,0:0:0:0:
383,201,92124,1,0,0:0:0:0:
461,127,92312,1,0,0:0:0:0:
280,304,92499,1,0,0:0:0:0:
280,304,92593,1,0,0:0:0:0:
280,304,92687,6,0,P|226:316|176:304,1,105
110,250,93062,2,0,P|78:250|38:274,1,70
98,342,93437,1,0,0:0:0:0:
208,216,93624,1,0,0:0:0:0:
80,112,93812,1,0,0:0:0:0:
208,232,93999,2,0,L|208:280,1,35
320,216,94187,6,0,L|320:168,5,35
360,32,94749,2,0,L|360:80,1,35
432,152,94937,2,0,L|432:192,5,35
312,128,95499,2,0,L|277:128,1,35
176,56,95687,6,0,L|136:56,7,35
64,135,96437,6,0,L|144:135,1,70
160,256,96718,2,0,L|120:256,3,35
256,192,97187,1,0,0:0:0:0:
256,192,97468,5,0,0:0:0:0:
256,192,97562,2,0,L|256:152,2,35
368,256,97937,5,0,0:0:0:0:
376,264,98030,1,0,0:0:0:0:
376,264,98124,1,0,0:0:0:0:
176,128,98312,2,0,P|160:168|160:200,1,70
213,270,98593,1,0,0:0:0:0:
213,270,98687,6,0,P|181:278|108:257,1,105
50,152,99062,2,0,L|50:200,2,35
184,200,99437,1,0,0:0:0:0:
184,200,99530,1,0,0:0:0:0:
184,200,99624,1,0,0:0:0:0:
163,25,99812,2,0,P|155:49|163:105,1,70
248,56,100093,1,0,0:0:0:0:
248,56,100187,6,0,P|312:48|360:56,1,105
432,120,100562,2,0,L|480:128,2,35
353,227,100937,1,0,0:0:0:0:
353,227,101030,1,0,0:0:0:0:
353,227,101124,1,0,0:0:0:0:
264,75,101312,1,0,0:0:0:0:
122,176,101499,1,0,0:0:0:0:
122,176,101593,1,0,0:0:0:0:
122,176,101687,6,0,P|114:200|133:290,1,105
199,230,102062,2,0,P|232:227|290:236,1,70
431,315,102437,1,0,0:0:0:0:
431,315,102530,1,0,0:0:0:0:
431,315,102624,1,0,0:0:0:0:
431,315,102718,2,0,L|431:363,2,35
272,344,102999,2,0,L|224:344,1,35
102,357,103187,6,0,P|87:307|96:256,1,105
208,184,103562,2,0,L|256:184,2,35
56,144,103937,1,0,0:0:0:0:
56,144,104030,1,0,0:0:0:0:
56,144,104124,1,0,0:0:0:0:
168,56,104312,1,0,0:0:0:0:
152,240,104499,1,0,0:0:0:0:
152,240,104593,1,0,0:0:0:0:
152,240,104687,6,0,P|192:256|256:240,1,105
302,172,105062,2,0,L|375:170,1,70
401,342,105437,1,0,0:0:0:0:
401,342,105530,1,0,0:0:0:0:
401,342,105624,1,0,0:0:0:0:
250,243,105812,2,0,P|212:239|167:249,1,70
97,272,106093,1,0,0:0:0:0:
97,272,106187,6,0,B|113:240|89:200|113:160,1,105
177,115,106562,2,0,P|161:91|153:83,2,35
303,237,106937,1,0,0:0:0:0:
303,237,107030,1,0,0:0:0:0:
303,237,107124,1,0,0:0:0:0:
128,259,107312,2,0,P|80:267|56:259,1,70
93,179,107593,1,0,0:0:0:0:
93,179,107687,6,0,L|93:67,1,105
174,41,108062,2,0,L|174:111,1,70
317,212,108437,1,0,0:0:0:0:
317,212,108530,1,0,0:0:0:0:
317,212,108624,1,0,0:0:0:0:
450,97,108812,2,0,P|410:89|378:89,1,70
365,92,109093,1,0,0:0:0:0:
352,98,109187,5,0,0:0:0:0:
80,200,109562,1,0,0:0:0:0:
80,200,109749,1,0,0:0:0:0:
176,280,109937,2,0,P|224:288|272:280,1,70
328,144,110312,2,0,P|293:138|259:140,1,70
400,216,110687,5,0,0:0:0:0:
416,56,110874,1,0,0:0:0:0:
512,144,111062,1,0,0:0:0:0:
416,56,111249,1,0,0:0:0:0:
248,136,111437,2,0,P|200:88|192:64,1,70
358,24,111812,2,0,P|398:56|414:88,1,70
424,168,112093,6,0,L|424:216,1,35
256,192,112562,1,0,0:0:0:0:
256,192,112749,1,0,0:0:0:0:
97,236,112937,2,0,P|33:204|25:188,1,70
88,88,113312,2,0,P|152:120|160:136,1,70
248,304,113687,5,0,0:0:0:0:
104,240,113874,1,0,0:0:0:0:
149,116,114062,1,0,0:0:0:0:
104,248,114249,1,0,0:0:0:0:
264,192,114437,2,0,B|272:128|272:128|272:128|288:112,1,70
112,256,114812,2,0,B|120:192|120:192|120:192|136:176,1,70
328,272,115187,5,0,0:0:0:0:
