osu file format v14

[General]
AudioFilename: Shawn Wasabi + YDG - Burnt Rice (feat. YUNG GEMMY).mp3
AudioLeadIn: 0
PreviewTime: 35609
Countdown: 0
SampleSet: Soft
StackLeniency: 0.2
Mode: 0
LetterboxInBreaks: 0
WidescreenStoryboard: 1

[Editor]
Bookmarks: 1203,7203,13203,25203,38328,61203,73203,85203,86328,97203,98328,109203,115187,120812
DistanceSpacing: 1.47
BeatDivisor: 6
GridSize: 32
TimelineZoom: 6.399998

[Metadata]
Title:Burnt Rice (feat. YUNG GEMMY)
TitleUnicode:Burnt Rice (feat. YUNG GEMMY)
Artist:Shawn Wasabi + YDG
ArtistUnicode:Shawn Wasabi + YDG
Creator:ScubDomino
Version:den0saur's Another
Source:
Tags:sssshawnnnn Midi Fighter 64 youth death & and glory kowari saronk den0saur woduf1121 [white music] hwamyu wm milr_ absolute godmode regou uwu anime girl anime_girl crazyrabbitkge foxygrandpa
BeatmapID:1836165
BeatmapSetID:866401

[Difficulty]
HPDrainRate:5
CircleSize:3.5
OverallDifficulty:8.7
ApproachRate:9.6
SliderMultiplier:1.8
SliderTickRate:1

[Events]
//Background and Video events
0,0,"BG.jpg",0,0
//Break Periods
2,115403,116662
//Storyboard Layer 0 (Background)
//Storyboard Layer 1 (Fail)
//Storyboard Layer 2 (Pass)
//Storyboard Layer 3 (Foreground)
//Storyboard Sound Samples

[TimingPoints]
1203,375,4,2,33,35,1,0
7203,-100,4,2,33,40,0,0
8140,-75.187969924812,4,2,33,40,0,0
8234,-100,4,2,33,40,0,0
8890,-75.187969924812,4,2,33,40,0,0
8984,-100,4,2,33,40,0,0
11140,-75.187969924812,4,2,33,40,0,0
11234,-100,4,2,33,40,0,0
12828,-50,4,2,33,40,0,0
13015,-34.4827586206897,4,2,33,40,0,0
13203,-34.4827586206897,4,2,33,60,0,0
13578,-34.4827586206897,4,2,33,50,0,0
17328,-66.6666666666667,4,2,33,50,0,0
18078,-769.230769230769,4,2,33,50,0,0
18828,-52.6315789473684,4,2,33,50,0,0
19015,-37.037037037037,4,2,33,50,0,0
19203,-100,4,2,33,60,0,0
19578,-100,4,2,33,50,0,0
20141,-75.0001875004688,4,2,33,50,0,0
24203,-100,4,2,33,45,0,0
24328,-100,4,2,33,35,0,0
24453,-100,4,2,33,20,0,0
24828,-34.4827586206897,4,2,33,70,0,0
24921,-43.4782608695652,4,2,33,70,0,0
25015,-71.4285714285714,4,2,33,70,0,0
25109,-142.857142857143,4,2,33,70,0,0
25203,-142.857142857143,4,2,33,60,0,0
31203,-83.3333333333333,4,2,33,60,0,0
31578,-111.111111111111,4,2,33,60,0,0
31953,-166.666666666667,4,2,33,60,0,0
32703,-100,4,2,33,60,0,0
34203,-100,4,2,33,60,0,0
34390,-83.3333333333333,4,2,33,60,0,0
34578,-71.4285714285714,4,2,33,60,0,0
34765,-62.5,4,2,33,60,0,0
34953,-55.5555555555556,4,2,33,60,0,0
35140,-50,4,2,33,60,0,0
37203,-55.5555555555556,4,2,33,70,0,0
37484,-83.3333333333333,4,2,33,70,0,0
37765,-142.857142857143,4,2,33,70,0,0
37953,-66.6666666666667,4,2,33,70,0,0
38140,-52.6315789473684,4,2,33,70,0,0
38328,-250,4,2,33,70,0,0
38703,-769.230769230769,4,2,33,70,0,0
39078,-526.315789473684,4,2,33,70,0,0
39453,-250,4,2,33,70,0,0
39828,-250,4,2,33,70,0,0
40203,-769.230769230769,4,2,33,70,0,0
40953,-250,4,2,33,70,0,0
41328,-250,4,2,33,70,0,0
41515,-250,4,2,33,70,0,0
41609,-250,4,2,33,70,0,0
41703,-526.315789473684,4,2,33,70,0,0
42453,-250,4,2,33,70,0,0
42828,-34.4827586206897,4,2,33,70,0,0
43203,-250,4,2,33,70,0,0
44328,-29.4117647058824,4,2,33,70,0,0
44703,-769.230769230769,4,2,33,70,0,0
45078,-526.315789473684,4,2,33,70,0,0
45453,-250,4,2,33,70,0,0
45828,-250,4,2,33,70,0,0
46203,-166.666666666667,4,2,33,70,0,0
46296,-166.666666666667,4,2,33,70,0,0
46484,-117.647058823529,4,2,33,70,0,0
46765,-83.3333333333333,4,2,33,70,0,0
46859,-83.3333333333333,4,2,33,70,0,0
46953,-40,4,2,33,70,0,0
47140,-40,4,2,33,70,0,0
47328,-71.4285714285714,4,2,33,70,0,0
47515,-71.4285714285714,4,2,33,70,0,0
47703,-52.6315789473684,4,2,33,70,0,0
47890,-52.6315789473684,4,2,33,70,0,0
48078,-71.4285714285714,4,2,33,70,0,0
48265,-111.111111111111,4,2,33,70,0,0
48406,-111.111111111111,4,2,33,70,0,0
48453,-28.5714285714286,4,2,33,70,0,0
50328,-28.5714285714286,4,2,33,70,0,0
50703,-250,4,2,33,70,0,0
53515,-250,4,2,33,70,0,0
53609,-250,4,2,33,70,0,0
54828,-34.4827586206897,4,2,33,70,0,0
55203,-250,4,2,33,70,0,0
56328,-29.4117647058824,4,2,33,70,0,0
56703,-250,4,2,33,70,0,0
58203,-166.666666666667,4,2,33,70,0,0
58484,-100,4,2,33,70,0,0
58765,-62.5,4,2,33,70,0,0
58953,-30.3030303030304,4,2,33,70,0,0
59140,-30.3030303030304,4,2,33,70,0,0
59234,-50,4,2,33,70,0,0
59703,-50,4,2,33,70,0,0
59984,-50,4,2,33,70,0,0
61203,-111.111111111111,4,2,33,45,0,0
66453,-500,4,2,33,35,0,0
67203,-500,4,2,33,45,0,0
68515,-111.111111111111,4,2,33,45,0,0
68703,-29.4117647058824,4,2,33,45,0,0
68890,-111.111111111111,4,2,33,45,0,0
69265,-40.0000000000002,4,2,33,45,0,0
69453,-333.333333333333,4,2,33,45,0,0
69734,-200,4,2,33,45,0,0
70015,-66.6666666666667,4,2,33,55,0,0
70203,-100,4,2,33,55,0,0
70953,-66.6666666666667,4,2,33,55,0,0
71703,-52.6315789473684,4,2,33,55,0,0
72453,-100,4,2,33,70,0,0
72703,-133.333333333333,4,2,33,70,0,0
72921,-200,4,2,33,70,0,0
73203,-142.857142857143,4,2,33,60,0,0
79203,-83.3333333333333,4,2,33,60,0,0
79578,-111.111111111111,4,2,33,60,0,0
79953,-166.666666666667,4,2,33,60,0,0
80703,-83.3333333333333,4,2,33,60,0,0
82578,-66.6666666666667,4,2,33,60,0,0
82953,-50,4,2,33,60,0,0
85203,-526.315789473684,4,2,33,70,0,0
85953,-526.315789473684,4,2,33,70,0,0
86328,-50,4,2,33,70,0,0
86703,-100,4,2,33,70,0,0
87453,-50,4,2,33,70,0,0
87828,-33.3333333333333,4,2,33,70,0,0
88203,-100,4,2,33,70,0,0
88953,-50,4,2,33,70,0,0
89328,-50,4,2,33,70,0,0
89515,-50,4,2,33,70,0,0
89609,-100,4,2,33,70,0,0
89890,-40.0000000000002,4,2,33,70,0,0
90453,-40.0000000000002,4,2,33,70,0,0
90640,-40.0000000000002,4,2,33,70,0,0
90828,-29.4117647058824,4,2,33,70,0,0
91484,-29.4117647058824,4,2,33,70,0,0
91953,-29.4117647058824,4,2,33,70,0,0
92328,-50,4,2,33,70,0,0
92703,-100,4,2,33,70,0,0
93453,-50.0000000000002,4,2,33,70,0,0
93828,-33.3333333333334,4,2,33,70,0,0
94203,-100,4,2,33,70,0,0
94296,-100,4,2,33,70,0,0
94484,-76.9230769230769,4,2,33,70,0,0
94765,-58.8235294117647,4,2,33,70,0,0
94953,-32.2580645161291,4,2,33,70,0,0
95140,-32.2580645161291,4,2,33,70,0,0
95328,-33.3333333333334,4,2,33,70,0,0
95515,-33.3333333333334,4,2,33,70,0,0
95609,-200,4,2,33,70,0,0
95890,-40.0000000000002,4,2,33,70,0,0
96453,-28.5714285714286,4,2,33,70,0,0
96640,-28.5714285714286,4,2,33,70,0,0
96828,-34.4827586206897,4,2,33,70,0,0
96921,-43.4782608695652,4,2,33,70,0,0
97015,-71.4285714285714,4,2,33,70,0,0
97109,-142.857142857143,4,2,33,70,0,0
97179,-142.857142857143,4,2,33,70,0,0
98328,-47.6190476190476,4,2,33,70,0,0
98515,-47.6190476190476,4,2,33,70,0,0
98609,-47.6190476190476,4,2,33,70,0,0
98703,-37.037037037037,4,2,33,70,0,0
99078,-200,4,2,33,70,0,0
99452,-200,4,2,33,70,0,0
99453,-76.9230769230769,4,2,33,70,0,0
99546,-76.9230769230769,4,2,33,70,0,0
99828,-47.6190476190476,4,2,33,70,0,0
100015,-47.6190476190476,4,2,33,70,0,0
100109,-47.6190476190476,4,2,33,70,0,0
100203,-37.037037037037,4,2,33,70,0,0
100578,-200,4,2,33,70,0,0
100953,-76.9230769230769,4,2,33,70,0,0
101046,-76.9230769230769,4,2,33,70,0,0
101328,-47.6190476190476,4,2,33,70,0,0
101609,-47.6190476190476,4,2,33,70,0,0
101703,-47.6190476190476,4,2,33,70,0,0
103015,-47.6190476190476,4,2,33,70,0,0
104328,-47.6190476190476,4,2,33,70,0,0
104515,-47.6190476190476,4,2,33,70,0,0
104609,-47.6190476190476,4,2,33,70,0,0
104703,-37.037037037037,4,2,33,70,0,0
105078,-200,4,2,33,70,0,0
105452,-200,4,2,33,70,0,0
105453,-76.9230769230769,4,2,33,70,0,0
105546,-76.9230769230769,4,2,33,70,0,0
105828,-47.6190476190476,4,2,33,70,0,0
106015,-47.6190476190476,4,2,33,70,0,0
106109,-47.6190476190476,4,2,33,70,0,0
106203,-37.037037037037,4,2,33,70,0,0
106953,-52.6315789473684,4,2,33,70,0,0
107328,-37.037037037037,4,2,33,70,0,0
107515,-26.3157894736842,4,2,33,70,0,0
109015,-26.3157894736842,4,2,33,70,0,0
109203,-769.230769230769,4,2,33,70,0,0
117171,-37.037037037037,4,2,33,70,0,0
117839,495.867768595041,4,2,33,70,1,0
117839,-62.5,4,2,33,70,0,0
118830,-76.9230769230769,4,2,33,70,0,0
119326,-100,4,2,33,70,0,0
119822,-25.0000000000001,4,2,33,70,0,0
119946,-30.3030303030304,4,2,33,70,0,0
120070,-38.4615384615386,4,2,33,70,0,0
120194,-50.0000000000002,4,2,33,70,0,0
120318,-200,4,2,33,70,0,0

[Colours]
Combo1 : 173,255,95
Combo2 : 255,88,100
Combo3 : 255,94,55
Combo4 : 17,254,176

[HitObjects]
235,299,1203,5,0,0:0:0:0:
235,299,1578,5,0,0:0:0:0:
148,319,1765,1,0,0:0:0:0:
87,253,1953,1,0,0:0:0:0:
113,168,2328,1,0,0:0:0:0:
235,299,2703,5,0,0:0:0:0:
148,319,2890,1,0,0:0:0:0:
87,253,3078,1,0,0:0:0:0:
113,168,3265,1,0,0:0:0:0:
200,148,3453,1,0,0:0:0:0:
261,213,3828,1,0,0:0:0:0:
344,244,4203,5,0,0:0:0:0:
344,244,4578,5,0,0:0:0:0:
430,220,4765,1,0,0:0:0:0:
453,133,4953,1,0,0:0:0:0:
390,71,5328,1,0,0:0:0:0:
344,244,5703,5,0,0:0:0:0:
447,256,5890,1,0,0:0:0:0:
512,173,6078,1,0,0:0:0:0:
473,76,6265,1,0,0:0:0:0:
369,61,6453,1,2,0:0:0:0:
303,144,6828,1,0,0:0:0:0:
0,233,7203,5,8,0:0:0:0:
0,233,7578,5,0,0:0:0:0:
130,241,7765,1,8,0:0:0:0:
218,182,7953,1,0,0:0:0:0:
236,96,8140,2,0,P|236:72|225:42,2,30,8|8|8,0:0|0:0|0:0,0:0:0:0:
194,0,8328,1,8,0:0:0:0:
512,359,8703,5,0,0:0:0:0:
432,384,8890,2,0,P|408:378|382:360,2,30,8|8|8,0:0|0:0|0:0,0:0:0:0:
327,329,9078,1,8,0:0:0:0:
299,213,9266,1,0,0:0:0:0:
361,101,9453,1,0,3:0:0:0:
361,101,9828,1,0,3:0:0:0:
0,126,10203,5,8,0:0:0:0:
0,126,10578,5,0,0:0:0:0:
138,117,10765,1,8,0:0:0:0:
231,180,10953,1,0,0:0:0:0:
250,271,11140,2,0,P|250:294|239:324,2,30,8|8|8,0:0|0:0|0:0,0:0:0:0:
215,370,11328,1,8,0:0:0:0:
90,264,11703,5,0,3:0:0:0:
92,259,11889,1,8,0:0:0:0:
96,259,12077,1,8,0:0:0:0:
98,264,12264,1,0,3:0:0:0:
94,266,12452,1,10,0:0:0:0:
94,266,12828,6,2,P|70:248|95:260,1,90,0|0,0:0|0:0,1:0:0:0:
6,174,13015,2,0,P|24:135|0:167,1,130.500003982544,0|0,0:0|0:0,1:0:0:0:
223,234,13203,5,4,1:2:0:0:
223,234,13578,5,2,0:0:0:0:
333,195,13765,1,2,0:1:0:0:
245,118,13953,1,8,0:1:0:0:
223,234,14328,1,0,3:0:0:0:
486,293,14703,5,0,0:0:0:0:
512,169,14890,1,2,1:2:0:0:
512,169,15078,1,0,1:0:0:0:
388,142,15265,1,0,0:0:0:0:
362,265,15452,1,8,0:1:0:0:
486,293,15828,1,0,3:0:0:0:
141,203,16015,5,0,1:0:0:0:
141,203,16203,1,0,1:0:0:0:
141,203,16578,5,2,0:0:0:0:
175,353,16765,1,2,0:1:0:0:
27,307,16953,1,8,0:1:0:0:
27,307,17328,6,0,P|17:274|18:241,1,67.5000025749208,2|0,0:3|0:0,0:0:0:0:
106,294,17515,2,0,P|107:260|96:228,1,67.5000025749208,2|0,0:3|0:0,0:0:0:0:
242,14,17703,5,2,0:0:0:0:
430,69,17890,1,2,1:2:0:0:
288,205,18078,6,0,L|290:186,1,17.5499998928833,4|0,1:3|0:0,0:0:0:0:
289,188,18453,2,0,L|288:205,1,17.5499998928833,8|2,0:1|0:0,0:0:0:0:
287,205,18828,6,0,P|325:219|359:196,1,85.4999977169037,2|0,3:0|0:0,0:0:0:0:
430,69,19015,2,0,P|484:55|510:106,1,121.500000463486,2|0,1:3|0:0,0:0:0:0:
334,366,19203,5,4,1:2:0:0:
334,366,19578,5,0,0:0:0:0:
296,230,19766,1,8,0:0:0:0:
189,163,19953,1,8,0:1:0:0:
85,174,20141,2,0,P|65:181|47:198,2,30,8|8|8,0:0|0:0|0:0,0:0:0:0:
5,253,20328,1,8,0:0:0:0:
5,253,20703,5,0,0:0:0:0:
77,295,20891,2,0,P|101:297|132:288,2,30,8|8|8,1:2|0:0|0:0,0:0:0:0:
194,277,21078,1,8,1:2:0:0:
258,176,21266,1,0,0:0:0:0:
236,50,21453,1,8,0:1:0:0:
236,50,21827,5,8,0:1:0:0:
316,40,21921,1,0,1:0:0:0:
390,75,22014,1,0,1:0:0:0:
433,144,22108,1,0,1:0:0:0:
432,225,22202,1,8,0:1:0:0:
432,225,22578,5,0,0:0:0:0:
432,225,22765,1,0,0:0:0:0:
432,225,22953,1,0,0:0:0:0:
432,225,23328,1,0,0:0:0:0:
432,225,23703,5,2,0:0:0:0:
432,225,23890,1,2,0:3:0:0:
432,225,24078,1,0,3:0:0:0:
432,225,24265,1,0,3:0:0:0:
432,225,24453,1,0,0:0:0:0:
432,225,24828,6,0,P|411:183|416:140,1,87.0000026550294
370,189,24953,2,0,P|385:157|416:142,1,69.0000013160706
373,150,25078,2,0,P|393:143|415:143,1,41.9999987182618
512,138,25203,5,4,3:1:0:0:
512,138,25578,1,0,3:0:0:0:
512,138,25953,1,0,3:0:0:0:
334,54,26328,5,0,3:0:0:0:
390,0,26516,1,0,3:0:0:0:
410,76,26703,1,0,3:0:0:0:
410,76,27078,1,0,3:0:0:0:
146,257,27453,5,2,1:0:0:0:
281,361,27734,1,2,3:3:0:0:
311,194,28014,1,2,1:1:0:0:
246,271,28203,5,0,3:0:0:0:
246,271,28578,1,0,3:0:0:0:
246,271,28953,1,0,3:0:0:0:
15,212,29328,5,0,3:0:0:0:
38,136,29516,1,0,3:0:0:0:
91,194,29703,1,0,3:0:0:0:
91,194,30078,1,0,3:0:0:0:
197,30,30453,6,0,P|199:14|207:0,1,31.4999990386963,2|0,1:1|0:0,0:0:0:0:
238,105,30640,1,0,0:0:0:0:
238,105,30734,2,0,P|250:115|259:129,2,31.4999990386963,0|0|2,3:0|0:0|0:0,0:0:0:0:
151,102,31015,2,0,P|136:107|119:108,1,31.4999990386963,2|0,1:1|0:0,0:0:0:0:
66,271,31203,6,2,P|51:298|50:326,3,53.9999983520508,4|0|0|0,1:2|0:0|0:0|0:0,0:0:0:0:
153,285,31578,2,2,P|156:311|169:335,3,40.4999987640381,0|0|0|0,3:0|0:0|0:0|0:0,0:0:0:0:
228,250,31953,2,2,P|244:262|262:269,3,26.9999991760254,0|0|0|0,3:0|0:0|0:0|0:0,0:0:0:0:
278,181,32328,1,0,3:0:0:0:
278,181,32515,1,0,3:0:0:0:
512,97,32703,6,2,L|413:86,1,90,0|0,3:0|0:0,0:1:0:0:
278,181,33078,2,2,L|376:170,1,90,0|0,3:0|0:0,0:1:0:0:
512,384,33453,5,2,1:0:0:0:
486,181,33734,1,2,3:3:0:0:
319,297,34014,1,2,1:1:0:0:
439,287,34203,6,0,P|436:261|419:229,1,45,0|0,1:2|0:0,0:0:0:0:
486,181,34390,2,0,P|468:162|435:148,1,53.9999983520508,0|0,1:0|0:0,0:0:0:0:
126,240,34578,6,0,P|149:259|189:268,1,62.9999980773926,0|0,1:0|0:0,0:0:0:0:
174,367,34765,2,0,P|204:367|241:349,1,72,0|0,1:0|0:0,0:0:0:0:
371,2,34953,6,0,P|334:19|312:66,1,80.9999975280763,0|0,1:0|0:0,0:0:0:0:
192,11,35140,2,0,P|180:54|191:97,1,90,0|0,1:0|0:0,0:0:0:0:
273,264,35328,5,0,1:0:0:0:
348,240,35421,1,0,1:0:0:0:
348,160,35515,1,0,1:0:0:0:
273,136,35609,1,0,1:0:0:0:
227,200,35703,1,0,1:0:0:0:
227,200,37203,6,0,L|213:103,1,80.9999975280763,2|0,0:1|0:0,0:0:0:0:
379,250,37484,6,0,L|389:196,1,53.9999983520508,2|0,0:1|0:0,0:0:0:0:
105,281,37765,6,0,L|86:243,1,31.4999990386963,2|0,0:1|0:0,0:0:0:0:
215,119,37953,6,0,B|251:113|251:113|206:136,1,67.5000025749208,2|0,0:3|0:0,0:0:0:0:
390,197,38140,2,0,B|425:215|425:215|379:207,1,85.4999977169037,2|0,0:3|0:0,0:0:0:0:
12,76,38328,6,0,L|9:56,1,18,0|0,1:0|0:0,0:0:0:0:
100,63,38515,1,8,0:0:0:0:
100,63,38609,1,8,0:0:0:0:
100,63,38703,2,0,L|98:44,1,17.5499998928833,2|2,0:1|0:0,0:0:0:0:
99,46,39078,2,0,L|100:63,1,17.0999997912598,0|2,1:0|0:0,0:0:0:0:
12,76,39453,2,0,L|9:56,1,18,8|0,0:1|0:0,0:0:0:0:
187,33,39640,2,0,L|188:50,1,18
509,238,39828,6,0,L|511:218,1,18
421,225,40015,1,8,0:0:0:0:
421,225,40109,1,8,0:0:0:0:
421,225,40203,2,0,L|422:206,2,17.5499998928833,2|2|2,1:0|0:0|0:0,0:0:0:0:
509,238,40953,2,0,L|511:218,1,18,8|0,0:1|0:0,0:0:0:0:
334,195,41140,2,0,L|332:212,1,18
100,384,41328,6,0,L|97:364,1,18
188,371,41515,1,8,0:0:0:0:
188,371,41609,1,8,0:0:0:0:
188,371,41703,2,0,L|186:352,1,17.0999997912598,2|0,0:1|0:0,0:0:0:0:
275,341,41984,1,2,0:1:0:0:
275,341,42078,2,0,L|276:358,1,17.0999997912598,0|2,1:0|0:1,0:0:0:0:
89,284,42453,6,0,L|90:267,1,18,10|2,0:1|0:0,0:0:0:0:
3,253,42640,2,0,L|2:270,1,18,8|2,0:1|0:0,0:0:0:0:
496,255,42828,6,2,P|517:195|509:131,1,130.500003982544,0|0,0:0|0:0,1:0:0:0:
421,118,43015,2,2,P|400:178|408:242,1,130.500003982544,0|0,0:0|0:0,1:0:0:0:
113,149,43203,5,2,0:1:0:0:
113,149,43484,1,2,0:1:0:0:
113,149,43765,1,2,0:1:0:0:
46,70,43953,6,0,L|47:53,2,18,8|0|0,0:1|0:0|0:0,0:0:0:0:
113,149,44328,6,2,P|128:191|110:147,1,229.500004377365,4|0,1:0|0:0,0:0:0:0:
200,135,44515,1,8,0:0:0:0:
200,135,44609,1,8,0:0:0:0:
200,135,44703,2,0,L|198:116,1,17.5499998928833,2|2,0:1|0:0,0:0:0:0:
199,118,45078,2,0,L|200:135,1,17.0999997912598,0|2,1:0|0:0,0:0:0:0:
112,148,45453,2,0,L|110:127,1,18,8|0,0:1|0:0,0:0:0:0:
287,105,45640,2,0,L|288:122,1,18
506,271,45828,6,0,L|509:251,1,18
418,265,46015,1,8,0:0:0:0:
418,265,46109,1,8,0:0:0:0:
418,265,46203,2,0,P|418:253|422:238,2,26.9999991760254,2|8|8,0:1|0:0|0:0,0:0:0:0:
322,279,46484,2,0,P|315:259|315:238,2,38.2500007295609,10|8|8,0:0|0:0|0:0,0:0:0:0:
241,350,46765,2,0,P|218:338|200:307,1,53.9999983520508,10|8,1:2|0:0,0:0:0:0:
347,0,46953,6,0,P|371:45|363:120,1,112.5,8|0,0:1|0:0,0:0:0:0:
288,122,47140,2,0,P|263:77|272:2,1,112.5,0|0,1:0|0:0,0:0:0:0:
122,229,47328,6,0,P|107:198|80:176,1,62.9999980773926,0|0,1:0|0:0,0:0:0:0:
228,220,47515,1,8,0:0:0:0:
228,220,47609,1,8,0:0:0:0:
228,220,47703,2,0,P|246:182|244:140,2,85.4999977169037,2|0|0,0:1|0:0|1:2,0:0:0:0:
50,294,47984,1,2,0:1:0:0:
50,294,48078,2,0,P|30:278|-4:272,2,41.9999987182618,8|8|8,1:2|0:0|0:0,0:0:0:0:
26,376,48265,2,0,P|8:378|-11:393,2,26.9999991760254,2|0|0,0:1|0:0|0:0,0:0:0:0:
342,256,48453,6,2,P|416:230|467:309,1,157.500001502037,8|0,0:1|0:0,0:1:0:0:
493,30,48640,2,2,P|485:104|414:129,1,157.500001502037,0|0,0:0|0:0,0:1:0:0:
108,174,48828,2,2,P|152:233|226:219,1,157.500001502037,0|0,1:0|0:0,0:1:0:0:
512,347,49015,2,2,P|441:323|389:377,1,157.500001502037,0|0,0:0|0:0,0:1:0:0:
17,182,49203,5,2,0:1:0:0:
17,182,49484,1,2,0:1:0:0:
17,182,49765,1,2,0:1:0:0:
226,218,49953,6,2,B|258:178|236:136|236:136|211:164|220:205,1,157.500001502037,8|0,0:1|0:0,0:1:0:0:
161,333,50140,5,0,1:0:0:0:
161,333,50234,1,0,1:0:0:0:
161,333,50328,2,0,P|101:368|158:315,1,236.250002253056,4|0,1:0|0:0,0:0:0:0:
245,322,50515,1,8,0:0:0:0:
245,322,50609,1,8,0:0:0:0:
245,322,50703,2,0,L|243:303,3,18,2|2|0|2,0:1|0:0|0:0|0:0,0:0:0:0:
161,333,51078,2,0,L|160:316,3,18,0|0|2|0,1:0|0:0|0:0|0:0,0:0:0:0:
353,361,51453,2,0,L|355:337,1,18,8|0,0:1|0:0,0:0:0:0:
50,294,51640,2,0,L|51:269,1,18,0|2,0:0|0:0,0:0:0:0:
210,154,51828,6,0,L|211:136,1,18,0|2,0:1|0:0,0:0:0:0:
126,142,52015,1,8,0:0:0:0:
126,142,52109,1,8,0:0:0:0:
126,142,52203,2,0,L|127:125,2,18,2|2|0,1:0|0:0|0:0,0:0:0:0:
210,154,52484,2,0,L|211:136,2,18,0|2|0,0:1|0:0|0:0,0:0:0:0:
294,165,52765,2,0,L|295:147,1,18,0|2,0:1|0:0,0:0:0:0:
17,182,52953,2,0,L|15:164,1,18,8|2,0:1|0:0,0:0:0:0:
405,126,53140,2,0,L|403:108,1,18,0|0,0:1|0:0,0:0:0:0:
93,35,53328,6,0,L|90:15,1,18
181,22,53515,1,8,0:0:0:0:
181,22,53609,1,8,0:0:0:0:
181,22,53703,2,0,L|179:3,2,18,2|0|0,0:1|0:0|0:0,0:0:0:0:
4,47,53984,1,2,0:1:0:0:
4,47,54078,2,0,L|0:12,3,18,0|0|2|0,1:0|0:1|0:1|0:0,0:0:0:0:
493,117,54453,6,0,L|492:134,1,18,10|2,0:1|0:0,0:0:0:0:
405,126,54640,2,0,L|406:109,1,18,8|2,0:1|0:0,0:0:0:0:
147,230,54828,6,2,P|138:294|159:355,1,130.500003982544,0|0,0:0|0:0,1:0:0:0:
247,343,55015,2,2,P|255:278|234:217,1,130.500003982544,0|0,0:0|0:0,1:0:0:0:
486,255,55203,5,2,0:1:0:0:
486,255,55484,1,2,0:1:0:0:
486,255,55765,1,2,0:1:0:0:
234,217,55953,6,0,L|235:200,2,18,8|0|0,0:1|0:0|0:0,0:0:0:0:
486,255,56328,6,2,P|460:180|466:258,1,229.500004377365,4|0,1:0|0:0,0:0:0:0:
317,278,56515,1,8,0:0:0:0:
317,278,56609,1,8,0:0:0:0:
317,278,56703,2,0,L|319:297,3,18,2|2|0|2,0:1|0:0|0:0|0:0,0:0:0:0:
401,267,57078,2,0,L|402:284,3,18,0|0|2|0,1:0|0:0|0:0|0:0,0:0:0:0:
234,217,57453,2,0,L|235:199,1,18,8|0,0:1|0:0,0:0:0:0:
487,355,57640,2,0,L|488:337,1,18,0|2,0:0|0:0,0:0:0:0:
62,297,57828,6,0,L|60:316,1,18
158,303,58015,1,8,0:0:0:0:
158,303,58109,1,8,0:0:0:0:
158,303,58203,2,0,P|158:316|154:333,2,26.9999991760254,2|8|8,1:1|0:0|0:0,0:0:0:0:
264,288,58484,2,0,P|272:310|272:335,2,45,10|8|8,0:0|0:0|0:0,0:0:0:0:
354,210,58765,2,0,P|384:226|407:266,1,72,10|8,1:2|0:0,0:0:0:0:
33,216,58953,6,0,P|99:196|151:109,1,148.500001416206,10|0,0:1|0:0,0:0:0:0:
21,0,59140,1,10,0:0:0:0:
21,0,59234,1,2,0:1:0:0:
21,0,59328,2,0,P|11:43|21:86,1,90,0|8,1:0|0:0,0:0:0:0:
404,257,59515,2,0,P|361:263|326:303,1,90,2|0,0:1|0:0,0:0:0:0:
29,322,59703,5,8,0:0:0:0:
29,322,59984,1,2,0:0:0:0:
29,322,60265,1,2,0:0:0:0:
353,355,60453,5,8,0:3:0:0:
411,290,60640,1,4,0:3:0:0:
438,373,60828,1,0,3:0:0:0:
438,373,61015,1,2,0:3:0:0:
29,322,61203,5,2,0:1:0:0:
29,322,61578,1,0,0:0:0:0:
29,322,61953,1,0,0:0:0:0:
29,322,62328,5,0,0:0:0:0:
130,259,62515,1,0,0:0:0:0:
244,297,62703,1,0,0:0:0:0:
244,297,63078,1,0,0:0:0:0:
244,297,63453,5,2,0:0:0:0:
317,333,63734,1,2,0:0:0:0:
311,252,64015,1,2,0:0:0:0:
244,297,64203,5,0,0:0:0:0:
244,297,64578,1,0,0:0:0:0:
244,297,64953,1,0,0:0:0:0:
244,297,65328,5,0,0:0:0:0:
373,246,65515,2,0,L|375:206,1,40.4999987640381,8|0,0:0|0:0,0:0:0:0:
320,384,65703,1,0,0:0:0:0:
320,384,65890,2,0,L|317:343,1,40.4999987640381,8|0,0:0|0:0,0:0:0:0:
446,292,66078,1,0,0:0:0:0:
446,292,66453,6,0,L|444:302,2,9,8|0|0,0:0|0:0|0:0,0:0:0:0:
410,219,66734,2,0,L|402:211,2,9,8|0|0,0:0|0:0|0:0,0:0:0:0:
491,225,67015,2,0,L|501:221,1,9,8|0,0:0|0:0,0:0:0:0:
446,292,67203,5,0,0:0:0:0:
446,292,67578,1,0,0:0:0:0:
446,292,67953,1,0,0:0:0:0:
446,292,68328,5,0,0:0:0:0:
499,222,68515,2,0,L|497:181,1,40.4999987640381,8|0,0:0|0:0,0:0:0:0:
219,212,68703,6,2,P|294:236|328:156,1,153.000002918243,2|0,0:0|0:0,0:1:0:0:
386,0,68890,2,0,L|384:40,1,40.4999987640381,8|0,0:0|0:0,0:0:0:0:
400,134,69078,1,0,0:0:0:0:
400,134,69265,6,2,P|339:143|343:67,1,112.5,2|0,0:1|0:0,0:1:0:0:
57,171,69453,6,0,L|80:168,1,13.4999995880127,2|0,0:3|0:0,0:0:0:0:
57,171,69734,6,0,L|80:174,1,22.5,2|0,0:3|0:0,0:0:0:0:
57,171,70015,6,2,P|109:203|163:184,1,101.250003862381,0|0,1:0|2:0,0:1:0:0:
469,261,70203,6,0,P|495:252|529:262,7,45,4|0|0|0|0|0|8|0,1:2|0:0|0:0|0:0|0:0|0:0|0:0|0:0,0:0:0:0:
400,215,70953,2,0,P|415:173|467:140,7,67.5000025749208,4|0|0|0|0|0|8|0,1:2|0:0|0:0|0:0|0:0|0:0|0:0|0:0,0:0:0:0:
315,254,71703,2,0,P|278:204|289:132,3,85.4999977169037,4|0|8|0,1:2|0:0|0:0|0:0,0:0:0:0:
238,314,72078,5,0,1:0:0:0:
133,323,72203,1,0,1:0:0:0:
71,229,72328,1,0,1:0:0:0:
127,109,72453,6,0,P|132:133|124:162,2,45,4|0|0,1:2|0:0|0:0,0:0:0:0:
49,93,72703,2,0,P|42:108|26:121,2,33.7500012874604,0|0|0,1:0|0:0|0:0,0:0:0:0:
192,59,72953,2,0,P|201:67|206:80,2,22.5,0|0|0,1:0|0:0|0:0,0:0:0:0:
101,2,73203,5,4,3:2:0:0:
101,2,73578,1,0,3:0:0:0:
101,2,73953,1,0,3:0:0:0:
184,201,74328,5,0,3:0:0:0:
240,147,74516,1,0,3:0:0:0:
260,223,74703,1,0,3:0:0:0:
260,223,75078,1,0,3:0:0:0:
512,314,75453,5,2,1:0:0:0:
388,196,75734,1,2,3:3:0:0:
341,359,76014,1,2,1:1:0:0:
416,289,76203,5,0,3:0:0:0:
416,289,76578,1,0,3:0:0:0:
416,289,76953,1,0,3:0:0:0:
57,248,77328,5,0,3:0:0:0:
108,188,77516,1,0,3:0:0:0:
134,262,77703,1,0,3:0:0:0:
134,262,78078,1,0,3:0:0:0:
284,252,78453,6,0,P|299:253|314:249,1,31.4999990386963,2|0,1:1|0:0,0:0:0:0:
381,154,78640,1,0,0:0:0:0:
381,153,78734,2,0,P|372:166|367:181,2,31.4999990386963,0|0|2,3:0|0:0|0:0,0:0:0:0:
416,289,79015,2,0,P|408:274|398:263,1,31.4999990386963,2|0,1:1|0:0,0:0:0:0:
124,112,79203,6,2,P|109:85|108:57,3,53.9999983520508,4|2|2|2,1:2|0:0|0:0|0:0,0:0:0:0:
212,91,79578,2,2,P|215:65|228:41,3,40.4999987640381,0|0|0|0,3:0|0:0|0:0|0:0,0:0:0:0:
295,126,79953,2,2,P|311:114|329:107,3,26.9999991760254,0|0|0|0,3:0|0:0|0:0|0:0,0:0:0:0:
368,182,80328,1,0,3:0:0:0:
459,177,80515,1,0,3:0:0:0:
512,101,80703,6,2,L|376:85,1,107.999996704102,0|0,3:0|0:0,0:1:0:0:
1,51,81078,2,2,L|120:64,1,107.999996704102,0|0,3:0|0:0,0:1:0:0:
198,177,81453,5,2,1:1:0:0:
198,177,81734,5,2,1:3:0:0:
198,177,82015,5,2,1:1:0:0:
198,177,82203,6,0,L|207:254,1,53.9999983520508,0|0,1:0|0:0,0:0:0:0:
293,217,82390,2,0,L|286:163,1,53.9999983520508,0|0,1:0|0:0,0:0:0:0:
456,276,82578,6,0,L|448:343,1,67.5000025749208,0|0,1:0|0:0,0:0:0:0:
359,330,82765,2,0,L|367:258,1,67.5000025749208,0|0,1:0|0:0,0:0:0:0:
118,152,82953,6,0,L|108:63,1,90,0|0,1:0|0:0,0:0:0:0:
17,76,83140,2,0,L|28:166,1,90,0|0,1:0|0:0,0:0:0:0:
382,111,83328,5,0,1:0:0:0:
367,109,83421,1,0,1:0:0:0:
353,107,83515,1,0,1:0:0:0:
338,105,83609,1,0,1:0:0:0:
324,103,83703,1,0,1:0:0:0:
324,103,85203,6,0,L|326:82,1,17.0999997912598,2|0,1:0|0:1,0:0:0:0:
409,97,85484,1,2,0:1:0:0:
409,97,85578,2,0,L|406:114,1,17.0999997912598,0|2,1:0|0:1,0:0:0:0:
0,30,85953,5,8,0:1:0:0:
0,30,86328,6,0,P|25:66|28:111,1,90,4|0,1:0|0:0,0:0:0:0:
180,128,86515,5,8,0:0:0:0:
180,128,86609,1,8,0:0:0:0:
180,128,86703,2,0,P|191:153|212:170,2,45,2|0|0,1:0|0:0|0:0,0:0:0:0:
100,161,86984,1,2,0:0:0:0:
100,161,87078,2,0,P|95:188|103:214,1,45,0|0,1:0|0:0,0:0:0:0:
28,111,87265,2,0,P|7:130|-1:155,1,45,2|0,0:0|0:0,0:0:0:0:
249,0,87453,6,0,L|337:18,1,90,8|0,0:1|0:0,0:0:0:0:
512,58,87640,2,0,L|423:39,1,90
125,315,87828,6,0,P|186:218|303:278,1,270.000010299683,2|2,3:3|0:0,0:0:0:0:
341,383,88109,1,8,0:0:0:0:
341,383,88203,2,0,P|320:374|304:359,2,45,2|0|0,1:0|0:0|0:0,0:0:0:0:
395,314,88484,2,0,P|381:288|382:262,2,45,2|0|0,0:0|0:0|0:0,0:0:0:0:
481,319,88765,2,0,P|483:297|493:277,1,45,2|0,0:0|0:0,0:0:0:0:
302,277,88953,6,0,L|213:295,1,90,8|0,0:1|0:0,0:0:0:0:
38,334,89140,2,0,L|126:315,1,90
493,277,89328,6,0,B|515:258|539:271|539:271|524:287|498:284,2,90,0|0|8,0:0|0:0|0:1,0:0:0:0:
125,315,89609,2,0,L|103:311,1,22.5,2|0,0:1|0:0,0:0:0:0:
102,310,89890,6,0,P|106:255|150:220,1,112.5,2|0,0:3|0:0,0:0:0:0:
1,178,90078,2,0,P|40:139|94:132,1,112.5,2|0,1:3|0:0,0:0:0:0:
28,0,90265,2,0,P|84:-1|127:33,1,112.5,2|0,0:3|0:0,0:0:0:0:
344,355,90453,6,0,P|382:315|385:260,1,112.5,10|0,0:1|0:0,0:0:0:0:
148,220,90641,2,0,P|203:226|250:197,1,112.5,2|0,0:1|0:0,0:0:0:0:
506,40,90828,6,2,L|484:196,1,153.000002918243,0|0,1:0|0:0,1:1:0:0:
381,178,91015,2,2,L|404:23,1,153.000002918243,0|0,0:0|0:0,1:1:0:0:
113,139,91203,5,2,3:1:0:0:
37,100,91483,1,2,1:1:0:0:
1,178,91764,1,2,1:1:0:0:
113,139,91953,5,8,0:1:0:0:
113,139,92328,6,0,P|149:114|194:111,1,90,4|0,1:0|0:0,0:0:0:0:
461,191,92515,5,8,0:0:0:0:
461,191,92609,1,8,0:0:0:0:
461,191,92703,2,0,P|445:174|437:153,2,45,2|0|0,1:0|0:0|0:0,0:0:0:0:
357,230,92984,1,2,0:0:0:0:
357,230,93078,2,0,P|353:207|358:186,1,45,0|0,1:0|0:0,0:0:0:0:
258,170,93265,2,0,P|268:150|285:136,1,45,2|0,0:0|0:0,0:0:0:0:
507,78,93453,6,0,L|419:60,1,90,8|0,0:1|0:0,0:0:0:0:
244,20,93640,2,0,L|333:39,1,90
378,312,93828,6,0,P|309:190|224:242,1,270.000010299683,2|2,3:3|0:0,0:0:0:0:
84,316,94109,1,8,0:0:0:0:
84,316,94203,2,0,P|89:294|87:271,2,45,2|8|8,0:1|0:0|0:0,0:0:0:0:
201,314,94484,2,0,P|198:285|183:260,2,58.4999973220826,10|8|8,0:0|0:0|0:0,0:0:0:0:
309,196,94765,2,0,P|281:170|244:163,1,76.5000014591217,10|8,0:0|0:0,0:0:0:0:
2,141,94953,6,0,P|50:187|113:167,1,139.500001064301,8|0,0:1|0:0,0:0:0:0:
309,21,95140,1,8,1:2:0:0:
309,21,95234,1,8,0:0:0:0:
309,21,95328,2,0,P|246:7|200:52,1,135.000005149842,0|0,1:0|0:0,0:0:0:0:
117,171,95515,5,8,0:0:0:0:
117,171,95609,2,0,L|121:193,2,22.5,2|0|0,0:1|0:0|0:0,0:0:0:0:
200,52,95890,6,0,P|239:93|237:150,1,112.5,2|0,3:3|0:0,0:0:0:0:
400,77,96078,2,0,P|394:133|352:170,1,112.5,2|0,1:3|0:0,0:0:0:0:
487,226,96265,2,0,P|446:263|391:265,1,112.5,2|0,3:3|0:0,0:0:0:0:
7,229,96453,6,2,P|42:163|116:170,1,157.500001502037,10|0,0:1|0:0,0:1:0:0:
392,266,96640,2,2,P|338:214|266:251,1,157.500001502037,2|0,0:1|0:0,0:1:0:0:
200,331,96828,6,0,P|152:343|109:328,1,87.0000026550294,2|0,0:3|0:0,0:0:0:0:
156,384,96953,2,0,P|125:361|117:326,1,69.0000013160706
117,373,97078,2,0,P|112:350|118:327,1,41.9999987182618
120,248,97203,5,0,1:2:0:0:
0,52,97484,5,0,1:2:0:0:
0,52,97578,1,0,1:1:0:0:
60,121,97765,1,0,1:3:0:0:
91,35,97953,1,8,0:0:0:0:
91,35,98046,1,0,0:2:0:0:
91,35,98140,1,0,0:3:0:0:
512,115,98328,6,0,P|484:93|499:125,1,94.499997116089,0|0,1:0|0:0,0:0:0:0:
311,152,98515,1,8,0:0:0:0:
311,152,98609,1,8,0:0:0:0:
311,152,98703,2,0,P|374:197|318:137,1,243.000000926971,2|0,0:1|0:0,0:0:0:0:
207,28,98984,1,0,1:0:0:0:
207,28,99078,2,0,L|211:-7,1,22.5,2|0,1:2|0:0,0:0:0:0:
292,15,99265,2,0,L|290:37,1,22.5,0|0,1:2|0:0,0:0:0:0:
396,48,99453,2,0,P|412:34|392:40,2,58.4999973220826,8|10|10,0:0|0:0|0:0,0:0:0:0:
142,205,99828,6,0,P|154:172|158:207,1,94.499997116089,0|0,1:0|0:0,0:0:0:0:
59,275,100015,1,8,0:0:0:0:
59,275,100109,1,8,0:0:0:0:
59,275,100203,2,0,P|-4:320|52:260,1,243.000000926971,2|0,1:1|0:0,0:0:0:0:
202,374,100484,1,0,1:0:0:0:
202,374,100578,2,0,L|197:338,1,22.5,2|0,1:2|0:0,0:0:0:0:
117,361,100765,2,0,L|118:383,1,22.5,0|0,1:2|0:0,0:0:0:0:
52,157,100953,2,0,P|31:150|48:164,2,58.4999973220826,8|10|10,0:0|0:0|0:0,0:0:0:0:
343,306,101328,6,0,P|315:284|330:316,1,94.499997116089,0|0,1:0|0:0,0:0:0:0:
447,326,101515,5,0,0:0:0:0:
447,326,101609,1,0,0:0:0:0:
447,326,101703,1,2,0:1:0:0:
411,227,101985,5,2,0:1:0:0:
411,227,102078,1,0,1:0:0:0:
447,326,102264,5,2,1:2:0:0:
477,88,102453,5,2,0:1:0:0:
512,99,102546,1,2,0:1:0:0:
512,137,102640,1,0,3:0:0:0:
476,149,102734,1,0,0:0:0:0:
454,118,102828,1,2,1:3:0:0:
434,9,103015,5,8,0:0:0:0:
434,9,103109,1,8,0:0:0:0:
434,9,103203,1,0,1:0:0:0:
343,306,103483,5,0,1:2:0:0:
343,306,103577,1,0,1:1:0:0:
411,227,103764,1,0,1:3:0:0:
447,326,103952,1,8,0:0:0:0:
447,326,104046,1,2,0:2:0:0:
447,326,104139,1,2,0:2:0:0:
434,9,104328,6,0,P|402:-7|423:21,1,94.499997116089,4|0,1:0|0:0,0:0:0:0:
287,101,104515,1,8,0:0:0:0:
287,101,104609,1,8,0:0:0:0:
287,101,104703,2,0,P|340:155|296:86,1,243.000000926971,2|0,0:1|0:0,0:0:0:0:
140,172,104984,1,0,1:0:0:0:
140,172,105078,2,0,L|138:195,1,22.5,2|0,1:2|0:0,0:0:0:0:
221,204,105265,2,0,L|223:182,1,22.5,0|0,1:2|0:0,0:0:0:0:
186,49,105453,2,0,P|200:65|194:45,2,58.4999973220826,8|10|10,0:0|0:0|0:0,0:0:0:0:
13,322,105828,6,0,P|-3:354|25:333,1,94.499997116089,0|0,1:0|0:0,0:0:0:0:
153,346,106015,1,8,0:0:0:0:
153,346,106109,1,8,0:0:0:0:
153,346,106203,2,0,P|185:276|136:342,1,243.000000926971,2|0,0:1|0:0,0:0:0:0:
300,312,106484,5,0,1:0:0:0:
300,312,106578,2,0,P|334:265|391:277,1,121.500000463486,0|0,1:0|0:0,0:0:0:0:
108,187,106765,2,0,P|53:199|21:151,1,121.500000463486,0|0,1:0|0:0,0:0:0:0:
432,143,106953,1,0,1:0:0:0:
432,143,107046,1,8,1:2:0:0:
432,143,107140,2,0,P|462:171|451:215,1,85.4999977169037,8|0,1:2|0:0,0:0:0:0:
21,151,107328,6,0,P|59:130|30:162,1,121.500000463486,0|0,1:0|0:0,0:0:0:0:
455,211,107515,2,0,P|425:169|456:203,1,170.999995433807,2|8,0:1|0:0,0:0:0:0:
156,305,107703,5,2,0:1:0:0:
32,277,107983,1,2,0:0:0:0:
32,277,108078,1,2,0:0:0:0:
21,151,108264,1,0,0:0:0:0:
138,100,108452,1,2,0:3:0:0:
138,100,108546,1,2,0:3:0:0:
138,100,108640,1,2,3:0:0:0:
222,197,108827,1,0,3:3:0:0:
121,212,109015,5,8,0:0:0:0:
121,212,109109,1,8,0:0:0:0:
121,212,109203,2,0,L|124:188,1,23.3999998571777,4|0,1:3|0:0,1:0:0:0:
428,262,109765,5,4,1:3:0:0:
49,130,109953,2,0,L|50:141,1,11.6999999285889,4|0,1:3|0:0,1:0:0:0:
124,188,110328,2,0,L|148:184,1,23.3999998571777,4|0,1:3|0:0,1:0:0:0:
428,262,110890,5,4,1:3:0:0:
375,23,111078,2,0,L|373:11,1,11.6999999285889,4|0,1:3|0:0,1:0:0:0:
454,0,111453,2,0,L|455:11,1,11.6999999285889,4|0,1:3|0:0,1:0:0:0:
428,262,111828,5,8,0:1:0:0:
342,302,112015,5,8,0:0:0:0:
342,302,112109,1,8,0:0:0:0:
342,302,112203,2,0,L|338:325,1,23.3999998571777,4|0,1:3|0:0,1:0:0:0:
6,220,112765,5,4,1:3:0:0:
414,384,112953,2,0,L|412:372,1,11.6999999285889,4|0,1:3|0:0,1:0:0:0:
339,326,113328,2,0,L|314:329,1,23.3999998571777,4|0,1:3|0:0,1:0:0:0:
6,220,113890,5,4,1:3:0:0:
460,270,114078,2,0,L|444:267,1,11.6999999285889,4|0,1:3|0:0,1:0:0:0:
6,220,114453,5,8,0:1:0:0:
103,271,114546,1,0,0:0:0:0:
189,224,114640,1,0,0:0:0:0:
221,146,114734,1,0,0:0:0:0:
271,109,114828,1,0,0:0:0:0:
315,112,114921,1,0,0:0:0:0:
335,130,115015,1,0,0:0:0:0:
338,146,115109,1,0,0:0:0:0:
335,154,115203,1,2,0:1:0:0:
396,44,117171,6,2,B|375:88|375:88|539:101|539:101|505:-3,1,303.750001158714,2|2,0:1|0:1,0:1:0:0:
512,16,117593,6,0,P|434:107|419:226,1,243.000000926971,0|0,1:2|0:0,0:0:0:0:
480,366,117839,6,0,L|470:285,3,72,4|0|0|0,1:2|0:0|0:0|0:0,0:0:0:0:
397,378,118334,2,0,L|385:282,1,72,0|0,1:0|0:0,0:0:0:0:
353,58,118582,1,8,0:0:0:0:
353,58,118830,6,0,L|346:119,1,58.4999973220826,0|0,3:0|0:0,0:0:0:0:
270,46,119078,2,0,L|263:103,1,58.4999973220826,0|0,1:0|0:0,0:0:0:0:
88,232,119326,2,0,L|83:187,1,45,0|0,1:0|0:0,0:0:0:0:
5,244,119574,2,0,L|0:199,1,45,10|0,0:0|0:0,0:0:0:0:
145,21,119822,6,2,P|169:12|139:15,1,90,2|2,0:0|0:0,0:1:0:0:
145,156,119946,2,2,P|164:138|142:150,1,74.2500007081032,2|2,0:0|0:0,0:1:0:0:
231,252,120070,2,2,P|238:232|228:251,1,58.4999973220826,2|2,0:0|0:0,0:1:0:0:
345,264,120194,2,2,P|337:253|342:268,1,45,2|2,0:0|0:0,0:1:0:0:
419,226,120318,6,0,L|422:194,4,22.5,8|8|8|8|8,0:0|0:0|0:0|0:0|0:0,0:0:0:0:
