osu file format v14

[General]
AudioFilename: Shawn Wasabi + YDG - Burnt Rice (feat. YUNG GEMMY).mp3
AudioLeadIn: 0
PreviewTime: 35609
Countdown: 0
SampleSet: Soft
StackLeniency: 0.3
Mode: 0
LetterboxInBreaks: 0
WidescreenStoryboard: 1

[Editor]
Bookmarks: 7187,10187,13203,18078,19203,25702,37187,51718,61187,73187,79187,85187,91280,97203,109203,115187,120812
DistanceSpacing: 1
BeatDivisor: 4
GridSize: 8
TimelineZoom: 1.900001

[Metadata]
Title:Burnt Rice (feat. YUNG GEMMY)
TitleUnicode:Burnt Rice (feat. YUNG GEMMY)
Artist:Shawn Wasabi + YDG
ArtistUnicode:Shawn Wasabi + YDG
Creator:ScubDomino
Version:Lemon
Source:
Tags:sssshawnnnn Midi Fighter 64 youth death & and glory kowari saronk den0saur woduf1121 [white music] hwamyu wm milr_ absolute godmode regou uwu anime girl anime_girl crazyrabbitkge foxygrandpa
BeatmapID:1857321
BeatmapSetID:866401

[Difficulty]
HPDrainRate:5
CircleSize:4.5
OverallDifficulty:8
ApproachRate:9.6
SliderMultiplier:1.4
SliderTickRate:1

[Events]
//Background and Video events
0,0,"BG.jpg",0,0
//Break Periods
2,115402,116662
//Storyboard Layer 0 (Background)
//Storyboard Layer 1 (Fail)
//Storyboard Layer 2 (Pass)
//Storyboard Layer 3 (Foreground)
//Storyboard Sound Samples

[TimingPoints]
1203,375,4,2,1,35,1,0
1203,-66.6666666666667,4,2,1,35,0,0
2797,-66.6666666666667,4,2,1,5,0,0
2890,-66.6666666666667,4,2,1,35,0,0
5797,-66.6666666666667,4,2,1,5,0,0
5890,-66.6666666666667,4,2,1,35,0,0
6851,-66.6666666666667,4,2,1,5,0,0
7203,-66.6666666666667,4,2,1,40,0,0
7297,-66.6666666666667,4,2,1,5,0,0
7578,-66.6666666666667,4,2,1,40,0,0
7859,-66.6666666666667,4,2,1,5,0,0
7953,-66.6666666666667,4,2,1,40,0,0
9359,-66.6666666666667,4,2,1,5,0,0
9453,-66.6666666666667,4,2,1,40,0,0
10297,-66.6666666666667,4,2,1,5,0,0
10578,-66.6666666666667,4,2,1,40,0,0
10859,-66.6666666666667,4,2,1,5,0,0
10953,-66.6666666666667,4,2,1,40,0,0
12359,-66.6666666666667,4,2,1,5,0,0
12453,-66.6666666666667,4,2,1,40,0,0
12922,-66.6666666666667,4,2,1,5,0,0
13015,-100,4,2,1,40,0,0
13109,-100,4,2,1,5,0,0
13203,-100,4,2,1,60,0,0
13578,-100,4,2,1,50,0,0
13953,-100,4,2,1,50,0,0
14047,-100,4,2,1,5,0,0
14328,-100,4,2,1,50,0,0
14890,-133.333333333333,4,2,1,50,0,0
14984,-133.333333333333,4,2,1,5,0,0
15078,-200,4,2,1,50,0,0
15172,-200,4,2,1,5,0,0
15265,-200,4,2,1,50,0,0
15453,-100,4,2,1,50,0,0
15547,-100,4,2,1,5,0,0
15828,-100,4,2,1,50,0,0
16953,-100,4,2,1,50,0,0
17047,-100,4,2,1,5,0,0
17328,-100,4,2,1,50,0,0
17470,-100,4,2,1,5,0,0
17515,-100,4,2,1,50,0,0
17657,-100,4,2,1,5,0,0
17703,-100,4,2,1,50,0,0
17890,-133.333333333333,4,2,1,50,0,0
17984,-133.333333333333,4,2,1,5,0,0
18078,-200,4,2,1,50,0,0
18453,-100,4,2,1,50,0,0
18547,-100,4,2,1,5,0,0
18640,-100,4,2,1,50,0,0
18828,-50,4,2,1,50,0,0
19158,-50,4,2,1,5,0,0
19203,-50,4,2,1,60,0,0
19578,-50,4,2,1,50,0,0
20047,-50,4,2,1,5,0,0
20140,-50,4,2,1,50,0,0
20890,-133.333333333333,4,2,1,50,0,0
20984,-133.333333333333,4,2,1,5,0,0
21078,-200,4,2,1,50,0,0
21172,-200,4,2,1,5,0,0
21265,-200,4,2,1,50,0,0
21453,-150,4,2,1,50,0,0
21734,-150,4,2,1,5,0,0
21828,-150,4,2,1,50,0,0
23845,-150,4,2,1,5,0,0
23890,-150,4,2,1,50,0,0
24203,-150,4,2,1,45,0,0
24328,-150,4,2,1,35,0,0
24453,-150,4,2,1,20,0,0
24828,-57.1428571428571,4,2,1,70,0,0
25109,-57.1428571428571,4,2,1,5,0,0
25203,-40,4,2,1,60,0,0
25296,-40,4,2,1,5,0,0
25320,-40,4,2,1,60,0,0
25671,-40,4,2,1,5,0,0
25695,-40,4,2,1,60,0,0
26046,-40,4,2,1,5,0,0
26070,-40,4,2,1,60,0,0
26421,-40,4,2,1,5,0,0
26445,-40,4,2,1,60,0,0
26796,-40,4,2,1,5,0,0
26820,-40,4,2,1,60,0,0
27171,-40,4,2,1,5,0,0
27195,-40,4,2,1,60,0,0
27546,-40,4,2,1,5,0,0
27570,-40,4,2,1,60,0,0
27828,-40,4,2,1,5,0,0
27852,-40,4,2,1,60,0,0
28109,-40,4,2,1,5,0,0
28133,-40,4,2,1,60,0,0
28296,-40,4,2,1,5,0,0
28320,-40,4,2,1,60,0,0
28671,-40,4,2,1,5,0,0
28695,-40,4,2,1,60,0,0
29046,-40,4,2,1,5,0,0
29070,-40,4,2,1,60,0,0
29421,-40,4,2,1,5,0,0
29445,-40,4,2,1,60,0,0
29796,-40,4,2,1,5,0,0
29820,-40,4,2,1,60,0,0
30171,-40,4,2,1,5,0,0
30195,-40,4,2,1,60,0,0
30453,-33.3333333333333,4,2,1,60,0,0
30618,-33.3333333333333,4,2,1,5,0,0
30640,-100,4,2,1,60,0,0
30805,-100,4,2,1,5,0,0
30828,-33.3333333333333,4,2,1,60,0,0
30993,-33.3333333333333,4,2,1,5,0,0
31015,-57.1428571428571,4,2,1,60,0,0
31109,-57.1428571428571,4,2,1,5,0,0
31203,-40,4,2,1,60,0,0
31296,-40,4,2,1,5,0,0
31320,-40,4,2,1,60,0,0
31671,-40,4,2,1,5,0,0
31695,-40,4,2,1,60,0,0
32046,-40,4,2,1,5,0,0
32070,-40,4,2,1,60,0,0
32421,-40,4,2,1,5,0,0
32445,-40,4,2,1,60,0,0
33171,-40,4,2,1,5,0,0
33195,-40,4,2,1,60,0,0
33546,-40,4,2,1,5,0,0
33570,-40,4,2,1,60,0,0
33828,-40,4,2,1,5,0,0
33852,-40,4,2,1,60,0,0
34109,-40,4,2,1,5,0,0
34133,-40,4,2,1,60,0,0
34203,-57.1428571428571,4,2,1,60,0,0
34297,-57.1428571428571,4,2,1,5,0,0
34390,-36.3636363636364,4,2,1,60,0,0
34484,-36.3636363636364,4,2,1,5,0,0
34578,-26.6666666666667,4,2,1,60,0,0
34672,-26.6666666666667,4,2,1,5,0,0
34765,-21.0526315789474,4,2,1,60,0,0
34859,-21.0526315789474,4,2,1,5,0,0
34953,-17.3913043478261,4,2,1,60,0,0
35047,-17.3913043478261,4,2,1,5,0,0
35140,-14.8148148148148,4,2,1,60,0,0
35234,-14.8148148148148,4,2,1,5,0,0
35328,-14.8148148148148,4,2,1,60,0,0
35515,-100,4,2,1,60,0,0
35703,-1000,4,2,1,60,0,0
37203,-100,4,2,2,70,0,0
38047,-100,4,2,2,5,0,0
38140,-100,4,2,2,70,0,0
38305,-100,4,2,2,5,0,0
38328,-400,4,2,2,70,0,0
38470,-400,4,2,2,5,0,0
38515,-400,4,2,2,70,0,0
38703,-66.6666666666667,4,2,2,70,0,0
39172,-66.6666666666667,4,2,2,5,0,0
39265,-400,4,2,2,70,0,0
39407,-400,4,2,2,5,0,0
39453,-100,4,2,2,70,0,0
39547,-100,4,2,2,5,0,0
39640,-100,4,2,2,70,0,0
39805,-100,4,2,2,5,0,0
39828,-400,4,2,2,70,0,0
39970,-400,4,2,2,5,0,0
40015,-400,4,2,2,70,0,0
40578,-66.6666666666667,4,2,2,70,0,0
40672,-66.6666666666667,4,2,2,5,0,0
40765,-400,4,2,2,70,0,0
40907,-400,4,2,2,5,0,0
40953,-100,4,2,2,70,0,0
41047,-100,4,2,2,5,0,0
41140,-100,4,2,2,70,0,0
41305,-100,4,2,2,5,0,0
41328,-400,4,2,2,70,0,0
41470,-400,4,2,2,5,0,0
41515,-400,4,2,1,70,0,0
41609,-400,4,2,2,70,0,0
41890,-400,4,2,2,5,0,0
41984,-200,4,2,2,70,0,0
42453,-33.3333333333333,4,2,2,70,0,0
42618,-33.3333333333333,4,2,2,5,0,0
42640,-100,4,2,2,70,0,0
42781,-33.3333333333333,4,2,2,70,0,0
42828,-33.3333333333333,4,2,2,70,0,0
42993,-33.3333333333333,4,2,2,5,0,0
43015,-66.6666666666667,4,2,2,70,0,0
43109,-66.6666666666667,4,2,2,5,0,0
43203,-66.6666666666667,4,2,2,70,0,0
44047,-66.6666666666667,4,2,2,5,0,0
44140,-66.6666666666667,4,2,2,70,0,0
44305,-66.6666666666667,4,2,2,5,0,0
44328,-400,4,2,2,70,0,0
44470,-400,4,2,2,5,0,0
44515,-66.6666666666667,4,2,2,70,0,0
45172,-66.6666666666667,4,2,2,5,0,0
45265,-400,4,2,2,70,0,0
45407,-400,4,2,2,5,0,0
45453,-100,4,2,2,70,0,0
45547,-100,4,2,2,5,0,0
45640,-100,4,2,2,70,0,0
45805,-100,4,2,2,5,0,0
45828,-400,4,2,2,70,0,0
45970,-400,4,2,2,5,0,0
46015,-400,4,2,2,70,0,0
46203,-400,4,2,5,70,0,0
46296,-400,4,2,3,70,0,0
46390,-400,4,2,3,70,0,0
46578,-66.6666666666667,4,2,3,70,0,0
46765,-400,4,2,5,70,0,0
46859,-400,4,2,3,70,0,0
46953,-100,4,2,3,70,0,0
47140,-100,4,2,1,70,0,0
47305,-100,4,2,1,5,0,0
47328,-400,4,2,5,70,0,0
47470,-400,4,2,5,5,0,0
47515,-400,4,2,2,70,0,0
47797,-400,4,2,2,5,0,0
47890,-200,4,2,5,70,0,0
48359,-200,4,2,5,5,0,0
48453,-33.3333333333333,4,2,2,70,0,0
48618,-33.3333333333333,4,2,2,5,0,0
48640,-33.3333333333333,4,2,2,70,0,0
48805,-33.3333333333333,4,2,2,5,0,0
48828,-100,4,2,2,70,0,0
49203,-100,4,2,2,70,0,0
50047,-100,4,2,2,5,0,0
50140,-100,4,2,2,70,0,0
50234,-100,4,2,2,70,0,0
50328,-400,4,2,2,70,0,0
50470,-400,4,2,2,5,0,0
50515,-66.6666666666667,4,2,2,70,0,0
50703,-400,4,2,2,70,0,0
51078,-66.6666666666667,4,2,2,70,0,0
51172,-66.6666666666667,4,2,2,5,0,0
51265,-400,4,2,2,70,0,0
51407,-400,4,2,2,5,0,0
51453,-100,4,2,2,70,0,0
51547,-100,4,2,2,5,0,0
51640,-100,4,2,2,70,0,0
51805,-100,4,2,2,5,0,0
51828,-400,4,2,2,70,0,0
51970,-400,4,2,2,5,0,0
52015,-400,4,2,2,70,0,0
52578,-66.6666666666667,4,2,2,70,0,0
52672,-66.6666666666667,4,2,2,5,0,0
52765,-400,4,2,2,70,0,0
52907,-400,4,2,2,5,0,0
52953,-100,4,2,2,70,0,0
53047,-100,4,2,2,5,0,0
53140,-100,4,2,2,70,0,0
53305,-100,4,2,2,5,0,0
53328,-400,4,2,2,70,0,0
53470,-400,4,2,2,5,0,0
53515,-400,4,2,5,70,0,0
53609,-400,4,2,2,70,0,0
53890,-400,4,2,2,5,0,0
53984,-200,4,2,2,70,0,0
54453,-33.3333333333333,4,2,2,70,0,0
54618,-33.3333333333333,4,2,2,5,0,0
54640,-100,4,2,2,70,0,0
54805,-100,4,2,2,5,0,0
54828,-33.3333333333333,4,2,2,70,0,0
54993,-33.3333333333333,4,2,2,5,0,0
55015,-57.1428571428571,4,2,2,70,0,0
55109,-57.1428571428571,4,2,2,5,0,0
55203,-66.6666666666667,4,2,2,70,0,0
56047,-66.6666666666667,4,2,2,5,0,0
56140,-100,4,2,2,70,0,0
56305,-100,4,2,2,5,0,0
56328,-400,4,2,2,70,0,0
56470,-400,4,2,2,5,0,0
56515,-66.6666666666667,4,2,2,70,0,0
56703,-400,4,2,2,70,0,0
57078,-66.6666666666667,4,2,2,70,0,0
57172,-66.6666666666667,4,2,2,5,0,0
57265,-400,4,2,2,70,0,0
57407,-400,4,2,2,5,0,0
57453,-100,4,2,2,70,0,0
57547,-100,4,2,2,5,0,0
57640,-100,4,2,2,70,0,0
57805,-100,4,2,2,5,0,0
57828,-400,4,2,2,70,0,0
57970,-400,4,2,2,5,0,0
58015,-400,4,2,2,70,0,0
58203,-200,4,2,3,70,0,0
58765,-300.0000000003,4,2,3,70,0,0
58907,-300.0000000003,4,2,3,5,0,0
58953,-100,4,2,3,70,0,0
59140,-100,4,2,5,70,0,0
59234,-200,4,2,3,70,0,0
59515,-300,4,2,3,70,0,0
59657,-300,4,2,3,5,0,0
59703,-300,4,2,1,70,0,0
59984,-200,4,2,2,70,0,0
60453,-50,4,2,2,70,0,0
60618,-50,4,2,2,5,0,0
60640,-150.00000000015,4,2,2,70,0,0
60805,-150.00000000015,4,2,2,5,0,0
60828,-50,4,2,2,70,0,0
60993,-50,4,2,2,5,0,0
61015,-85.7147755130029,4,2,2,70,0,0
61109,-85.7147755130029,4,2,2,5,0,0
61203,-85.7147755130029,4,2,1,45,0,0
66453,-250,4,2,3,35,0,0
67015,-66.6666666666667,4,2,3,35,0,0
67203,-66.6666666666667,4,2,1,45,0,0
70015,-66.6666666666667,4,2,1,55,0,0
70157,-66.6666666666667,4,2,1,5,0,0
70203,-66.6666666666667,4,2,1,55,0,0
70297,-66.6666666666667,4,2,1,5,0,0
70390,-66.6666666666667,4,2,1,55,0,0
70484,-66.6666666666667,4,2,1,5,0,0
70578,-66.6666666666667,4,2,1,55,0,0
70672,-66.6666666666667,4,2,1,5,0,0
70765,-66.6666666666667,4,2,1,55,0,0
70859,-66.6666666666667,4,2,1,5,0,0
70953,-66.6666666666667,4,2,1,55,0,0
71047,-66.6666666666667,4,2,1,5,0,0
71140,-66.6666666666667,4,2,1,55,0,0
71234,-66.6666666666667,4,2,1,5,0,0
71328,-66.6666666666667,4,2,1,55,0,0
71422,-66.6666666666667,4,2,1,5,0,0
71515,-66.6666666666667,4,2,1,55,0,0
71609,-66.6666666666667,4,2,1,5,0,0
71703,-66.6666666666667,4,2,1,55,0,0
71797,-66.6666666666667,4,2,1,5,0,0
71890,-66.6666666666667,4,2,1,55,0,0
71984,-66.6666666666667,4,2,1,5,0,0
72078,-66.6666666666667,4,2,1,55,0,0
72172,-66.6666666666667,4,2,1,5,0,0
72265,-66.6666666666667,4,2,1,55,0,0
72359,-66.6666666666667,4,2,1,5,0,0
72453,-100,4,2,1,70,0,0
73203,-40,4,2,1,60,0,0
73296,-40,4,2,1,5,0,0
73320,-40,4,2,1,60,0,0
73671,-40,4,2,1,5,0,0
73695,-40,4,2,1,60,0,0
74046,-40,4,2,1,5,0,0
74070,-40,4,2,1,60,0,0
74421,-40,4,2,1,5,0,0
74445,-40,4,2,1,60,0,0
74796,-40,4,2,1,5,0,0
74820,-40,4,2,1,60,0,0
75171,-40,4,2,1,5,0,0
75195,-40,4,2,1,60,0,0
75546,-40,4,2,1,5,0,0
75570,-40,4,2,1,60,0,0
75828,-40,4,2,1,5,0,0
75852,-40,4,2,1,60,0,0
76109,-40,4,2,1,5,0,0
76133,-40,4,2,1,60,0,0
76296,-40,4,2,1,5,0,0
76320,-40,4,2,1,60,0,0
76671,-40,4,2,1,5,0,0
76695,-40,4,2,1,60,0,0
77046,-40,4,2,1,5,0,0
77070,-40,4,2,1,60,0,0
77421,-40,4,2,1,5,0,0
77445,-40,4,2,1,60,0,0
77796,-40,4,2,1,5,0,0
77820,-40,4,2,1,60,0,0
78171,-40,4,2,1,5,0,0
78195,-40,4,2,1,60,0,0
78453,-33.3333333333333,4,2,1,60,0,0
78618,-33.3333333333333,4,2,1,5,0,0
78640,-100,4,2,1,60,0,0
78805,-100,4,2,1,5,0,0
78828,-33.3333333333333,4,2,1,60,0,0
78993,-33.3333333333333,4,2,1,5,0,0
79015,-57.1428571428571,4,2,1,60,0,0
79109,-57.1428571428571,4,2,1,5,0,0
79203,-40,4,2,1,60,0,0
79671,-40,4,2,1,5,0,0
79695,-40,4,2,1,60,0,0
80046,-40,4,2,1,5,0,0
80070,-40,4,2,1,60,0,0
80421,-40,4,2,1,5,0,0
80445,-40,4,2,1,60,0,0
81171,-40,4,2,1,5,0,0
81195,-40,4,2,1,60,0,0
81546,-40,4,2,1,5,0,0
81570,-40,4,2,1,60,0,0
81828,-40,4,2,1,5,0,0
81852,-40,4,2,1,60,0,0
82109,-40,4,2,1,5,0,0
82133,-40,4,2,1,60,0,0
82203,-57.1428571428571,4,2,1,60,0,0
82297,-57.1428571428571,4,2,1,5,0,0
82390,-36.3636363636364,4,2,1,60,0,0
82484,-36.3636363636364,4,2,1,5,0,0
82578,-26.6666666666667,4,2,1,60,0,0
82672,-26.6666666666667,4,2,1,5,0,0
82765,-21.0526315789474,4,2,1,60,0,0
82859,-21.0526315789474,4,2,1,5,0,0
82953,-17.3913043478261,4,2,1,60,0,0
83047,-17.3913043478261,4,2,1,5,0,0
83140,-14.8148148148148,4,2,1,60,0,0
83234,-14.8148148148148,4,2,1,5,0,0
83328,-14.8148148148148,4,2,1,60,0,0
83515,-100,4,2,1,60,0,0
85203,-1000,4,2,1,70,0,0
85953,-100,4,2,2,70,0,0
86047,-100,4,2,2,5,0,0
86140,-100,4,2,2,70,0,0
86328,-400,4,2,2,70,0,0
86470,-400,4,2,2,5,0,0
86515,-66.6666666666667,4,2,2,70,0,0
87172,-66.6666666666667,4,2,2,5,0,0
87265,-400,4,2,2,70,0,0
87407,-400,4,2,2,5,0,0
87453,-100,4,2,2,70,0,0
87547,-100,4,2,2,5,0,0
87640,-100,4,2,2,70,0,0
87805,-100,4,2,2,5,0,0
87828,-400,4,2,2,70,0,0
87970,-400,4,2,2,5,0,0
88015,-400,4,2,2,70,0,0
88578,-66.6666666666667,4,2,2,70,0,0
88672,-66.6666666666667,4,2,2,5,0,0
88765,-400,4,2,2,70,0,0
88907,-400,4,2,2,5,0,0
88953,-100,4,2,2,70,0,0
89047,-100,4,2,2,5,0,0
89140,-100,4,2,2,70,0,0
89305,-100,4,2,2,5,0,0
89328,-400,4,2,2,70,0,0
89470,-400,4,2,2,5,0,0
89515,-400,4,2,5,70,0,0
89890,-50,4,2,2,70,0,0
90055,-50,4,2,2,5,0,0
90078,-50,4,2,2,70,0,0
90243,-50,4,2,2,5,0,0
90265,-50,4,2,2,70,0,0
90430,-50,4,2,2,5,0,0
90453,-50,4,2,4,70,0,0
90618,-50,4,2,4,5,0,0
90640,-50,4,2,2,70,0,0
90734,-50,4,2,2,5,0,0
90828,-25,4,2,2,70,0,0
90922,-25,4,2,2,5,0,0
91015,-25,4,2,2,70,0,0
91109,-25,4,2,2,5,0,0
91203,-25,4,2,2,70,0,0
91484,-25,4,2,1,70,0,0
91953,-25,4,2,2,70,0,0
91976,-25,4,2,2,5,0,0
92140,-25,4,2,2,70,0,0
92328,-400,4,2,2,70,0,0
92470,-400,4,2,2,5,0,0
92515,-400,4,2,2,70,0,0
93078,-66.6666666666667,4,2,2,70,0,0
93172,-66.6666666666667,4,2,2,5,0,0
93265,-400,4,2,2,70,0,0
93407,-400,4,2,2,5,0,0
93453,-100,4,2,2,70,0,0
93547,-100,4,2,2,5,0,0
93640,-100,4,2,2,70,0,0
93805,-100,4,2,2,5,0,0
93828,-400,4,2,2,70,0,0
93970,-400,4,2,2,5,0,0
94015,-400,4,2,2,70,0,0
94203,-400,4,2,5,70,0,0
94296,-400,4,2,3,70,0,0
94390,-400,4,2,3,70,0,0
94765,-400,4,2,5,70,0,0
94907,-400,4,2,3,5,0,0
94953,-100,4,2,3,70,0,0
95140,-100,4,2,5,70,0,0
95305,-100,4,2,5,5,0,0
95328,-400,4,2,5,70,0,0
95470,-400,4,2,5,5,0,0
95515,-400,4,2,2,70,0,0
95890,-37.037037037037,4,2,2,70,0,0
96055,-37.037037037037,4,2,2,5,0,0
96078,-41.6666666666667,4,2,2,70,0,0
96243,-41.6666666666667,4,2,2,5,0,0
96265,-47.6190476190476,4,2,2,70,0,0
96430,-47.6190476190476,4,2,2,5,0,0
96453,-66.6666666666667,4,2,4,70,0,0
96618,-66.6666666666667,4,2,4,5,0,0
96640,-83.3333333333333,4,2,2,70,0,0
96805,-83.3333333333333,4,2,2,5,0,0
96828,-333.333333333333,4,2,2,70,0,0
97179,-333.333333333333,4,2,1,70,0,0
98328,-400,4,2,2,70,0,0
98470,-400,4,2,2,5,0,0
98515,-400,4,2,5,70,0,0
98609,-400,4,2,2,70,0,0
99078,-66.6666666666667,4,2,2,70,0,0
99172,-66.6666666666667,4,2,2,5,0,0
99265,-400,4,2,2,70,0,0
99407,-400,4,2,2,5,0,0
99453,-100,4,2,5,70,0,0
99546,-100,4,2,2,70,0,0
99805,-100,4,2,2,5,0,0
99828,-400,4,2,2,70,0,0
99970,-400,4,2,2,5,0,0
100015,-400,4,2,5,70,0,0
100109,-400,4,2,2,70,0,0
100578,-66.6666666666667,4,2,2,70,0,0
100672,-66.6666666666667,4,2,2,5,0,0
100765,-400,4,2,2,70,0,0
100907,-400,4,2,2,5,0,0
100953,-100,4,2,5,70,0,0
101046,-100,4,2,2,70,0,0
101305,-100,4,2,2,5,0,0
101328,-400,4,2,2,70,0,0
101470,-400,4,2,2,5,0,0
101515,-400,4,2,2,70,0,0
101609,-400,4,2,5,70,0,0
101703,-400,4,2,2,70,0,0
101984,-200,4,2,2,70,0,0
102407,-200,4,2,2,5,0,0
102453,-200,4,2,2,70,0,0
102640,-100,4,2,2,70,0,0
102782,-100,4,2,2,5,0,0
102828,-400,4,2,2,70,0,0
102970,-400,4,2,2,5,0,0
103015,-66.6666666666667,4,2,1,70,0,0
104328,-100,4,2,2,70,0,0
104470,-100,4,2,2,5,0,0
104515,-100,4,2,5,70,0,0
104609,-100,4,2,2,70,0,0
105078,-66.6666666666667,4,2,2,70,0,0
105172,-66.6666666666667,4,2,2,5,0,0
105265,-400,4,2,2,70,0,0
105407,-400,4,2,2,5,0,0
105453,-100,4,2,5,70,0,0
105546,-100,4,2,2,70,0,0
105805,-100,4,2,2,5,0,0
105828,-400,4,2,2,70,0,0
105970,-400,4,2,2,5,0,0
106015,-400,4,2,5,70,0,0
106109,-400,4,2,2,70,0,0
106578,-66.6666666666667,4,2,2,70,0,0
106672,-66.6666666666667,4,2,2,5,0,0
106765,-400,4,2,2,70,0,0
106907,-400,4,2,2,5,0,0
106953,-100,4,2,5,70,0,0
107234,-100,4,2,5,5,0,0
107328,-400,4,2,5,70,0,0
107470,-400,4,2,5,5,0,0
107515,-400,4,2,2,70,0,0
107984,-200,4,2,2,70,0,0
108828,-400,4,2,2,70,0,0
108970,-400,4,2,2,5,0,0
109015,-1000,4,2,1,70,0,0
109578,-1000,4,2,1,5,0,0
109765,-250,4,2,1,70,0,0
109859,-250,4,2,1,5,0,0
109953,-750.0000001875,4,2,1,70,0,0
110234,-750.0000001875,4,2,1,5,0,0
110328,-1000,4,2,1,70,0,0
110703,-1000,4,2,1,5,0,0
110890,-250,4,2,1,70,0,0
110984,-250,4,2,1,5,0,0
111078,-250,4,2,1,70,0,0
111172,-250,4,2,1,5,0,0
111265,-250,4,2,1,70,0,0
111359,-250,4,2,1,5,0,0
111453,-750.0000001875,4,2,1,70,0,0
111734,-750.0000001875,4,2,1,5,0,0
111828,-66.6666666666667,4,2,1,70,0,0
111922,-66.6666666666667,4,2,1,5,0,0
112015,-66.6666666666667,4,2,1,70,0,0
112203,-1000,4,2,1,70,0,0
112578,-1000,4,2,1,5,0,0
112765,-250,4,2,1,70,0,0
112859,-250,4,2,1,5,0,0
112953,-750.0000001875,4,2,1,70,0,0
113234,-750.0000001875,4,2,1,5,0,0
113328,-1000,4,2,1,70,0,0
113703,-1000,4,2,1,5,0,0
113890,-250,4,2,1,70,0,0
113984,-250,4,2,1,5,0,0
114078,-250,4,2,1,70,0,0
114172,-250,4,2,1,5,0,0
114265,-250,4,2,1,70,0,0
114359,-250,4,2,1,5,0,0
114453,-250,4,2,1,70,0,0
114547,-250,4,2,1,5,0,0
114640,-100,4,2,1,70,0,0
114734,-100,4,2,1,5,0,0
114828,-76.9230769230769,4,2,1,70,0,0
115203,-76.9230769230769,4,2,1,5,0,0
117171,-76.9230769230769,4,2,1,70,0,0
117358,-76.9230769230769,4,2,1,5,0,0
117406,-76.9230769230769,4,2,1,70,0,0
117545,-76.9230769230769,4,2,1,5,0,0
117593,-76.9230769230769,4,2,1,70,0,0
117780,-76.9230769230769,4,2,1,5,0,0
117839,495.867768595041,4,2,1,70,1,0
117839,-50,4,2,1,70,0,0
118211,-50,4,2,1,5,0,0
118334,-50,4,2,1,70,0,0
118706,-50,4,2,1,5,0,0
118830,-50,4,2,1,70,0,0
118954,-50,4,2,1,5,0,0
119078,-100,4,2,1,70,0,0
119202,-100,4,2,1,5,0,0
119326,-100,4,2,1,70,0,0
119450,-100,4,2,1,5,0,0
119574,-100,4,2,1,70,0,0
119698,-100,4,2,1,5,0,0
119822,-100,4,2,1,70,0,0
120070,-80,4,2,1,70,0,0
120318,-66.6666666666667,4,2,1,70,0,0
120690,-200,4,2,1,70,0,0

[Colours]
Combo1 : 173,255,95
Combo2 : 255,88,100
Combo3 : 255,94,55
Combo4 : 17,254,176

[HitObjects]
256,16,1203,5,0,0:0:0:0:
288,91,1578,5,0,0:0:0:0:
247,160,1765,1,0,0:0:0:0:
334,300,1953,1,0,0:0:0:0:
375,367,2328,5,0,0:0:0:0:
364,220,2703,6,0,B|355:211|341:208|341:208|357:202|367:206,1,52.5000020027161
489,61,2890,1,0,0:0:0:0:
411,87,3078,1,0,0:0:0:0:
512,141,3265,1,0,0:0:0:0:
416,300,3453,1,0,0:0:0:0:
375,367,3828,5,0,0:0:0:0:
256,16,4203,5,0,0:0:0:0:
224,91,4578,5,0,0:0:0:0:
265,160,4765,1,0,0:0:0:0:
177,293,4953,1,0,0:0:0:0:
136,360,5328,5,0,0:0:0:0:
148,220,5703,6,0,B|157:211|171:208|171:208|155:202|145:206,1,52.5000020027161
136,360,5890,1,0,0:0:0:0:
95,293,6078,1,0,0:0:0:0:
0,141,6265,1,0,0:0:0:0:
95,293,6453,1,0,0:0:0:0:
137,367,6828,6,0,L|160:368,1,13.125000500679
336,192,7203,6,0,L|344:120,1,52.5000020027161,8|0,0:0|0:0,0:0:0:0:
424,320,7578,5,0,0:0:0:0:
283,186,7765,2,0,L|355:194,1,52.5000020027161,8|0,0:0|0:0,0:0:0:0:
418,203,7953,1,0,0:0:0:0:
256,104,8140,2,0,L|256:72,2,26.2500010013581,8|8|8,0:0|0:0|0:0,0:0:0:0:
392,8,8328,1,8,0:0:0:0:
392,8,8703,5,0,0:0:0:0:
256,104,8890,2,0,L|256:77,2,26.2500010013581,8|8|8,0:0|0:0|0:0,0:0:0:0:
418,203,9078,1,8,0:0:0:0:
283,186,9265,2,0,L|335:191,1,52.5000020027161,0|0,0:0|0:0,0:0:0:0:
424,320,9453,1,8,0:0:0:0:
486,374,9828,5,8,0:0:0:0:
176,192,10203,6,0,L|168:120,1,52.5000020027161,8|0,0:0|0:0,0:0:0:0:
88,320,10578,5,0,0:0:0:0:
229,186,10765,2,0,L|157:194,1,52.5000020027161,8|0,0:0|0:0,0:0:0:0:
94,203,10953,1,0,0:0:0:0:
256,104,11140,2,0,L|256:72,2,26.2500010013581,8|8|8,0:0|0:0|0:0,0:0:0:0:
120,8,11328,1,8,0:0:0:0:
120,8,11703,5,0,3:0:0:0:
256,104,11890,2,0,L|256:77,2,26.2500010013581,8|8|8,0:0|0:0|0:0,0:0:0:0:
94,203,12078,1,8,0:0:0:0:
229,186,12265,2,0,L|176:191,1,52.5000020027161,0|0,3:0|0:0,0:0:0:0:
88,320,12453,1,10,0:0:0:0:
26,374,12640,1,0,0:0:0:0:
284,251,12828,2,0,P|306:253|337:246,1,52.5000020027161,0|0,3:0|0:0,0:0:0:0:
369,176,13015,2,0,P|392:170|422:171,1,35,0|0,0:0|0:0,0:0:0:0:
64,34,13203,5,4,1:2:0:0:
1,95,13578,5,2,0:0:0:0:
21,171,13765,1,2,0:3:0:0:
190,35,13953,2,0,L|186:-16,1,35,8|0,0:1|0:0,0:0:0:0:
21,171,14328,5,0,3:0:0:0:
41,247,14703,5,0,0:0:0:0:
170,305,14890,2,0,L|166:278,1,26.2500010013581,2|0,1:2|0:0,0:0:0:0:
298,353,15078,2,0,L|275:349,1,17.5,0|0,1:0|0:0,0:0:0:0:
21,171,15265,1,0,0:0:0:0:
190,35,15453,2,0,L|186:-16,1,35,8|0,0:1|0:0,0:0:0:0:
197,110,15828,5,0,3:0:0:0:
354,146,16015,1,0,1:0:0:0:
511,181,16203,1,0,1:0:0:0:
459,244,16578,5,2,0:0:0:0:
479,320,16765,1,0,3:0:0:0:
354,146,16953,2,0,L|360:95,1,35,8|0,0:1|0:0,0:0:0:0:
479,320,17328,6,0,P|508:303|483:273,1,52.5000020027161,2|0,0:3|0:0,0:0:0:0:
496,280,17515,2,0,P|467:297|492:327,1,52.5000020027161,2|0,0:3|0:0,0:0:0:0:
435,384,17703,1,2,0:0:0:0:
290,313,17890,2,0,L|294:342,1,26.2500010013581,2|0,1:2|0:0,0:0:0:0:
150,250,18078,2,0,L|156:199,1,35,4|0,1:3|0:0,0:0:0:0:
354,146,18453,6,0,L|360:95,1,35,8|0,0:1|0:0,0:0:0:0:
322,220,18640,1,0,0:0:0:0:
323,102,18828,6,0,P|226:149|193:46,1,245,2|0,3:0|0:0,0:0:0:0:
256,0,19203,5,4,1:2:0:0:
194,46,19578,5,0,0:0:0:0:
103,73,19765,1,8,0:0:0:0:
324,101,19953,6,0,L|400:110,1,70,8|0,0:1|0:0,0:0:0:0:
456,60,20140,2,0,L|494:64,2,35,8|8|8,0:0|0:0|0:0,0:0:0:0:
393,109,20328,1,8,0:0:0:0:
420,183,20703,5,0,0:0:0:0:
256,232,20890,2,0,L|260:261,1,26.2500010013581,8|0,1:2|0:0,0:0:0:0:
92,281,21078,2,0,L|114:284,1,17.5,8|0,1:2|0:0,0:0:0:0:
191,331,21265,1,0,0:0:0:0:
324,100,21453,6,0,L|400:109,1,70,8|0,0:1|0:0,0:0:0:0:
408,96,21828,5,8,1:2:0:0:
375,178,21921,1,0,1:0:0:0:
441,231,22015,1,0,1:0:0:0:
408,313,22109,1,0,1:0:0:0:
474,366,22203,1,8,0:0:0:0:
256,256,23703,6,0,L|256:221,1,35,2|0,0:0|0:0,0:0:0:0:
256,141,23890,2,0,L|256:157,3,11.6666666666667,2|0|0|0,0:3|0:0|0:0|0:0,0:0:0:0:
224,224,24078,5,0,3:0:0:0:
288,288,24203,5,0,3:0:0:0:
240,344,24328,5,0,3:0:0:0:
256,384,24453,5,0,3:0:0:0:
288,82,24828,2,0,B|256:90|224:82|224:82|240:98|240:98|256:106|272:98|272:98|264:114|264:114|256:119|248:114|248:114|256:130|256:130|256:154,1,183.750001752377,0|0,0:0|0:0,0:0:0:0:
56,64,25203,5,6,3:2:0:0:
56,64,25226,2,0,L|39:-15,1,65.625
56,64,25578,5,2,3:2:0:0:
56,64,25601,2,0,L|39:-15,1,65.625
56,64,25953,5,2,3:2:0:0:
56,64,25976,2,0,L|39:-15,1,65.625
56,64,26328,5,2,3:2:0:0:
56,64,26351,2,0,L|39:-15,1,65.625
184,192,26515,1,2,3:2:0:0:
40,384,26703,5,2,3:2:0:0:
40,384,26726,2,0,L|57:305,1,65.625
40,384,27078,5,2,3:2:0:0:
40,384,27101,2,0,L|57:305,1,65.625
104,208,27453,5,2,1:3:0:0:
104,208,27476,2,0,P|73:225|23:221,1,65.625
256,320,27734,5,2,1:2:0:0:
256,320,27757,2,0,P|256:355|227:396,1,65.625
408,208,28015,5,2,1:3:0:0:
408,208,28038,2,0,P|438:225|459:270,1,65.625
448,136,28203,5,2,3:2:0:0:
448,136,28226,2,0,L|527:119,1,65.625
448,136,28578,5,2,3:2:0:0:
448,136,28601,2,0,L|527:119,1,65.625
448,136,28953,5,2,3:2:0:0:
448,136,28976,2,0,L|527:119,1,65.625
448,136,29328,5,2,3:2:0:0:
448,136,29351,2,0,L|527:119,1,65.625
304,192,29515,1,2,3:2:0:0:
360,368,29703,5,2,3:2:0:0:
360,368,29726,2,0,L|281:351,1,65.625
360,368,30078,5,2,3:2:0:0:
360,368,30101,2,0,L|281:351,1,65.625
56,336,30453,6,0,P|135:386|219:344,1,183.750007009506,2|0,3:3|0:0,0:0:0:0:
213,345,30640,2,0,P|206:324|169:302,1,61.25,0|0,0:2|0:0,0:0:0:0:
174,302,30828,6,0,P|95:252|11:294,1,183.750007009506,0|0,3:0|0:0,0:0:0:0:
17,293,31015,2,0,P|24:314|61:336,1,61.25,2|0,3:3|0:0,0:0:0:0:
251,247,31203,5,4,3:2:0:0:
251,247,31226,2,0,L|233:165,1,65.625
260,210,31578,5,2,3:2:0:0:
260,210,31601,2,0,L|242:128,1,65.625,0|0,0:0|0:0,0:0:0:0:
269,174,31953,5,2,3:2:0:0:
269,174,31976,2,0,L|251:92,1,65.625,0|0,0:0|0:0,0:0:0:0:
278,138,32328,5,2,3:2:0:0:
278,138,32351,2,0,L|260:56,1,65.625,0|0,0:0|0:0,0:0:0:0:
372,18,32515,1,2,3:2:0:0:
181,77,32703,5,2,3:2:0:0:
116,54,32765,1,2,0:0:0:0:
256,312,33078,5,2,3:2:0:0:
256,312,33101,2,0,L|256:377,1,65.625,0|0,0:0|0:0,0:0:0:0:
408,176,33453,5,2,1:3:0:0:
408,176,33476,2,0,P|439:159|489:163,1,65.625
256,64,33734,5,2,1:2:0:0:
256,64,33757,2,0,P|256:29|285:-12,1,65.625
104,176,34015,5,2,1:3:0:0:
104,176,34038,2,0,P|74:159|53:114,1,65.625
260,181,34203,6,0,P|258:202|256:181,1,61.2500005841255,0|0,1:2|0:0,0:0:0:0:
266,179,34390,2,0,P|254:208|262:177,1,96.2500009179115,0|0,1:0|0:0,0:0:0:0:
272,175,34578,2,0,P|247:212|266:171,1,131.250003129244,0|0,1:0|0:0,0:0:0:0:
282,181,34765,2,0,P|238:213|277:173,1,166.250001585484,0|0,1:0|0:0,0:0:0:0:
289,187,34953,2,0,P|229:212|286:177,1,201.250003838539,0|0,1:0|0:0,0:0:0:0:
295,187,35140,2,0,P|217:199|292:176,1,236.250003942847,0|0,1:0|0:0,0:0:0:0:
320,32,35328,5,0,1:0:0:0:
256,72,35421,1,0,1:0:0:0:
192,32,35515,2,0,L|152:32,1,35,0|0,1:0|1:0,0:0:0:0:
240,312,35703,5,0,1:0:0:0:
272,312,35726,1,0,0:0:0:0:
268,149,37203,5,2,0:3:0:0:
246,79,37234,1,2,0:0:0:0:
245,226,37484,5,2,0:3:0:0:
267,156,37515,1,2,0:0:0:0:
270,304,37765,5,2,0:3:0:0:
248,234,37796,1,2,0:0:0:0:
141,349,37953,6,0,P|170:344|175:316,1,35,0|0,3:0|0:0,0:0:0:0:
384,245,38140,2,0,P|350:247|329:229,1,61.25,0|0,3:0|0:0,0:0:0:0:
257,186,38328,6,0,L|253:198,1,13.125,0|0,1:0|0:0,0:0:0:0:
242,115,38515,5,8,0:0:0:0:
196,241,38609,1,8,0:0:0:0:
329,218,38703,1,2,0:1:0:0:
175,58,38984,5,2,0:0:0:0:
175,58,39078,2,0,L|194:-22,1,52.5000020027161,0|0,1:0|0:0,0:0:0:0:
127,125,39265,2,0,L|123:138,1,13.125,2|0,0:0|0:0,0:0:0:0:
70,327,39453,6,0,P|92:342|95:355,1,35,8|0,0:1|0:0,0:0:0:0:
273,316,39640,2,0,P|275:281|294:258,1,61.25,0|0,3:0|0:0,0:0:0:0:
250,191,39828,6,0,L|262:194,1,13.125,0|0,0:0|0:0,0:0:0:0:
179,205,40015,5,8,0:0:0:0:
305,251,40109,1,8,0:0:0:0:
282,118,40203,1,2,1:0:0:0:
70,327,40484,5,2,0:0:0:0:
70,327,40578,2,0,L|-10:308,1,52.5000020027161,0|0,0:0|0:0,0:0:0:0:
137,375,40765,2,0,L|150:378,1,13.125,2|0,0:0|0:0,0:0:0:0:
338,305,40953,6,0,P|356:289|373:288,1,35,8|0,0:1|0:0,0:0:0:0:
181,79,41140,2,0,P|199:108|192:140,1,61.25,0|0,3:0|0:0,0:0:0:0:
250,191,41328,6,0,L|262:194,1,13.125
191,147,41515,5,8,0:0:0:0:
248,268,41609,1,8,0:0:0:0:
326,158,41703,2,0,P|321:147|314:144,1,17.5,2|0,0:1|0:0,0:0:0:0:
483,44,41984,2,0,L|475:81,1,35,2|0,0:2|0:0,0:0:0:0:
454,164,42265,1,2,0:2:0:0:
454,164,42453,6,0,P|389:205|322:135,1,183.750007009506,8|0,0:1|0:0,0:0:0:0:
320,134,42640,2,0,P|294:113|265:124,1,52.5,4|0,0:3|0:0,0:0:0:0:
276,115,42828,6,0,P|341:74|408:144,1,183.750007009506,2|0,3:0|0:0,0:0:0:0:
410,145,43015,2,0,P|436:166|465:155,1,52.5,0|0,3:0|0:0,0:0:0:0:
244,149,43203,5,2,0:3:0:0:
266,79,43234,1,2,0:0:0:0:
267,226,43484,5,2,0:3:0:0:
245,156,43515,1,2,0:0:0:0:
242,304,43765,5,2,0:3:0:0:
264,234,43796,1,2,0:0:0:0:
98,336,43953,6,0,P|131:300|129:279,1,52.5000020027161,8|0,0:1|0:0,0:0:0:0:
161,67,44140,2,0,P|188:87|197:150,1,91.8750035047532,0|0,3:0|0:0,0:0:0:0:
145,227,44328,6,0,L|144:213,1,13.125,4|0,1:0|0:0,0:0:0:0:
143,204,44515,5,8,0:0:0:0:
268,305,44609,1,8,0:0:0:0:
369,180,44703,1,2,0:1:0:0:
201,353,44984,5,2,0:0:0:0:
201,353,45078,2,0,L|121:372,1,52.5000020027161,0|0,1:0|0:0,0:0:0:0:
268,305,45265,2,0,L|281:301,1,13.125,2|0,0:0|0:0,0:0:0:0:
470,235,45453,6,0,P|452:234|437:226,1,35,8|0,0:1|0:0,0:0:0:0:
307,33,45640,2,0,P|327:55|334:85,1,61.25,0|0,3:0|0:0,0:0:0:0:
367,157,45828,6,0,L|368:171,1,13.125,0|0,0:0|0:0,0:0:0:0:
369,180,46015,5,8,0:0:0:0:
244,79,46109,1,8,0:0:0:0:
143,204,46203,2,0,L|155:202,1,8.75,10|8,1:1|0:0,0:0:0:0:
0,98,46390,5,8,0:0:0:0:
0,98,46484,2,0,L|3:86,2,8.75,10|8|8,0:2|0:0|0:0,0:0:0:0:
157,17,46765,2,0,L|173:20,1,8.75,10|8,1:2|0:0,0:0:0:0:
49,164,46953,6,0,P|79:146|108:149,1,35,8|8,0:1|0:0,0:0:0:0:
273,63,47140,2,0,P|281:86|279:130,1,61.25,8|0,3:2|0:0,0:0:0:0:
255,206,47328,6,0,L|254:192,1,13.125,8|0,1:2|0:0,0:0:0:0:
369,180,47515,5,8,0:0:0:0:
244,79,47609,1,8,0:0:0:0:
143,204,47703,2,0,L|155:202,1,8.75,2|0,0:1|0:0,0:0:0:0:
255,44,47890,5,8,1:2:0:0:
255,44,47984,2,0,L|257:13,2,17.5,2|8|0,0:2|1:2|0:0,0:0:0:0:
409,98,48265,2,0,L|391:95,1,17.5,2|0,0:2|0:0,0:0:0:0:
200,127,48453,6,0,P|251:197|336:178,1,183.750007009506,8|0,0:1|0:0,0:0:0:0:
341,173,48640,2,0,P|254:182|228:265,1,183.750007009506,4|0,0:3|0:0,0:0:0:0:
231,270,48828,2,0,P|244:258|255:245,3,35,2|0|0|0,1:3|0:0|0:0|0:0,0:0:0:0:
295,68,49203,5,2,0:3:0:0:
225,46,49234,1,2,0:0:0:0:
443,164,49484,5,2,0:3:0:0:
409,98,49515,1,2,0:0:0:0:
479,336,49765,5,2,0:3:0:0:
502,265,49796,1,2,0:0:0:0:
385,220,49953,6,0,P|412:240|428:244,1,35,8|0,0:1|0:0,0:0:0:0:
485,342,50140,5,0,1:0:0:0:
397,331,50234,1,0,1:0:0:0:
310,320,50328,2,0,L|306:308,1,13.125,4|0,1:0|0:0,0:0:0:0:
240,257,50515,5,8,0:0:0:0:
149,364,50609,1,8,0:0:0:0:
16,303,50703,2,0,L|19:282,1,17.5,2|0,0:1|0:0,0:0:0:0:
53,68,50984,5,2,0:0:0:0:
53,68,51078,2,0,L|-27:87,1,52.5000020027161,0|0,1:0|0:0,0:0:0:0:
113,3,51265,2,0,L|126:-1,1,13.125,2|0,0:0|0:0,0:0:0:0:
343,28,51453,6,0,P|327:10|326:-7,1,35,8|0,0:1|0:0,0:0:0:0:
118,185,51640,2,0,P|147:167|179:174,1,61.25,0|0,3:0|0:0,0:0:0:0:
215,240,51828,6,0,L|219:228,1,13.125,0|0,0:1|0:0,0:0:0:0:
285,177,52015,5,8,0:0:0:0:
376,284,52109,1,8,0:0:0:0:
509,223,52203,2,0,L|506:202,1,17.5,2|0,1:0|0:0,0:0:0:0:
403,81,52484,5,2,0:0:0:0:
403,81,52578,2,0,L|414:162,1,52.5000020027161
343,28,52765,2,0,L|340:14,1,13.125,2|0,0:0|0:0,0:0:0:0:
172,170,52953,6,0,P|147:168|135:157,1,35,8|0,0:1|0:0,0:0:0:0:
42,378,53140,2,0,P|24:349|31:317,1,61.25,0|0,3:1|0:0,0:0:0:0:
87,284,53328,6,0,L|99:288,1,13.125,0|0,0:0|0:0,0:0:0:0:
162,244,53515,5,8,0:0:0:0:
253,351,53609,1,8,0:0:0:0:
386,290,53703,2,0,L|383:269,1,17.5,2|0,0:1|0:0,0:0:0:0:
316,63,53984,2,0,L|309:100,1,35,2|0,0:2|0:1,0:0:0:0:
326,207,54265,1,2,0:2:0:0:
326,207,54453,6,0,P|263:177|170:236,1,183.750007009506,8|0,0:1|0:0,0:0:0:0:
171,240,54640,2,0,P|185:267|186:304,1,61.25,4|0,0:3|0:0,0:0:0:0:
183,304,54828,6,0,P|245:333|338:274,1,183.750007009506,2|0,0:3|0:0,0:0:0:0:
340,272,55015,2,0,P|325:244|324:207,1,61.25,0|0,3:0|0:0,0:0:0:0:
10,265,55203,5,2,0:3:0:0:
33,336,55234,1,2,0:0:0:0:
103,98,55484,5,2,0:3:0:0:
69,164,55515,1,2,0:0:0:0:
287,46,55765,5,2,0:3:0:0:
217,68,55796,1,2,0:0:0:0:
325,167,55953,6,0,P|313:138|290:120,1,52.5000020027161,8|0,0:1|0:0,0:0:0:0:
474,3,56140,2,0,P|436:18|423:37,1,61.25,0|0,3:0|0:0,0:0:0:0:
385,105,56328,6,0,L|398:105,1,13.125,4|0,1:0|0:0,0:0:0:0:
444,171,56515,5,8,0:0:0:0:
337,278,56609,1,8,0:0:0:0:
295,141,56703,2,0,L|297:123,1,17.5,2|0,0:1|0:0,0:0:0:0:
429,314,56984,5,2,0:0:0:0:
429,314,57078,2,0,L|448:394,1,52.5000020027161,0|0,1:0|0:0,0:0:0:0:
484,253,57265,2,0,L|480:240,1,13.125000500679,2|0,0:0|0:0,0:0:0:0:
323,53,57453,6,0,P|341:37|358:36,1,35,8|0,0:1|0:0,0:0:0:0:
172,143,57640,2,0,P|199:156|229:153,1,61.25,0|0,3:0|0:0,0:0:0:0:
296,123,57828,6,0,L|309:124,1,13.125,0|0,0:0|0:0,0:0:0:0:
378,105,58015,5,8,0:0:0:0:
267,0,58109,1,8,0:0:0:0:
130,55,58203,2,0,L|132:73,1,17.5,2|8,1:1|0:0,0:0:0:0:
34,263,58390,5,8,0:0:0:0:
34,263,58484,2,0,L|48:252,2,17.5,10|8|8,0:0|0:0|0:0,0:0:0:0:
263,243,58765,6,0,L|246:235,1,17.5,10|0,1:2|0:0,0:0:0:0:
143,184,58953,2,0,L|159:191,1,17.5,8|0,0:1|0:0,0:0:0:0:
275,371,59140,5,8,0:0:0:0:
275,371,59234,2,0,L|273:353,2,17.5,10|8|8,0:0|1:2|0:0,0:0:0:0:
372,162,59515,6,0,L|357:172,1,17.5,10|0,0:0|0:0,0:0:0:0:
263,243,59703,1,8,0:0:0:0:
387,296,59984,5,2,0:0:0:0:
511,349,60265,5,2,0:0:0:0:
511,349,60453,6,0,P|530:293|496:245,1,122.5,8|0,0:3|0:0,0:0:0:0:
487,242,60640,6,0,P|475:225|482:207,1,40.8333333333333,4|0,0:3|0:0,0:0:0:0:
488,202,60828,6,0,P|507:146|473:98,1,122.5,2|0,0:3|0:0,0:0:0:0:
466,96,61015,6,0,P|454:79|461:61,1,40.8333333333333,0|0,3:0|0:0,0:0:0:0:
512,0,61203,5,2,0:2:0:0:
512,0,61578,5,2,0:2:0:0:
512,0,61953,5,2,0:2:0:0:
512,0,62328,5,2,0:2:0:0:
373,87,62515,5,2,0:2:0:0:
219,41,62703,5,2,0:2:0:0:
219,41,63078,5,2,0:2:0:0:
187,246,63453,5,2,0:2:0:0:
249,195,63734,5,2,0:2:0:0:
266,275,64015,5,2,0:2:0:0:
73,350,64203,5,2,0:2:0:0:
73,350,64578,5,2,0:2:0:0:
73,350,64953,5,2,0:2:0:0:
73,350,65328,5,2,0:2:0:0:
266,275,65515,1,8,0:0:0:0:
411,325,65703,5,2,0:2:0:0:
249,195,65890,1,8,0:0:0:0:
219,41,66078,5,2,0:2:0:0:
187,246,66453,6,0,L|185:260,2,14,8|8|8,0:0|0:0|0:0,0:0:0:0:
207,114,66734,6,0,L|205:128,2,14,8|8|8,0:0|0:0|0:0,0:0:0:0:
254,15,67015,6,0,P|213:13|188:-7,1,52.5000020027161,8|8,0:0|0:0,0:0:0:0:
0,0,67203,5,2,0:2:0:0:
0,0,67578,5,2,0:2:0:0:
0,0,67953,5,2,0:2:0:0:
0,0,68328,5,2,0:2:0:0:
104,123,68515,5,10,0:2:0:0:
258,77,68703,5,2,0:2:0:0:
351,44,68796,1,2,0:0:0:0:
281,0,69078,5,2,0:2:0:0:
281,0,69265,5,2,0:3:0:0:
393,151,69453,5,0,3:0:0:0:
458,235,69546,1,0,0:0:0:0:
298,170,69734,5,0,0:0:0:0:
139,87,70015,6,0,L|228:98,1,78.7500030040742,0|0,1:0|2:0,0:0:0:0:
235,54,70203,6,0,P|235:80|225:104,1,52.5000020027161,4|0,1:2|0:0,0:0:0:0:
118,212,70390,2,0,P|144:212|168:223,1,52.5000020027161,0|0,0:0|0:0,0:0:0:0:
276,329,70578,2,0,P|276:303|287:280,1,52.5000020027161,0|0,0:0|0:0,0:0:0:0:
393,171,70765,2,0,P|367:171|343:160,1,52.5000020027161,8|0,0:0|0:0,0:0:0:0:
218,2,70953,6,0,P|216:28|224:52,1,52.5000020027161,4|0,1:2|0:0,0:0:0:0:
445,154,71140,2,0,P|419:152|395:160,1,52.5000020027161,0|0,0:0|0:0,0:0:0:0:
293,381,71328,2,0,P|295:355|287:331,1,52.5000020027161,0|0,0:0|0:0,0:0:0:0:
65,229,71515,2,0,P|91:231|116:223,1,52.5000020027161,8|0,0:0|0:0,0:0:0:0:
141,112,71703,6,0,P|165:123|180:143,1,52.5000020027161,4|0,1:2|0:0,0:0:0:0:
176,307,71890,2,0,P|187:283|207:267,1,52.5000020027161,8|0,0:0|0:0,0:0:0:0:
371,272,72078,2,0,P|347:261|331:240,1,52.5000020027161,0|0,1:0|0:0,0:0:0:0:
336,77,72265,2,0,P|325:101|304:116,1,52.5000020027161,0|0,0:0|0:0,0:0:0:0:
256,360,72453,6,4,L|256:395,1,23.3333333333333,4|0,1:2|0:0,0:0:0:0:
256,180,72703,6,4,L|256:203,1,23.3333333333333,0|0,1:0|0:0,0:0:0:0:
256,0,72953,6,4,L|256:35,1,23.3333333333333,0|0,1:0|0:0,0:0:0:0:
127,269,73203,5,6,3:2:0:0:
127,269,73226,2,0,L|48:286,1,65.625,0|0,0:0|0:0,0:0:0:0:
127,269,73578,5,2,3:2:0:0:
127,269,73601,2,0,L|48:286,1,65.625,0|0,0:0|0:0,0:0:0:0:
127,269,73953,5,2,3:2:0:0:
127,269,73976,2,0,L|48:286,1,65.625,0|0,0:0|0:0,0:0:0:0:
127,269,74328,5,2,3:2:0:0:
127,269,74351,2,0,L|48:286,1,65.625,0|0,0:0|0:0,0:0:0:0:
256,316,74515,1,0,3:0:0:0:
385,269,74703,5,2,3:2:0:0:
385,269,74726,2,0,L|464:286,1,65.625,0|0,0:0|0:0,0:0:0:0:
385,269,75078,5,2,3:2:0:0:
385,269,75101,2,0,L|464:286,1,65.625,0|0,0:0|0:0,0:0:0:0:
148,130,75453,5,2,1:3:0:0:
148,130,75476,2,0,P|128:101|81:84,1,65.625,0|0,0:0|0:0,0:0:0:0:
256,316,75734,5,2,1:2:0:0:
256,316,75757,2,0,P|241:348|250:396,1,65.625
363,130,76015,5,2,1:3:0:0:
363,130,76038,2,0,P|398:126|436:94,1,65.625
256,8,76203,5,2,3:2:0:0:
256,8,76226,2,0,L|256:73,1,65.625
256,8,76578,5,2,3:2:0:0:
256,8,76601,2,0,L|256:73,1,65.625,0|0,0:0|0:0,0:0:0:0:
256,8,76953,5,2,3:2:0:0:
256,8,76976,2,0,L|256:73,1,65.625,0|0,0:0|0:0,0:0:0:0:
256,8,77328,5,2,3:2:0:0:
256,8,77351,2,0,L|256:73,1,65.625,0|0,0:0|0:0,0:0:0:0:
188,148,77515,1,0,3:0:0:0:
290,231,77703,5,2,3:2:0:0:
290,231,77726,2,0,L|225:242,1,65.625,0|0,0:0|0:0,0:0:0:0:
290,231,78078,5,2,3:2:0:0:
290,231,78101,2,0,L|225:242,1,65.625,0|0,0:0|0:0,0:0:0:0:
352,257,78453,6,0,P|261:245|177:278,1,183.750007009506,2|0,3:0|0:0,0:0:0:0:
178,278,78640,2,0,P|174:247|156:223,1,61.25,0|0,0:0|0:0,0:0:0:0:
162,217,78828,6,0,P|252:228|336:195,1,183.750007009506,0|0,3:0|0:0,0:0:0:0:
336,196,79015,2,0,P|339:226|357:250,1,61.25,2|0,0:3|0:0,0:0:0:0:
264,384,79203,5,6,3:2:0:0:
264,384,79226,2,0,L|276:307,1,65.625
254,360,79578,5,2,3:2:0:0:
254,360,79601,2,0,L|241:283,1,65.625,0|0,0:0|0:0,0:0:0:0:
271,340,79953,5,2,3:2:0:0:
271,340,79976,2,0,L|283:263,1,65.625,0|0,0:0|0:0,0:0:0:0:
246,314,80328,5,2,3:2:0:0:
246,314,80351,2,0,L|233:237,1,65.625
256,168,80515,1,2,3:2:0:0:
276,68,80703,5,2,3:2:0:0:
240,10,80765,1,2,0:0:0:0:
332,220,81078,5,2,3:2:0:0:
332,220,81101,2,0,L|396:209,1,65.625,0|0,0:0|0:0,0:0:0:0:
256,316,81453,5,2,1:3:0:0:
256,316,81476,2,0,P|243:346|245:380,1,65.625,0|0,0:0|0:0,0:0:0:0:
148,130,81734,5,2,1:2:0:0:
148,130,81757,2,0,P|128:103|97:88,1,65.625
363,130,82015,5,2,1:3:0:0:
363,130,82038,2,0,P|395:126|424:106,1,65.625
252,203,82203,6,0,P|254:182|256:203,1,61.2500005841255,0|0,1:0|0:0,0:0:0:0:
260,177,82390,2,0,P|256:208|255:176,1,96.2500009179115,0|0,1:0|0:0,0:0:0:0:
245,212,82578,2,0,P|260:170|252:214,1,131.250003129244,0|0,1:0|0:0,0:0:0:0:
271,169,82765,2,0,P|250:219|263:165,1,166.250001585484,0|0,1:0|0:0,0:0:0:0:
229,213,82953,2,0,P|269:161|237:220,1,201.250003838539,0|0,1:0|0:0,0:0:0:0:
285,166,83140,2,0,P|238:227|276:158,1,236.250003942847,0|0,1:0|0:0,0:0:0:0:
192,352,83328,5,0,1:0:0:0:
256,312,83421,1,0,1:0:0:0:
320,352,83515,2,0,L|360:352,1,35,0|0,1:0|1:0,0:0:0:0:
256,40,83703,5,0,1:0:0:0:
256,72,83726,1,0,0:0:0:0:
60,116,85203,5,2,1:3:0:0:
130,94,85234,1,2,0:0:0:0:
445,106,85484,5,2,0:3:0:0:
375,128,85515,1,2,0:0:0:0:
226,40,85765,5,2,0:3:0:0:
296,62,85796,1,2,0:0:0:0:
254,160,85953,6,0,P|258:142|254:125,1,35,8|0,0:1|0:0,0:0:0:0:
152,273,86140,1,0,0:0:0:0:
125,334,86234,1,0,0:0:0:0:
46,300,86328,6,0,L|60:301,1,13.125,4|0,1:0|0:0,0:0:0:0:
121,338,86515,5,8,0:0:0:0:
249,275,86609,1,8,0:0:0:0:
346,379,86703,1,2,0:1:0:0:
431,114,86984,5,2,0:0:0:0:
431,114,87078,2,0,L|351:95,1,52.5000020027161,0|0,1:0|0:0,0:0:0:0:
498,162,87265,2,0,L|511:166,1,13.125,2|0,0:0|0:0,0:0:0:0:
313,188,87453,6,0,P|304:173|288:166,1,35,8|0,0:1|0:0,0:0:0:0:
134,96,87640,2,0,P|142:81|186:58,1,61.25,0|0,0:0|0:0,0:0:0:0:
248,73,87828,6,0,L|245:86,1,13.125,0|0,3:3|0:0,0:0:0:0:
195,137,88015,5,2,0:0:0:0:
238,272,88109,1,8,0:0:0:0:
334,166,88203,1,2,1:0:0:0:
59,98,88484,5,2,0:0:0:0:
59,98,88578,2,0,L|40:18,1,52.5000020027161,0|0,0:0|0:0,0:0:0:0:
107,165,88765,2,0,L|111:178,1,13.125,2|0,0:0|0:0,0:0:0:0:
0,354,88953,6,0,P|31:360|48:375,1,35,8|0,0:1|0:0,0:0:0:0:
152,296,89140,2,0,P|180:318|191:347,1,61.25,0|0,0:0|0:0,0:0:0:0:
256,376,89328,6,0,L|256:362,1,13.125,0|0,3:0|0:0,0:0:0:0:
244,287,89515,5,8,0:2:0:0:
267,160,89609,1,2,0:2:0:0:
267,160,89890,6,0,P|250:104|192:101,1,122.5,2|0,0:3|0:0,0:0:0:0:
186,106,90078,2,0,P|241:89|244:31,1,122.5,2|0,1:3|0:0,0:0:0:0:
238,31,90265,2,0,P|254:86|312:89,1,122.5,2|0,0:3|0:0,0:0:0:0:
318,85,90453,2,0,P|262:101|259:159,1,122.5,10|0,0:3|0:0,0:0:0:0:
256,168,90640,6,0,P|261:208|256:248,1,70,2|0,0:3|0:0,0:0:0:0:
183,273,90828,2,0,P|136:238|190:218,1,140,0|0,1:2|0:0,0:0:0:0:
327,242,91015,2,0,P|373:276|319:296,1,140,0|0,3:0|0:0,0:0:0:0:
52,317,91203,5,2,3:3:0:0:
122,339,91234,1,2,0:0:0:0:
447,329,91484,5,2,1:3:0:0:
377,307,91515,1,2,0:0:0:0:
222,383,91765,5,2,1:3:0:0:
292,361,91796,1,2,0:0:0:0:
258,224,91953,6,0,P|254:242|258:259,1,35,8|0,0:1|0:0,0:0:0:0:
336,168,92140,1,0,0:0:0:0:
322,93,92234,1,0,0:0:0:0:
412,131,92328,6,0,L|411:145,1,13.125,4|0,1:0|0:0,0:0:0:0:
340,172,92515,5,8,0:0:0:0:
212,109,92609,1,8,0:0:0:0:
115,213,92703,1,2,0:1:0:0:
287,73,92984,5,2,0:0:0:0:
287,73,93078,2,0,L|367:92,1,52.5000020027161,0|0,1:0|0:0,0:0:0:0:
220,25,93265,2,0,L|207:21,1,13.125,2|0,0:0|0:0,0:0:0:0:
137,31,93453,6,0,P|126:10|125:-8,1,35,8|0,0:1|0:0,0:0:0:0:
319,197,93640,2,0,P|306:217|271:233,1,61.25,0|0,0:0|0:0,0:0:0:0:
218,192,93828,6,0,L|215:176,1,13.125,0|0,3:3|0:0,0:0:0:0:
274,141,94015,5,2,0:0:0:0:
402,204,94109,1,8,0:0:0:0:
499,100,94203,2,0,L|489:92,1,8.75,10|8,1:1|0:0,0:0:0:0:
368,14,94390,5,8,0:0:0:0:
368,14,94484,2,0,L|356:19,2,8.75,10|8|8,0:0|0:0|0:0,0:0:0:0:
249,70,94765,2,0,L|263:67,1,13.125,10|0,1:2|0:0,0:0:0:0:
309,122,94953,6,0,P|335:134|352:134,1,35,8|8,0:1|0:0,0:0:0:0:
202,16,95140,2,0,P|166:19|144:29,1,61.25,8|0,1:2|0:0,0:0:0:0:
74,7,95328,6,0,L|71:20,1,13.125,8|0,1:0|0:0,0:0:0:0:
71,90,95515,5,8,0:0:0:0:
0,192,95609,1,2,0:2:0:0:
0,192,95890,6,0,P|52:244|104:192,1,165.375000630856,2|0,3:3|0:0,0:0:0:0:
108,188,96078,2,0,P|153:140|200:186,1,146.999995513916,2|0,1:3|0:0,0:0:0:0:
204,191,96265,2,0,P|243:232|284:192,1,128.624996074677,2|0,3:3|0:0,0:0:0:0:
288,187,96453,2,0,P|316:156|345:185,1,91.8750035047532,10|0,0:3|0:0,0:0:0:0:
349,189,96640,2,0,P|371:213|394:190,1,73.4999977569581,2|0,0:3|0:0,0:0:0:0:
464,192,96828,6,0,L|473:192,3,6.99999978637696
255,1,97203,5,0,1:2:0:0:
221,76,97484,5,0,1:2:0:0:
290,121,97578,1,2,1:2:0:0:
250,191,97765,5,0,1:3:0:0:
290,263,97953,5,8,0:0:0:0:
221,308,98046,1,2,0:2:0:0:
255,383,98140,1,2,0:0:0:0:
250,191,98328,6,0,L|262:194,1,13.125,0|0,1:0|0:0,0:0:0:0:
179,205,98515,5,8,0:0:0:0:
305,251,98609,1,8,0:0:0:0:
282,118,98703,1,2,0:1:0:0:
70,327,98984,5,0,1:0:0:0:
181,287,99078,2,0,L|101:268,1,52.5000020027161,2|0,1:2|0:0,0:0:0:0:
230,351,99265,2,0,L|243:350,1,13.125,0|0,1:2|0:0,0:0:0:0:
429,383,99453,5,8,0:0:0:0:
457,207,99546,1,2,0:0:0:0:
390,164,99640,2,0,P|356:166|331:180,1,61.25,2|0,0:0|0:0,0:0:0:0:
262,193,99828,6,0,L|250:190,1,13.125,0|0,1:0|0:0,0:0:0:0:
207,133,100015,5,8,0:0:0:0:
230,266,100109,1,8,0:0:0:0:
333,179,100203,1,2,1:1:0:0:
170,0,100484,5,0,1:0:0:0:
87,94,100578,2,0,L|106:14,1,52.5000020027161,2|0,1:2|0:0,0:0:0:0:
194,130,100765,2,0,L|196:142,1,13.125,0|0,1:2|0:0,0:0:0:0:
128,275,100953,5,8,0:0:0:0:
304,303,101046,1,2,0:0:0:0:
347,236,101140,2,0,P|345:202|331:177,1,61.25,2|0,0:0|0:0,0:0:0:0:
257,186,101328,6,0,L|254:198,1,13.125,0|0,1:0|0:0,0:0:0:0:
243,115,101515,5,8,0:0:0:0:
197,241,101609,1,8,0:0:0:0:
330,218,101703,2,0,P|341:213|344:206,1,17.5,2|0,0:1|0:0,0:0:0:0:
332,178,101984,5,0,0:1:0:0:
363,8,102078,1,2,1:2:0:0:
160,38,102265,6,0,L|129:42,1,26.25,0|0,1:2|0:0,0:0:0:0:
58,31,102453,5,2,0:3:0:0:
87,105,102546,1,2,1:3:0:0:
1,203,102640,2,0,P|2:171|9:146,1,52.5,0|0,1:0|0:0,0:0:0:0:
70,108,102828,6,0,L|83:106,1,13.125,2|0,1:3|0:0,0:0:0:0:
133,41,103015,5,8,0:0:0:0:
222,121,103109,1,8,0:0:0:0:
257,1,103203,1,0,1:0:0:0:
291,76,103484,5,0,1:2:0:0:
222,121,103578,1,2,1:2:0:0:
256,192,103765,5,0,1:3:0:0:
222,263,103953,5,8,0:0:0:0:
291,308,104046,1,2,0:2:0:0:
257,383,104140,1,2,0:2:0:0:
395,267,104328,6,0,P|384:278|398:268,1,52.5,4|0,1:0|0:0,0:0:0:0:
336,210,104515,5,8,0:0:0:0:
222,263,104609,1,8,0:0:0:0:
136,172,104703,1,2,0:1:0:0:
328,52,104984,5,0,1:0:0:0:
217,12,105078,2,0,L|297:-7,1,52.5000020027161,2|0,1:2|0:0,0:0:0:0:
168,76,105265,2,0,L|155:75,1,13.125,0|0,1:2|0:0,0:0:0:0:
230,118,105453,5,8,0:0:0:0:
58,65,105546,1,2,0:0:0:0:
15,132,105640,2,0,P|17:166|31:191,1,61.25,2|0,0:0|0:0,0:0:0:0:
102,202,105828,2,0,L|100:215,1,13.125,0|0,1:0|0:0,0:0:0:0:
46,265,106015,5,8,0:0:0:0:
177,204,106109,1,8,0:0:0:0:
276,308,106203,1,2,0:1:0:0:
512,235,106484,5,0,1:0:0:0:
401,195,106578,2,0,L|481:176,1,52.5000020027161,2|0,1:2|0:0,0:0:0:0:
352,259,106765,2,0,L|339:258,1,13.125,0|0,1:0|0:0,0:0:0:0:
202,379,106953,5,8,1:2:0:0:
177,204,107046,1,10,1:2:0:0:
177,204,107140,2,0,L|224:194,1,35,10|0,1:2|0:0,0:0:0:0:
363,90,107328,6,0,L|351:87,1,13.125,8|0,1:2|0:0,0:0:0:0:
308,30,107515,5,8,0:2:0:0:
191,78,107609,1,8,0:0:0:0:
91,0,107703,1,2,0:0:0:0:
42,60,107984,5,2,0:0:0:0:
42,60,108078,1,2,0:0:0:0:
77,128,108265,5,0,0:0:0:0:
32,192,108453,5,2,0:3:0:0:
32,192,108546,1,2,0:3:0:0:
72,258,108640,1,0,3:0:0:0:
0,384,108828,2,0,L|14:381,1,13.125,2|0,3:3|0:0,0:0:0:0:
177,204,109015,5,8,0:0:0:0:
190,292,109109,1,8,0:0:0:0:
202,379,109203,2,0,L|216:379,1,14,4|0,1:3|0:0,0:0:0:0:
417,301,109765,6,0,L|421:287,1,14,4|0,1:3|0:0,0:0:0:0:
409,72,109953,2,0,L|398:64,1,14,4|0,1:3|0:0,0:0:0:0:
189,8,110328,6,0,L|178:17,1,14,4|0,1:3|0:0,0:0:0:0:
60,198,110890,6,0,L|65:212,1,14,4|0,1:3|0:0,0:0:0:0:
168,298,111078,2,0,L|171:284,1,14,4|0,1:3|0:0,0:0:0:0:
140,154,111265,2,0,L|129:163,1,14,0|0,0:0|0:0,0:0:0:0:
78,288,111453,6,0,L|93:287,1,14,4|0,1:3|0:0,0:0:0:0:
256,80,111828,6,0,L|256:24,1,52.5000020027161,8|0,0:1|0:0,0:0:0:0:
335,204,112015,5,8,0:0:0:0:
322,292,112109,1,8,0:0:0:0:
310,379,112203,2,0,L|296:379,1,14,4|0,1:3|0:0,0:0:0:0:
95,301,112765,6,0,L|91:287,1,14,4|0,1:3|0:0,0:0:0:0:
103,72,112953,2,0,L|114:64,1,14,4|0,1:3|0:0,0:0:0:0:
323,8,113328,6,0,L|334:17,1,14,4|0,1:3|0:0,0:0:0:0:
451,198,113890,6,0,L|446:212,1,14,4|0,1:3|0:0,0:0:0:0:
344,298,114078,2,0,L|340:284,1,14,4|0,1:3|0:0,0:0:0:0:
372,154,114265,2,0,L|383:163,1,14,0|0,0:0|0:0,0:0:0:0:
434,288,114453,6,0,L|419:287,1,14,8|0,0:1|0:0,0:0:0:0:
256,176,114640,2,0,L|256:224,1,35,0|0,0:0|0:0,0:0:0:0:
288,40,114828,6,0,B|256:48|224:40|224:40|240:56|240:56|256:64|272:56|272:56|264:72|264:72|256:77|248:72|248:72|256:88|256:88|256:112,1,181.999991668702
248,384,117171,6,0,L|240:280,1,90.9999958343508,2|0,0:3|0:0,0:0:0:0:
250,219,117406,6,0,L|256:288,1,68.2499968757631,2|0,0:3|0:0,0:0:0:0:
264,213,117593,6,0,L|257:122,1,90.9999958343508,0|0,1:2|0:0,0:0:0:0:
162,12,117839,6,0,P|138:-20|138:28,1,210,4|0,1:2|0:0,0:0:0:0:
358,106,118334,2,0,P|382:74|382:122,1,210,0|0,1:0|0:0,0:0:0:0:
177,152,118830,6,0,P|183:119|208:122,1,70,0|0,3:0|0:0,0:0:0:0:
242,226,119078,6,0,L|239:192,1,35,0|0,1:0|0:0,0:0:0:0:
349,273,119326,2,0,L|314:276,1,35,0|0,1:0|0:0,0:0:0:0:
262,347,119574,2,0,L|265:381,1,35,10|0,0:0|0:0,0:0:0:0:
154,299,119822,6,0,L|189:296,1,35,2|2,0:0|0:0,0:0:0:0:
139,300,120070,2,0,L|164:243,1,43.75,2|2,0:0|0:0,0:0:0:0:
114,304,120318,2,0,L|144:346,1,52.5000020027161,8|8,0:0|0:0,0:0:0:0:
30,293,120566,5,8,0:0:0:0:
0,383,120690,2,0,L|5:366,1,17.5,8|8,0:0|0:0,0:0:0:0:
