osu file format v14

[General]
AudioFilename: audio.mp3
AudioLeadIn: 0
PreviewTime: 35589
Countdown: 0
SampleSet: Normal
StackLeniency: 0.7
Mode: 0
LetterboxInBreaks: 0
WidescreenStoryboard: 1

[Editor]
DistanceSpacing: 1
BeatDivisor: 4
GridSize: 4
TimelineZoom: 2.2

[Metadata]
Title:Burnt Rice (feat. YUNG GEMMY)
TitleUnicode:Burnt Rice (feat. YUNG GEMMY)
Artist:Shawn Wasabi + YDG
ArtistUnicode:Shawn Wasabi + YDG
Creator:Mark9870
Version:Hard
Source:
Tags:
BeatmapID:1008146
BeatmapSetID:470369

[Difficulty]
HPDrainRate:5
CircleSize:3
OverallDifficulty:5
ApproachRate:6.5
SliderMultiplier:1.5
SliderTickRate:1

[Events]
//Background and Video events
0,0,"STOLENIMAGE.jpg",0,0
//Break Periods
2,61383,72208
//Storyboard Layer 0 (Background)
//Storyboard Layer 1 (Fail)
//Storyboard Layer 2 (Pass)
//Storyboard Layer 3 (Foreground)
//Storyboard Sound Samples

[TimingPoints]
1183,375,4,1,0,100,1,0
12808,-66.6666666666667,4,1,0,100,0,0
36995,-133.333333333333,4,1,0,100,0,0
38308,-133.333333333333,4,1,0,100,0,1
40370,-100,4,1,0,100,0,1
43089,-100,4,1,0,100,0,0
43839,-100,4,1,0,100,0,1
49089,-100,4,1,0,100,0,0
49839,-100,4,1,0,100,0,1
55089,-100,4,1,0,100,0,0
55933,-100,4,1,0,100,0,1
59683,-100,4,1,0,100,0,0
85933,-100,4,1,0,100,0,1
91183,-100,4,1,0,100,0,0
91933,-100,4,1,0,100,0,1
97089,-100,4,1,0,100,0,0
97933,-100,4,1,0,100,0,1
103183,-100,4,1,0,100,0,0
103839,-100,4,1,0,100,0,1
107589,-100,4,1,0,100,0,0
109089,-100,4,1,0,100,0,1
115183,-100,4,1,0,100,0,0

[HitObjects]
164,144,1183,5,0,0:0:0:0:
388,96,1558,1,0,0:0:0:0:
376,264,1933,1,0,0:0:0:0:
224,188,2308,1,0,0:0:0:0:
364,136,2683,2,0,P|312:200|356:212,1,150
196,172,3433,1,0,0:0:0:0:
324,92,3808,1,0,0:0:0:0:
272,232,4183,5,0,0:0:0:0:
360,112,4558,1,0,0:0:0:0:
216,152,4933,2,0,B|144:172|120:204|88:248,1,150
244,252,5683,2,0,B|312:196|344:212|400:196|384:176,3,150
260,100,7183,5,0,0:0:0:0:
152,208,7558,1,0,0:0:0:0:
300,196,7933,2,0,B|384:184|416:224|456:200,1,150
296,212,8683,2,0,B|212:224|180:184|140:208,1,150
284,140,9433,5,0,0:0:0:0:
288,288,9808,1,0,0:0:0:0:
164,208,10183,2,0,B|200:176|208:212|248:216|224:152|260:216|308:172,1,150
352,316,10933,2,0,L|396:172,1,150
244,176,11683,6,0,L|156:152,4,75
432,52,12808,1,0,0:0:0:0:
344,260,13183,1,0,0:0:0:0:
160,132,13558,1,0,0:0:0:0:
384,152,13933,2,0,B|312:104|292:184|208:104|276:92|188:168|244:76|240:184|276:136|204:196,1,225.000008583069
48,332,14683,1,0,0:0:0:0:
228,196,15058,1,0,0:0:0:0:
412,68,15433,5,0,0:0:0:0:
420,292,15808,1,0,0:0:0:0:
224,180,16183,2,0,B|292:168|288:216|332:156|352:120|384:196|396:184|448:148,1,225.000008583069
220,192,16933,2,0,B|172:240|152:208|120:292|96:228|160:348|176:312|232:296,1,225.000008583069
400,168,17683,5,0,0:0:0:0:
176,176,18058,1,0,0:0:0:0:
384,260,18433,2,0,B|392:184|344:196|376:132|444:128|344:76|304:140,1,225.000008583069
180,320,19183,5,0,0:0:0:0:
124,104,19558,2,0,B|196:136|184:156|224:172|256:160|268:196|284:224|320:200,1,225.000008583069
260,288,20308,2,0,B|232:204|168:228|316:196|180:140|304:100,1,225.000008583069
160,280,21058,1,0,0:0:0:0:
72,72,21433,1,0,0:0:0:0:
284,148,21808,1,0,0:0:0:0:
116,300,22183,5,0,0:0:0:0:
316,196,25183,5,0,0:0:0:0:
100,256,25558,2,0,B|172:216|160:188|264:216|276:124,1,225.000008583069
132,300,26308,2,0,B|216:244|256:240|300:216|320:164,1,225.000008583069
144,320,27058,2,0,B|288:256|304:228|340:176,1,225.000008583069
132,80,27808,5,0,0:0:0:0:
356,68,28183,1,0,0:0:0:0:
368,292,28558,1,0,0:0:0:0:
144,300,28933,2,0,P|240:224|192:200,1,225.000008583069
212,203,29683,2,0,P|292:148|288:236,1,225.000008583069
104,108,30433,5,0,0:0:0:0:
276,252,30808,1,0,0:0:0:0:
64,332,31183,1,0,0:0:0:0:
228,176,31558,2,0,B|312:160|316:212|348:160|356:208|384:152|392:192|428:120,1,225.000008583069
312,316,32308,2,0,B|256:224|176:260|136:176,1,225.000008583069
352,108,33058,5,0,0:0:0:0:
256,312,33433,1,0,0:0:0:0:
124,128,33808,1,0,0:0:0:0:
256,192,34183,12,0,35683,0:0:0:0:
204,104,37183,5,0,0:0:0:0:
272,152,37464,1,0,0:0:0:0:
332,212,37745,1,0,0:0:0:0:
276,208,37933,2,0,B|240:188|232:232|168:192,1,112.500004291535
280,168,38683,2,0,B|312:152|336:192|392:160,1,112.500004291535
292,104,39433,5,0,0:0:0:0:
212,180,39808,1,0,0:0:0:0:
312,228,40183,2,0,B|376:224|376:204|436:232,1,112.500004291535
316,120,40933,1,0,0:0:0:0:
172,168,41308,2,0,B|220:196|236:188|220:248|280:280,1,150
396,188,42058,5,0,0:0:0:0:
248,192,42433,1,0,0:0:0:0:
316,60,42808,1,0,0:0:0:0:
324,208,43183,1,0,0:0:0:0:
176,180,43558,2,0,B|240:136|260:180|328:144,1,150
300,296,44308,2,0,B|244:268|244:248|196:232|156:212,1,150
300,140,45058,5,0,0:0:0:0:
156,184,45433,1,0,0:0:0:0:
280,268,45808,1,0,0:0:0:0:
256,192,46183,12,0,49183,0:0:0:0:
204,168,49558,6,0,B|272:184|288:244|360:244,1,150
384,100,50308,1,0,0:0:0:0:
236,132,50683,2,0,B|300:188|332:156|372:244,1,150
224,288,51433,2,0,B|184:232|148:268|96:188,1,150
216,100,52183,5,0,0:0:0:0:
236,248,52558,2,0,B|332:224|344:192|408:200,1,150
232,160,53308,1,0,0:0:0:0:
380,148,53683,1,0,0:0:0:0:
252,228,54058,2,0,B|212:172|160:240|120:168,1,150
236,272,54808,1,0,0:0:0:0:
204,124,55183,6,0,B|248:184|248:184|288:136|340:140,2,150
332,204,56308,1,0,0:0:0:0:
184,188,56683,2,0,B|260:148|256:108|332:100|332:100,1,150
216,224,57433,1,0,0:0:0:0:
216,76,57808,2,0,P|324:52|356:96,2,150
336,168,58933,5,0,0:0:0:0:
348,316,59308,1,0,0:0:0:0:
232,220,59683,2,0,B|300:148|324:132|324:136|304:96,2,150
84,192,60808,1,0,0:0:0:0:
224,132,61183,1,0,0:0:0:0:
256,144,73183,5,0,0:0:0:0:
176,268,73558,1,0,0:0:0:0:
316,212,73933,1,0,0:0:0:0:
172,164,74308,2,0,B|256:136|256:136|288:144|320:112,1,150
328,268,75058,2,0,B|284:236|276:280|208:240|188:208,1,150
316,128,75808,5,0,0:0:0:0:
172,168,76183,1,0,0:0:0:0:
308,236,76558,1,0,0:0:0:0:
404,128,76933,2,0,B|364:60|352:68|336:76|336:76|272:88,1,150
364,212,77683,2,0,B|304:200|300:228|300:228|252:240|248:264|268:284,1,150
220,156,78433,6,0,B|264:96|288:184|364:116,1,150
208,104,79183,1,0,0:0:0:0:
256,244,79558,1,0,0:0:0:0:
348,124,79933,2,0,B|420:132|424:168|416:200|420:232,1,150
284,296,80683,2,0,B|204:296|208:256|212:196,1,150
364,200,81433,5,0,0:0:0:0:
228,140,81808,1,0,0:0:0:0:
256,192,82183,12,0,83683,0:0:0:0:
172,120,85183,6,0,B|236:92|236:148|320:112,2,150
308,184,86308,1,0,0:0:0:0:
172,244,86683,2,0,B|248:224|264:264|344:248,3,150
424,144,88183,1,0,0:0:0:0:
276,160,88558,1,0,0:0:0:0:
364,280,88933,1,0,0:0:0:0:
460,164,89308,5,0,0:0:0:0:
312,184,89683,2,0,B|256:156|196:160|168:204,3,150
312,256,91183,2,0,P|384:216|392:140,3,150
252,112,92683,5,0,0:0:0:0:
188,248,93058,1,0,0:0:0:0:
336,260,93433,1,0,0:0:0:0:
200,200,93808,2,0,P|280:180|312:120,2,150
344,152,94933,2,0,P|368:236|436:256,2,150
192,152,96058,5,0,0:0:0:0:
336,192,96433,1,0,0:0:0:0:
196,244,96808,1,0,0:0:0:0:
344,244,97183,2,0,B|392:176|420:148|488:184,2,150
236,144,98308,5,0,0:0:0:0:
384,120,98683,1,0,0:0:0:0:
304,248,99058,1,0,0:0:0:0:
168,188,99433,2,0,B|252:160|288:168|328:148,2,150
320,184,100558,5,0,0:0:0:0:
460,132,100933,1,0,0:0:0:0:
388,264,101308,1,0,0:0:0:0:
268,172,101683,1,0,0:0:0:0:
124,124,102058,6,0,B|200:116|184:164|240:152|240:152|272:152,2,150
228,232,103183,2,0,B|264:212|272:184|272:184|280:164|316:148|348:140,3,150
196,108,104683,5,0,0:0:0:0:
244,248,105058,1,0,0:0:0:0:
348,140,105433,1,0,0:0:0:0:
436,260,105808,1,0,0:0:0:0:
300,200,106183,2,0,B|268:156|216:128|244:72,4,150
156,240,108058,5,0,0:0:0:0:
304,240,108433,1,0,0:0:0:0:
196,132,108808,1,0,0:0:0:0:
224,280,109183,2,0,L|360:176,1,150
212,260,109933,6,0,P|292:200|280:184,1,150
140,220,110683,2,0,B|164:152|184:132|220:176|264:116,1,150
140,228,111433,1,0,0:0:0:0:
288,200,111808,1,0,0:0:0:0:
140,192,112183,2,0,B|200:136|228:168|272:112,1,150
176,236,112933,2,0,B|228:196|276:204|312:148,1,150
208,44,113683,6,0,B|300:88|284:140|312:176,4,150
