osu file format v14

[General]
AudioFilename: audio.mp3
AudioLeadIn: 0
PreviewTime: 35366
Countdown: 0
SampleSet: Soft
StackLeniency: 0.6
Mode: 0
LetterboxInBreaks: 0
WidescreenStoryboard: 0

[Editor]
Bookmarks: 60866,69866
DistanceSpacing: 1
BeatDivisor: 4
GridSize: 8
TimelineZoom: 1

[Metadata]
Title:Burnt Rice (feat. YUNG GEMMY)
TitleUnicode:Burnt Rice (feat. YUNG GEMMY)
Artist:Shawn Wasabi + YDG
ArtistUnicode:Shawn Wasabi + YDG
Creator:Alphabet
Version:M a r v o l l o's Easy
Source:
Tags:Electronic Dance ohmy sssshawnnnn DeRandom Otaku Ren Spork Lover M_a_r_v_o_l_l_o Marvollo Shmiklak
BeatmapID:1506844
BeatmapSetID:710329

[Difficulty]
HPDrainRate:3
CircleSize:2.8
OverallDifficulty:2
ApproachRate:3
SliderMultiplier:0.85
SliderTickRate:1

[Events]
//Background and Video events
0,0,"shmiklak.jpg",0,0
//Break Periods
2,61066,68426
2,115066,115848
//Storyboard Layer 0 (Background)
//Storyboard Layer 1 (Fail)
//Storyboard Layer 2 (Pass)
//Storyboard Layer 3 (Foreground)
//Storyboard Sound Samples

[TimingPoints]
866,375,4,2,2,80,1,0
866,-100,4,2,2,80,0,0
5366,-100,4,2,1,80,0,0
12866,-100,4,2,2,80,0,0
13241,-100,4,2,1,80,0,0
16991,-100,4,2,3,80,0,0
17366,-100,4,2,1,80,0,0
18491,-100,4,3,2,80,0,0
18866,-100,4,2,2,80,0,0
19241,-100,4,2,1,80,0,0
21116,-100,4,3,2,80,0,0
21491,-100,4,2,1,50,0,0
21866,-100,4,2,2,85,0,0
24866,-100,4,2,2,90,0,0
25241,-100,4,2,5,75,0,0
30116,-100,4,2,2,75,0,0
30491,-100,4,2,5,75,0,0
33116,-100,4,2,2,75,0,0
33491,-100,4,2,5,75,0,0
33866,-100,4,2,5,60,0,0
36866,-100,4,2,1,60,0,0
37991,-100,4,3,1,90,0,0
48866,-100,4,3,1,90,0,0
59366,-100,4,2,1,90,0,0
64991,-100,4,2,1,75,0,0
66866,-100,4,3,2,75,0,0
69866,-100,4,2,1,75,0,1
72116,-100,4,2,1,60,0,1
72866,-100,4,2,5,75,0,0
78116,-100,4,2,2,90,0,0
78491,-100,4,2,5,75,0,0
84866,-100,4,3,1,50,0,0
85991,-100,4,3,1,90,0,0
96491,-100,4,3,2,90,0,0
96866,-100,4,3,1,90,0,0
97991,-100,4,2,1,90,0,0
103991,-100,4,3,1,90,0,0
104178,-100,4,2,1,90,0,0
114491,-100,4,3,2,90,0,0
114866,-100,4,3,2,30,0,0
117288,487.80487804878,4,2,1,65,1,0

[Colours]
Combo1 : 156,197,226
Combo2 : 104,102,196
Combo3 : 2,125,200
Combo4 : 203,171,211

[HitObjects]
109,53,866,6,0,P|181:13|269:53,1,170,2|0,0:0|0:0,0:0:0:0:
301,117,1991,1,0,0:0:0:0:
280,199,2366,2,0,P|275:240|277:293,1,85,2|0,0:0|0:0,0:0:0:0:
336,343,3116,2,0,P|378:344|420:338,1,85,0|2,0:0|0:0,0:0:0:0:
480,277,3866,6,0,P|470:190|461:101,1,170,2|0,0:0|0:0,0:0:0:0:
401,47,4991,1,0,0:0:0:0:
340,107,5366,2,0,P|297:111|243:97,1,85,0|0,0:0|0:0,0:0:0:0:
192,48,6116,2,0,P|149:44|95:58,1,85,0|2,0:0|0:0,0:0:0:0:
48,112,6866,6,0,P|49:157|55:207,1,85,2|0,0:0|0:0,0:0:0:0:
113,257,7616,1,2,0:0:0:0:
173,196,7991,1,2,0:0:0:0:
233,256,8366,2,0,B|337:280|305:232|409:256,1,170,0|2,0:0|0:0,0:0:0:0:
472,299,9491,1,2,0:0:0:0:
511,223,9866,6,0,P|504:178|495:127,1,85,2|0,0:0|0:0,0:0:0:0:
425,94,10616,1,2,0:0:0:0:
364,154,10991,1,2,0:0:0:0:
303,93,11366,2,0,B|177:83|177:83|136:124,1,170,0|2,0:0|0:0,0:0:0:0:
85,174,12491,1,2,0:0:0:0:
145,234,12866,6,0,B|175:264|175:264|301:254,1,170,2|8,0:0|0:0,0:0:0:0:
373,208,13991,1,0,0:0:0:0:
433,268,14366,2,0,P|443:310|442:358,2,85,0|0|8,0:0|0:0|0:0,0:0:0:0:
373,208,15491,1,0,0:0:0:0:
312,147,15866,6,0,P|223:128|143:152,1,170,2|8,0:0|0:0,0:0:0:0:
88,209,16991,1,2,0:0:0:0:
148,269,17366,2,0,P|156:317|159:360,2,85,0|0|8,0:0|0:0|0:0,0:0:0:0:
88,209,18491,1,4,0:0:0:0:
148,148,18866,6,0,B|252:172|220:124|324:148,1,170,2|8,0:0|0:0,0:0:0:0:
375,206,19991,1,0,0:0:0:0:
435,145,20366,2,0,P|435:104|439:54,2,85,0|2|4,0:0|0:0|0:0,0:0:0:0:
495,205,21491,1,8,0:0:0:0:
434,265,21866,6,0,P|342:256|255:245,1,170,2|0,0:0|0:0,0:0:0:0:
204,306,22991,1,0,0:0:0:0:
136,256,23366,2,0,P|81:186|81:107,1,170
244,75,24866,6,0,P|291:73|345:66,1,85,2|0,0:0|0:0,0:0:0:0:
391,128,25616,2,0,P|393:175|400:229,1,85,2|0,0:0|0:0,0:0:0:0:
337,272,26366,2,0,P|290:274|236:281,1,85,0|0,0:0|0:0,0:0:0:0:
190,219,27116,2,0,P|188:172|181:118,1,85,2|2,0:0|0:0,0:0:0:0:
144,56,27866,6,0,P|101:60|59:62,1,85,0|0,0:0|0:0,0:0:0:0:
0,122,28616,2,0,P|4:164|6:206,1,85,2|0,0:0|0:0,0:0:0:0:
66,266,29366,2,0,P|108:261|150:259,1,85,0|0,0:0|0:0,0:0:0:0:
210,199,30116,2,0,P|205:156|203:114,1,85,2|2,0:0|0:0,0:0:0:0:
263,54,30866,6,0,P|306:58|348:60,1,85,0|0,0:0|0:0,0:0:0:0:
407,120,31616,2,0,P|403:162|401:204,1,85,2|0,0:0|0:0,0:0:0:0:
341,264,32366,2,0,P|299:259|257:257,1,85,0|0,0:0|0:0,0:0:0:0:
197,197,33116,2,0,P|202:154|204:112,1,85,2|2,0:0|0:0,0:0:0:0:
256,192,33866,12,0,35366,0:0:0:0:
208,224,37991,5,4,0:0:0:0:
208,224,38366,2,0,P|284:220|356:148,1,170,0|8,0:0|0:0,0:0:0:0:
368,72,39491,1,4,0:0:0:0:
440,120,39866,2,0,P|478:191|459:288,1,170,0|8,0:0|0:0,0:0:0:0:
405,336,40991,5,4,0:0:0:0:
405,336,41366,2,0,P|321:333|224:328,1,170,0|8,0:0|0:0,0:0:0:0:
174,268,42491,1,4,0:0:0:0:
234,207,42866,2,0,P|240:160|232:112,1,85
174,62,43616,1,8,0:0:0:0:
113,122,43991,5,4,0:0:0:0:
113,122,44366,2,0,P|124:207|136:304,1,170,0|8,0:0|0:0,0:0:0:0:
194,350,45491,1,4,0:0:0:0:
264,304,45866,2,0,P|320:256|416:272,1,170,0|8,0:0|0:0,0:0:0:0:
472,328,46991,5,4,0:0:0:0:
472,328,47366,2,0,P|459:249|448:152,1,170,0|8,0:0|0:0,0:0:0:0:
448,72,48491,1,4,0:0:0:0:
375,116,48866,2,0,P|343:117|297:107,2,63.75,0|0|0,0:0|0:0|0:0,0:0:0:0:
284,206,49991,5,4,0:0:0:0:
284,206,50366,2,0,P|199:200|112:192,1,170,0|8,0:0|0:0,0:0:0:0:
54,252,51491,1,4,0:0:0:0:
114,312,51866,2,0,P|198:306|286:298,1,170,0|8,0:0|0:0,0:0:0:0:
343,238,52991,5,4,0:0:0:0:
343,238,53366,2,0,P|358:183|321:75,1,170,0|8,0:0|0:0,0:0:0:0:
245,44,54491,1,0,0:0:0:0:
196,113,54866,2,0,P|212:161|236:193,1,85,0|0,0:0|0:0,0:0:0:0:
304,240,55616,1,8,0:0:0:0:
376,195,55991,5,4,0:0:0:0:
376,195,56366,2,0,P|432:184|440:280,1,170,0|8,0:0|0:0,0:0:0:0:
384,328,57491,1,4,0:0:0:0:
300,344,57866,2,0,P|215:326|130:310,1,170,0|8,0:0|0:3,0:0:0:0:
73,250,58991,5,4,0:0:0:0:
73,250,59366,1,2,0:0:0:0:
193,129,60116,2,0,B|248:144|248:144|304:128|304:128|368:144,1,170,0|2,0:0|0:0,0:0:0:0:
288,120,69866,6,0,B|392:144|360:96|464:120,2,170,4|4|4,0:0|0:0|0:0,0:0:0:0:
136,192,72116,2,0,P|122:224|118:280,1,85,4|0,2:0|0:0,0:0:0:0:
148,352,72866,6,0,P|227:348|336:344,1,170,0|2,0:0|0:0,0:0:0:0:
377,284,73991,1,0,0:0:0:0:
437,223,74366,2,0,P|440:175|438:126,1,85,0|0,0:0|0:0,0:0:0:0:
378,77,75116,2,0,P|335:75|293:79,1,85,2|0,0:0|0:0,0:0:0:0:
233,139,75866,6,0,B|204:188|204:188|257:307,1,170,0|2,0:0|0:0,0:0:0:0:
326,328,76991,1,0,0:0:0:0:
392,272,77366,2,0,P|427:267|479:276,2,85,0|0|2,0:0|0:0|0:0,0:0:0:0:
247,360,78866,6,0,P|204:357|76:322,1,170,0|2,0:0|0:0,0:0:0:0:
21,264,79991,1,0,0:0:0:0:
81,203,80366,2,0,P|90:157|77:107,1,85,0|0,0:0|0:0,0:0:0:0:
143,59,81116,2,0,P|184:66|225:57,1,85,2|0,0:0|0:0,0:0:0:0:
256,192,81866,12,0,83366,0:0:0:0:
221,34,84866,6,0,L|133:26,2,85,0|0|8,0:0|0:0|0:0,0:0:0:0:
304,55,85991,1,4,0:0:0:0:
257,125,86366,2,0,P|259:165|273:211,1,85,0|0,0:0|0:0,0:0:0:0:
352,239,87116,2,0,P|364:198|366:156,1,85,8|4,0:0|0:0,0:0:0:0:
338,75,87866,2,0,P|253:70|168:67,1,170,0|8,0:0|0:0,0:0:0:0:
107,127,88991,5,0,0:0:0:0:
197,217,89553,2,0,P|267:210|342:205,1,127.5,0|8,0:0|0:0,0:0:0:0:
384,266,90491,1,4,0:0:0:0:
320,319,90866,2,0,P|276:321|231:308,1,85,0|0,0:0|0:0,0:0:0:0:
176,250,91616,1,8,0:0:0:0:
104,296,91991,5,4,0:0:0:0:
43,235,92366,2,0,P|37:188|38:141,1,85,0|0,0:0|0:0,0:0:0:0:
97,90,93116,2,0,P|139:90|181:95,1,85,8|4,0:0|0:0,0:0:0:0:
253,142,93866,2,0,B|357:166|325:118|429:142,1,170,0|8,0:0|0:0,0:0:0:0:
480,200,94991,5,4,0:0:0:0:
389,290,95553,2,0,P|322:284|248:280,1,127.5,0|8,0:0|0:0,0:0:0:0:
182,310,96491,1,4,0:0:0:0:
121,249,96866,2,0,P|116:211|125:158,1,85,0|0,0:0|0:0,0:0:0:0:
177,100,97616,1,8,0:0:0:0:
242,164,97991,5,4,0:3:0:0:
242,164,98366,2,0,P|326:157|416:152,1,170,0|8,0:0|0:0,0:0:0:0:
471,212,99491,1,0,0:0:0:0:
399,258,99866,2,0,P|355:253|305:237,2,85,2|0|8,0:0|0:0|0:0,0:0:0:0:
471,212,100991,5,0,0:0:0:0:
471,212,101366,2,0,P|460:112|400:80,1,170,0|8,0:0|0:0,0:0:0:0:
320,64,102491,1,0,0:0:0:0:
259,124,102866,2,0,P|223:128|170:116,1,85,2|0,0:0|0:0,0:0:0:0:
115,58,103616,1,8,0:0:0:0:
54,118,103991,5,4,0:0:0:0:
54,118,104366,2,0,P|66:202|80:288,1,170,0|8,0:0|0:0,0:0:0:0:
139,346,105491,1,4,0:3:0:0:
216,312,105866,2,0,P|258:323|304:336,2,85,0|0|8,0:0|0:0|0:0,0:0:0:0:
155,251,106991,5,4,0:3:0:0:
155,251,107366,2,0,P|159:169|160:64,1,170,0|2,0:0|0:0,0:0:0:0:
232,32,108491,1,2,0:0:0:0:
304,80,108866,2,0,P|316:140|316:164,1,85,2|0,0:0|0:0,0:0:0:0:
291,245,109616,1,0,0:0:0:0:
347,317,109991,5,0,0:0:0:0:
347,317,110366,2,0,P|407:345|439:265,1,170
381,204,111491,1,12,0:3:0:0:
444,147,111866,2,0,P|448:96|443:57,2,85,2|0|0,0:0|0:0|0:0,0:0:0:0:
381,204,112991,5,0,0:0:0:0:
381,204,113366,2,0,P|291:196|205:188,1,170,0|12,0:0|0:3,0:0:0:0:
127,176,114491,2,0,P|79:173|41:187,1,85,4|0,0:0|0:0,0:0:0:0:
303,300,117288,6,0,B|381:318|357:282|435:300,2,127.5,2|0|0,0:0|0:0|0:0,0:0:0:0:
189,241,119483,2,0,P|187:200|193:66,1,170,0|2,0:0|0:0,0:0:0:0:
