osu file format v14

[General]
AudioFilename: audio.mp3
AudioLeadIn: 0
PreviewTime: 63158
Countdown: 1
SampleSet: Soft
StackLeniency: 0.4
Mode: 0
LetterboxInBreaks: 0
WidescreenStoryboard: 1

[Editor]
Bookmarks: 6409,16132,22747,51786,54260,81739
DistanceSpacing: 1.1
BeatDivisor: 4
GridSize: 8
TimelineZoom: 2.999999

[Metadata]
Title:OTTER POP
TitleUnicode:OTTER POP
Artist:Shawn Wasabi & Hollis
ArtistUnicode:Shawn Wasabi & Hollis
Creator:CircleNoob101
Version:Hard
Source:
Tags:Otter pop shawn wasabi & hollis
BeatmapID:1402031
BeatmapSetID:644665

[Difficulty]
HPDrainRate:6
CircleSize:4
OverallDifficulty:6
ApproachRate:8
SliderMultiplier:1.39999990463257
SliderTickRate:1

[Events]
//Background and Video events
0,0,"menu-background.jpg",0,0
//Break Periods
2,32067,41010
//Storyboard Layer 0 (Background)
//Storyboard Layer 1 (Fail)
//Storyboard Layer 2 (Pass)
//Storyboard Layer 3 (Foreground)
//Storyboard Sound Samples

[TimingPoints]
900,322.58064516129,5,2,0,60,1,0

[HitObjects]
72,192,1222,6,0,L|80:48,1,139.999990463257
160,192,1867,2,0,L|168:48,1,139.999990463257
248,192,2512,6,0,L|252:115,1,69.9999952316285
256,37,2835,1,0,0:0:0:0:
264,48,3158,5,0,0:0:0:0:
192,72,3480,2,0,P|240:120|317:103,1,139.999990463257
392,40,4125,5,0,0:0:0:0:
456,112,4448,2,0,P|480:152|456:240,1,139.999990463257
400,176,5093,1,0,0:0:0:0:
312,176,5416,2,0,B|272:168|272:168|232:176,1,69.9999952316285
296,264,5738,2,0,B|324:275|301:297|341:314,2,69.9999952316285
448,312,6383,5,0,0:0:0:0:
416,232,6706,2,0,B|392:192|392:192|296:160,1,139.999990463257
224,144,7351,1,0,0:0:0:0:
248,232,7674,6,0,P|256:272|248:304,1,69.9999952316285
168,266,7996,1,0,0:0:0:0:
44,210,8319,1,0,0:0:0:0:
36,290,8641,2,0,P|106:262|124:204,1,139.999990463257
128,128,9287,6,0,B|128:88|128:88|112:56,1,69.9999952316285
32,112,9609,1,0,0:0:0:0:
32,112,9932,2,0,L|189:140,1,139.999990463257
256,152,10577,6,0,B|296:152|296:152|328:128,1,69.9999952316285
256,72,10899,2,0,B|227:60|250:38|210:21,2,69.9999952316285
175,121,11545,6,0,L|90:126,1,69.9999952316285
143,187,11867,2,0,B|102:188|102:188|68:211,1,69.9999952316285
23,263,12190,5,0,0:0:0:0:
23,263,12351,1,0,0:0:0:0:
101,309,12512,2,0,L|173:335,1,69.9999952316285
130,233,12835,1,0,0:0:0:0:
203,257,12996,1,0,0:0:0:0:
188,182,13158,2,0,B|171:149|171:149|180:117,1,69.9999952316285
196,80,13480,6,0,P|241:122|259:210,1,139.999990463257
270,282,14125,6,0,L|277:355,1,69.9999952316285
339,345,14448,2,0,B|335:304|335:304|348:262,1,69.9999952316285
376,211,14770,1,0,0:0:0:0:
436,166,14932,1,0,0:0:0:0:
501,199,15093,1,0,0:0:0:0:
441,252,15254,1,0,0:0:0:0:
376,211,15416,2,0,P|361:164|371:129,1,69.9999952316285
414,71,15738,2,0,B|442:41|442:41|442:3,1,69.9999952316285
488,95,16061,6,0,P|436:145|394:146,1,104.999992847443
390,145,16383,2,0,B|331:122|337:56|337:56|302:66,1,139.999990463257
232,78,16867,5,0,0:0:0:0:
232,78,17029,2,0,B|190:93|190:93|166:113,1,69.9999952316285
118,166,17351,5,0,0:0:0:0:
98,239,17512,1,0,0:0:0:0:
171,222,17674,2,0,P|200:194|203:155,1,69.9999952316285
208,79,17996,2,0,P|196:40|163:19,1,69.9999952316285
63,38,18319,2,0,B|32:68|32:68|16:104,1,69.9999952316285
43,146,18641,2,0,P|87:124|133:45,1,139.999990463257
171,37,19609,6,0,B|184:75|184:75|183:114,1,69.9999952316285
185,182,19932,1,0,0:0:0:0:
236,238,20093,1,0,0:0:0:0:
312,245,20254,2,0,P|368:240|391:255,1,69.9999952316285
341,313,20577,2,0,P|387:324|415:315,1,69.9999952316285
463,256,20899,2,0,B|485:212|485:212|485:115,2,139.999990463257
378,245,21867,6,0,P|397:217|413:178,1,69.9999952316285
331,171,22190,2,0,P|351:120|368:95,1,69.9999952316285
414,54,22512,1,0,0:0:0:0:
490,46,22674,1,0,0:0:0:0:
459,116,22835,2,0,P|428:147|411:176,1,69.9999952316285
369,232,23158,5,0,0:0:0:0:
369,232,23319,1,0,0:0:0:0:
328,165,23480,2,0,B|316:132|316:132|318:86,1,69.9999952316285
376,57,23803,2,0,P|313:26|256:61,1,139.999990463257
224,136,24448,6,0,L|152:128,1,69.9999952316285
80,120,24770,2,0,B|40:112|40:112|8:120,1,69.9999952316285
37,184,25093,1,0,0:0:0:0:
93,224,25254,1,0,0:0:0:0:
160,239,25416,2,0,P|219:241|240:228,1,69.9999952316285
192,177,25738,1,0,0:0:0:0:
124,161,25899,1,0,0:0:0:0:
93,224,26061,6,0,P|104:281|155:308,1,104.999992847443
144,302,26383,2,0,P|189:273|252:284,1,104.999992847443
241,281,26706,2,0,P|326:322|418:245,1,209.999985694886
321,222,27351,6,0,B|292:202|292:202|255:201,1,69.9999952316285
180,194,27674,1,0,0:0:0:0:
141,127,27835,1,0,0:0:0:0:
217,127,27996,1,0,0:0:0:0:
277,79,28158,1,0,0:0:0:0:
345,112,28319,6,0,P|334:164|312:185,1,69.9999952316285
319,252,28641,2,0,P|365:240|391:212,1,69.9999952316285
428,164,28964,2,0,P|451:195|458:228,1,69.9999952316285
425,296,29287,6,0,P|382:238|397:177,1,139.999990463257
442,114,29770,1,0,0:0:0:0:
497,60,29932,1,0,0:0:0:0:
431,20,30093,1,0,0:0:0:0:
356,37,30254,1,0,0:0:0:0:
295,85,30416,1,0,0:0:0:0:
257,152,30577,6,0,P|316:159|343:139,1,69.9999952316285
378,113,30899,2,0,P|421:94|454:98,1,69.9999952316285
429,171,31222,2,0,P|376:192|309:149,2,139.999990463257
261,152,41760,6,0,L|286:155,2,23.3333317438762
200,80,42190,6,0,L|128:72,1,69.9999952316285
40,104,42512,2,0,L|112:96,1,69.9999952316285
200,136,42835,2,0,L|128:128,1,69.9999952316285
40,160,43158,2,0,L|112:152,1,69.9999952316285
168,208,43480,6,0,P|213:218|248:199,1,69.9999952316285
262,142,43803,2,0,P|295:169|307:202,1,69.9999952316285
322,268,44125,5,0,0:0:0:0:
273,327,44287,1,0,0:0:0:0:
246,254,44448,2,0,P|269:212|305:193,1,69.9999952316285
363,202,44770,5,0,0:0:0:0:
322,268,44932,1,0,0:0:0:0:
273,327,45093,2,0,P|221:328|198:316,1,69.9999952316285
148,362,45416,2,0,P|135:321|144:286,1,69.9999952316285
75,265,45738,2,0,P|115:228|147:223,1,69.9999952316285
122,153,46061,2,0,P|172:166|190:187,1,69.9999952316285
214,245,46383,2,0,P|246:217|257:183,1,69.9999952316285
275,124,46706,2,0,P|287:79|311:55,1,69.9999952316285
362,27,47029,5,0,0:0:0:0:
375,27,47109,1,0,0:0:0:0:
389,27,47190,1,0,0:0:0:0:
402,27,47270,1,0,0:0:0:0:
416,27,47351,2,0,P|424:63|415:96,1,69.9999952316285
342,125,47674,6,0,P|367:157|405:173,1,69.9999952316285
466,201,47996,2,0,P|441:233|403:249,1,69.9999952316285
342,277,48319,2,0,P|367:309|405:325,1,69.9999952316285
466,291,48641,2,0,P|441:259|403:243,1,69.9999952316285
342,277,48964,2,0,P|302:297|270:290,1,69.9999952316285
211,267,49287,5,0,0:0:0:0:
146,243,49448,1,0,0:0:0:0:
78,261,49609,1,0,0:0:0:0:
33,314,49770,1,0,0:0:0:0:
91,352,49932,6,0,P|154:350|189:327,2,104.999992847443
122,265,50577,2,0,P|178:235|227:244,2,104.999992847443
187,327,51222,2,0,P|259:322|233:149,1,279.999980926514
368,192,52512,6,0,P|365:169|369:192,1,69.9999952316285
297,219,52835,2,0,P|289:164|295:146,1,69.9999952316285
332,106,53158,2,0,P|367:98|405:106,1,69.9999952316285
440,143,53480,2,0,P|448:198|442:216,1,69.9999952316285
406,254,53803,2,0,P|371:265|336:256,1,69.9999952316285
269,224,54125,5,0,0:0:0:0:
214,169,54287,1,0,0:0:0:0:
268,114,54448,1,0,0:0:0:0:
350,95,54770,6,0,P|346:137|330:165,1,69.9999952316285
234,164,55093,6,0,P|247:204|269:227,1,69.9999952316285
356,255,55416,6,0,P|333:290|307:309,1,69.9999952316285
223,329,55738,2,0,B|184:339|184:339|155:339,1,69.9999952316285
63,332,56061,5,0,0:0:0:0:
63,332,56222,1,0,0:0:0:0:
119,261,56383,2,0,P|144:230|183:209,1,69.9999952316285
255,189,56706,1,0,0:0:0:0:
284,277,56867,1,0,0:0:0:0:
362,323,57029,6,0,B|398:345|398:345|434:348,1,69.9999952316285
423,270,57351,2,0,L|396:197,2,69.9999952316285
320,256,57996,6,0,L|248:248,1,69.9999952316285
320,176,58319,2,0,L|248:168,1,69.9999952316285
320,96,58641,2,0,L|248:88,1,69.9999952316285
320,16,58964,2,0,L|248:8,1,69.9999952316285
384,24,59287,2,0,L|453:31,2,69.9999952316285
384,104,59932,6,0,L|456:112,1,69.9999952316285
408,184,60254,2,0,L|336:176,1,69.9999952316285
314,96,60577,2,0,L|386:104,1,69.9999952316285
338,176,60899,2,0,L|266:168,1,69.9999952316285
240,96,61222,6,0,P|206:121|193:161,1,69.9999952316285
120,136,61545,2,0,P|124:177|150:207,1,69.9999952316285
221,211,61867,2,0,P|207:249|179:273,1,69.9999952316285
118,305,62190,5,0,0:0:0:0:
271,306,62512,2,0,P|305:279|343:268,2,69.9999952316285
228,336,63158,6,0,P|185:356|156:355,1,69.9999952316285
82,333,63480,2,0,B|51:320|51:320|22:280,1,69.9999952316285
54,209,63803,2,0,B|85:222|85:222|114:262,1,69.9999952316285
156,304,64125,2,0,P|177:268|174:226,1,69.9999952316285
165,157,64448,2,0,P|152:113|156:83,2,69.9999952316285
296,104,65093,6,0,P|311:152|303:183,1,69.9999952316285
284,251,65416,2,0,P|276:294|283:328,1,69.9999952316285
359,291,65738,2,0,P|391:254|393:226,1,69.9999952316285
412,152,66061,2,0,P|456:175|471:204,1,69.9999952316285
475,274,66383,2,0,P|459:318|438:342,1,69.9999952316285
369,373,66706,2,0,P|327:369|301:348,1,69.9999952316285
271,275,67029,2,0,P|290:231|318:210,1,69.9999952316285
356,286,67351,1,0,0:0:0:0:
189,260,67674,6,0,P|193:308|214:337,2,69.9999952316285
208,91,68319,2,0,L|214:19,1,69.9999952316285
290,65,68641,2,0,L|283:136,1,69.9999952316285
202,161,68964,2,0,L|208:89,1,69.9999952316285
284,134,69286,2,0,L|277:206,1,69.9999952316285
196,230,69609,2,0,L|202:159,2,69.9999952316285
184,290,70254,6,0,L|253:296,1,69.9999952316285
286,376,70576,2,0,L|216:369,1,69.9999952316285
254,295,70899,2,0,L|323:301,1,69.9999952316285
356,382,71221,2,0,L|286:375,1,69.9999952316285
324,301,71544,2,0,L|393:307,1,69.9999952316285
465,323,71867,6,0,P|462:280|431:243,1,69.9999952316285
397,190,72190,2,0,P|388:163|390:121,1,69.9999952316285
412,41,72512,1,0,0:0:0:0:
449,160,72835,2,0,P|420:193|387:205,2,69.9999952316285
320,104,73480,5,0,0:0:0:0:
187,77,73803,1,0,0:0:0:0:
320,144,74125,5,0,0:0:0:0:
187,117,74448,1,0,0:0:0:0:
320,176,74770,6,0,P|361:173|388:189,2,69.9999952316285
192,248,75416,1,0,0:0:0:0:
154,115,75738,1,0,0:0:0:0:
160,248,76061,1,0,0:0:0:0:
122,115,76383,1,0,0:0:0:0:
120,248,76706,6,0,P|144:288|236:306,1,139.999990463257
336,266,77351,1,0,0:0:0:0:
391,185,77674,2,0,P|406:98|400:36,2,139.999990463257
336,266,78641,5,0,0:0:0:0:
458,284,78964,1,0,0:0:0:0:
336,288,79287,1,0,0:0:0:0:
458,306,79610,1,0,0:0:0:0:
336,304,79932,6,0,L|256:304,2,69.9999952316285
432,304,80577,1,0,0:0:0:0:
501,234,80899,1,0,0:0:0:0:
501,135,81222,1,0,0:0:0:0:
431,65,81545,1,0,0:0:0:0:
333,65,81867,2,0,L|185:65,2,139.999990463257
258,155,82835,2,0,P|244:212|291:170,2,139.999990463257
