osu file format v14

[General]
AudioFilename: audio.mp3
AudioLeadIn: 0
PreviewTime: 64470
Countdown: 0
SampleSet: Soft
StackLeniency: 0.4
Mode: 0
LetterboxInBreaks: 0
WidescreenStoryboard: 0

[Editor]
DistanceSpacing: 0.7
BeatDivisor: 8
GridSize: 4
TimelineZoom: 1

[Metadata]
Title:Senorita
TitleUnicode:SeƱorita
Artist:Shawn Mendes, Camila Cabello
ArtistUnicode:Shawn Mendes, Camila Cabello
Creator:greenhue
Version:Duet
Source:
Tags:canderos quanhitter38
BeatmapID:2119349
BeatmapSetID:1012560

[Difficulty]
HPDrainRate:7
CircleSize:4.2
OverallDifficulty:7
ApproachRate:9
SliderMultiplier:1.6
SliderTickRate:1

[Events]
//Background and Video events
0,0,"senorita.jpg",0,0
//Break Periods
//Storyboard Layer 0 (Background)
//Storyboard Layer 1 (Fail)
//Storyboard Layer 2 (Pass)
//Storyboard Layer 3 (Foreground)
//Storyboard Layer 4 (Overlay)
//Storyboard Sound Samples

[TimingPoints]
240,512.820512820513,4,2,1,31,1,0
16650,-90.9090909090909,4,2,1,57,0,0
65881,-55.5555555555556,4,2,1,69,0,1
98701,-90.9090909090909,4,2,1,57,0,0
115111,-66.6666666666667,4,2,1,57,0,0
123316,-55.5555555555556,4,2,1,69,0,1
156137,-66.6666666666667,4,2,1,57,0,0

[Colours]
Combo1 : 111,128,242
Combo2 : 232,155,205
Combo3 : 233,191,160
Combo4 : 170,137,231

[HitObjects]
224,332,240,6,0,P|263:271|349:317,1,160,2|8,0:0|0:0,0:0:0:0:
372,382,1009,1,0,0:0:0:0:
512,250,1265,2,0,P|473:189|387:235,1,160,2|10,0:0|0:0,0:0:0:0:
284,6,2034,6,0,B|294:70|294:70|284:96|284:96|296:170,2,160,2|2|2,0:0|0:0|0:0,0:0:0:0:
387,113,3316,1,2,0:0:0:0:
486,90,3573,1,2,0:0:0:0:
296,193,3829,1,10,0:0:0:0:
197,170,4086,1,2,0:0:0:0:
420,312,4342,6,0,L|390:120,1,160,2|10,0:0|0:0,0:0:0:0:
381,59,5111,1,0,0:0:0:0:
181,272,5368,2,0,P|260:253|296:171,1,160,2|10,0:0|0:0,0:0:0:0:
158,29,6137,6,0,B|146:69|168:106|168:106|279:89,2,160,2|2|2,0:0|0:0|0:0,0:0:0:0:
332,59,7419,1,2,0:0:0:0:
162,8,7675,1,2,0:0:0:0:
194,222,7932,1,10,0:0:0:0:
246,94,8188,1,2,0:0:0:0:
15,161,8445,6,0,L|148:150,1,120,2|2,0:0|0:0,0:0:0:0:
217,110,8957,1,10,0:0:0:0:
128,291,9214,1,2,0:0:0:0:
123,298,9470,1,2,0:0:0:0:
294,247,9727,2,0,L|214:240,1,80,0|8,0:0|0:0,0:0:0:0:
349,59,10240,1,2,0:0:0:0:
444,202,10496,6,0,P|396:197|350:119,1,120,2|2,0:0|0:0,0:0:0:0:
353,46,11009,1,10,0:0:0:0:
380,293,11265,1,2,0:0:0:0:
385,303,11522,1,2,0:0:0:0:
247,174,11778,2,0,P|210:164|160:183,1,80,2|10,0:0|0:0,0:0:0:0:
0,32,12291,6,0,P|39:81|150:64,1,160,2|2,0:0|0:0,0:0:0:0:
198,6,13060,1,10,0:0:0:0:
76,185,13316,1,2,0:0:0:0:
170,175,13573,1,2,0:0:0:0:
60,331,13829,1,2,0:0:0:0:
62,342,14086,1,10,0:0:0:0:
24,69,14342,6,0,L|184:87,1,160,2|2,0:0|0:0,0:0:0:0:
274,45,15111,1,10,0:0:0:0:
428,228,15368,1,2,0:0:0:0:
286,125,15624,1,2,0:0:0:0:
223,209,15881,1,2,0:0:0:0:
223,209,16009,1,0,0:0:0:0:
223,209,16137,1,14,0:0:0:0:
443,120,16393,1,2,0:0:0:0:
243,384,16650,6,0,P|235:329|295:276,1,132.00000402832,2|0,0:0|0:0,0:0:0:0:
301,281,17163,2,0,P|254:305|194:291,1,88.000002685547,10|0,0:0|0:0,0:0:0:0:
97,116,17675,2,0,L|110:278,1,132.00000402832,2|0,0:0|0:0,0:0:0:0:
110,262,18188,1,10,0:0:0:0:
271,104,18445,6,0,P|236:41|158:64,1,132.00000402832,2|0,0:0|0:0,0:0:0:0:
175,50,18957,2,0,P|214:85|254:81,1,88.000002685547,2|8,0:0|0:0,0:0:0:0:
409,1,19470,1,2,0:0:0:0:
361,201,19727,1,2,0:0:0:0:
334,100,19983,1,2,0:0:0:0:
454,167,20240,1,14,0:0:0:0:
270,230,20496,1,2,0:0:0:0:
490,365,20752,6,0,P|459:300|394:308,1,132.00000402832,2|0,0:0|0:0,0:0:0:0:
320,321,21265,2,0,P|362:331|399:309,1,88.000002685547,10|0,0:0|0:0,0:0:0:0:
441,35,21778,2,0,L|457:198,1,132.00000402832,2|0,0:0|0:0,0:0:0:0:
455,182,22291,1,10,0:0:0:0:
187,127,22547,6,0,B|228:137|268:120|268:111|267:103|311:80|369:102,2,176.000005371094,2|2|2,0:0|0:0|0:0,0:0:0:0:
114,60,23829,1,2,0:0:0:0:
242,30,24086,1,2,0:0:0:0:
115,176,24342,1,14,0:0:0:0:
240,213,24598,1,2,0:0:0:0:
61,374,24855,6,0,P|78:317|163:289,1,132.00000402832,2|2,0:0|0:0,0:0:0:0:
157,289,25368,1,8,0:0:0:0:
35,219,25624,1,2,0:0:0:0:
40,227,25881,1,2,0:0:0:0:
61,351,26137,1,0,0:0:0:0:
154,197,26393,1,8,0:0:0:0:
191,369,26650,1,2,0:0:0:0:
31,212,26906,6,0,P|38:137|43:60,1,132.00000402832,2|2,0:0|0:0,0:0:0:0:
48,59,27419,1,8,0:0:0:0:
206,57,27675,1,2,0:0:0:0:
209,65,27932,1,2,0:0:0:0:
145,140,28188,1,0,0:0:0:0:
118,0,28445,1,12,0:0:0:0:
413,79,28701,6,0,P|314:92|292:130,1,132.00000402832,2|0,0:0|0:0,0:0:0:0:
294,132,29214,1,2,0:0:0:0:
250,16,29470,1,10,0:0:0:0:
381,155,29727,1,2,0:0:0:0:
152,166,29983,1,2,0:0:0:0:
269,119,30240,1,2,0:0:0:0:
259,281,30496,1,8,0:0:0:0:
510,235,30752,6,0,P|423:233|385:294,1,132.00000402832,2|0,0:0|0:0,0:0:0:0:
390,281,31265,1,2,0:0:0:0:
502,143,31522,1,10,0:0:0:0:
345,0,31778,1,2,0:0:0:0:
345,0,31906,1,2,0:0:0:0:
345,0,32034,2,0,L|354:94,1,88.000002685547,2|0,0:0|0:0,0:0:0:0:
446,28,32547,1,12,0:0:0:0:
256,66,32804,1,2,0:0:0:0:
449,250,33060,6,0,P|422:202|332:185,1,132.00000402832,2|0,0:0|0:0,0:0:0:0:
342,187,33573,2,0,P|397:179|444:128,1,88.000002685547,10|2,0:0|0:0,0:0:0:0:
461,74,34086,1,2,0:0:0:0:
357,272,34342,1,2,0:0:0:0:
353,95,34598,1,8,0:0:0:0:
135,224,34855,6,0,P|219:212|275:267,1,132.00000402832,0|0,0:0|0:0,0:0:0:0:
260,250,35368,2,0,P|216:258|164:227,1,88.000002685547,2|10,0:0|0:0,0:0:0:0:
249,100,35881,1,2,0:0:0:0:
133,148,36137,1,2,0:0:0:0:
254,4,36393,1,2,0:0:0:0:
330,149,36650,1,10,0:0:0:0:
165,35,36906,1,2,0:0:0:0:
177,241,37163,6,0,P|129:252|74:234,1,88.000002685547,2|2,0:0|0:0,0:0:0:0:
232,115,37675,1,10,0:0:0:0:
289,295,37932,1,2,0:0:0:0:
122,133,38188,1,2,0:0:0:0:
127,141,38445,1,2,0:0:0:0:
271,276,38701,1,8,0:0:0:0:
423,71,38957,6,0,P|365:98|344:166,1,132.00000402832,0|0,0:0|0:0,0:0:0:0:
343,175,39470,2,0,P|386:153|432:153,1,88.000002685547,2|10,0:0|0:0,0:0:0:0:
278,68,39983,1,2,0:0:0:0:
405,247,40240,1,2,0:0:0:0:
510,112,40496,1,2,0:0:0:0:
324,183,40752,1,14,0:0:0:0:
502,275,41009,1,2,0:0:0:0:
392,378,41265,6,0,L|407:215,1,132.00000402832,2|2,0:0|0:0,0:0:0:0:
411,153,41778,2,0,P|390:113|344:88,2,88.000002685547,10|2|2,0:0|0:0|0:0,0:0:0:0:
324,183,42547,1,0,0:0:0:0:
455,29,42804,1,8,0:0:0:0:
128,48,43060,6,0,L|284:34,1,132.00000402832,0|0,0:0|0:0,0:0:0:0:
276,35,43573,1,0,0:0:0:0:
221,168,43829,1,8,0:0:0:0:
329,124,44086,1,0,0:0:0:0:
141,72,44342,1,0,0:0:0:0:
215,275,44598,2,0,L|221:147,2,88.000002685547,2|10|2,0:0|0:0|0:0,0:0:0:0:
0,263,45368,6,0,P|53:254|112:300,1,132.00000402832,2|2,0:0|0:0,0:0:0:0:
117,311,45881,2,0,P|79:288|60:249,2,88.000002685547,10|2|2,0:0|0:0|0:0,0:0:0:0:
295,234,46650,1,0,0:0:0:0:
142,207,46906,1,8,0:0:0:0:
361,52,47163,6,0,P|281:64|250:151,1,176.000005371094,2|0,0:0|0:0,0:0:0:0:
55,100,47932,1,8,0:0:0:0:
162,66,48188,1,2,0:0:0:0:
210,230,48445,2,0,P|272:241|307:227,1,88.000002685547,0|2,0:0|0:0,0:0:0:0:
141,161,48957,1,12,0:0:0:0:
206,344,49214,1,0,0:0:0:0:
395,134,49470,6,0,L|236:145,1,132.00000402832,0|0,0:0|0:0,0:0:0:0:
248,145,49983,1,10,0:0:0:0:
307,46,50240,1,2,0:0:0:0:
393,224,50496,1,2,0:0:0:0:
475,115,50752,1,2,0:0:0:0:
381,238,51009,1,8,0:0:0:0:
467,20,51265,6,0,P|399:61|394:142,1,132.00000402832,0|0,0:0|0:0,0:0:0:0:
387,123,51778,2,0,L|494:113,1,88.000002685547,2|10,0:0|0:0,0:0:0:0:
296,42,52291,1,2,0:0:0:0:
322,270,52547,1,2,0:0:0:0:
389,144,52804,1,2,0:0:0:0:
197,217,53060,1,10,0:0:0:0:
439,222,53316,1,2,0:0:0:0:
288,127,53573,6,0,B|274:81|293:41|299:38,1,88.000002685547,2|2,0:0|0:0,0:0:0:0:
386,342,54086,1,10,0:0:0:0:
448,212,54342,1,2,0:0:0:0:
296,248,54598,1,2,0:0:0:0:
299,259,54855,1,2,0:0:0:0:
388,126,55111,1,8,0:0:0:0:
292,356,55368,6,0,P|215:323|198:276,1,132.00000402832,0|0,0:0|0:0,0:0:0:0:
201,270,55881,2,0,P|212:311|183:384,1,88.000002685547,2|10,0:0|0:0,0:0:0:0:
91,301,56393,1,2,0:0:0:0:
300,241,56650,1,2,0:0:0:0:
175,99,56906,1,2,0:0:0:0:
186,186,57163,1,14,0:0:0:0:
200,275,57419,1,2,0:0:0:0:
17,158,57675,6,0,P|43:206|138:214,1,132.00000402832,2|0,0:0|0:0,0:0:0:0:
186,186,58188,2,0,P|255:151|299:162,2,88.000002685547,10|2|2,0:0|0:0|0:0,0:0:0:0:
120,311,58957,1,0,0:0:0:0:
112,135,59214,1,8,0:0:0:0:
267,314,59470,6,0,L|417:302,1,132.00000402832,0|0,0:0|0:0,0:0:0:0:
414,302,59983,2,0,P|427:348|413:386,1,88.000002685547,0|8,0:0|0:0,0:0:0:0:
309,70,60496,1,0,0:0:0:0:
420,106,60752,1,0,0:0:0:0:
373,181,61009,1,2,0:0:0:0:
285,192,61265,1,10,0:0:0:0:
214,140,61522,1,2,0:0:0:0:
498,375,61778,6,0,P|474:315|413:301,1,132.00000402832,2|2,0:0|0:0,0:0:0:0:
401,307,62291,1,8,0:0:0:0:
483,195,62547,1,2,0:0:0:0:
480,205,62804,1,2,0:0:0:0:
292,283,63060,1,0,0:0:0:0:
373,181,63316,1,8,0:0:0:0:
200,384,63573,6,0,B|191:203,1,176.000005371094,2|0,0:0|0:0,0:0:0:0:
186,115,64342,1,8,0:0:0:0:
96,252,64598,2,0,P|52:264|9:251,2,88.000002685547,2|2|2,0:0|0:0|0:0,0:0:0:0:
112,150,65368,1,2,0:0:0:0:
443,98,65624,1,2,0:0:0:0:
432,105,65688,1,2,0:0:0:0:
421,110,65752,1,2,0:0:0:0:
410,112,65816,1,2,0:0:0:0:
399,110,65881,6,0,P|326:85|250:224,1,215.999993408203,6|0,0:0|0:0,0:0:0:0:
286,259,66393,1,10,0:0:0:0:
291,267,66650,1,0,0:0:0:0:
0,25,66906,2,0,B|120:-18|101:91|218:50,1,215.999993408203,2|0,0:0|0:0,0:0:0:0:
276,0,67419,1,10,0:0:0:0:
116,277,67675,1,2,0:0:0:0:
116,287,68188,5,2,0:0:0:0:
36,94,68445,1,10,0:0:0:0:
293,139,68701,1,2,0:0:0:0:
151,197,68957,1,2,0:0:0:0:
4,252,69214,1,2,0:0:0:0:
26,75,69470,1,14,0:0:0:0:
113,312,69727,1,2,0:0:0:0:
337,37,69983,6,0,P|257:22|209:153,1,215.999993408203,2|0,0:0|0:0,0:0:0:0:
243,215,70496,1,10,0:0:0:0:
473,114,70752,1,0,0:0:0:0:
350,379,71009,2,0,L|366:150,1,215.999993408203,2|0,0:0|0:0,0:0:0:0:
372,66,71522,1,10,0:0:0:0:
256,307,71778,6,0,P|160:309|120:206,1,215.999993408203,2|0,0:0|0:0,0:0:0:0:
244,104,72291,2,0,P|223:131|176:143,1,71.9999978027344,2|2,0:0|0:0,0:0:0:0:
100,114,72547,1,8,0:0:0:0:
313,227,72804,1,2,0:0:0:0:
7,227,73060,1,2,0:0:0:0:
163,50,73316,1,2,0:0:0:0:
209,329,73573,1,14,0:0:0:0:
307,187,73829,1,2,0:0:0:0:
3,189,74086,6,0,B|100:194|100:194|125:217|125:217|228:221,1,215.999993408203,2|2,0:0|0:0,0:0:0:0:
307,224,74598,1,8,0:0:0:0:
165,126,74855,1,2,0:0:0:0:
295,344,75111,2,0,L|457:331,1,143.999995605469,2|0,0:0|0:0,0:0:0:0:
212,353,75624,1,8,0:0:0:0:
416,161,75881,1,2,0:0:0:0:
100,243,76137,6,0,P|54:139|129:31,1,215.999993408203,2|2,0:0|0:0,0:0:0:0:
181,9,76650,1,8,0:0:0:0:
180,23,76906,1,2,0:0:0:0:
166,161,77163,1,2,0:0:0:0:
150,317,77419,1,0,0:0:0:0:
19,127,77675,1,12,0:0:0:0:
165,341,77932,6,0,P|219:257|371:260,1,215.999993408203,2|0,0:0|0:0,0:0:0:0:
389,302,78445,1,2,0:0:0:0:
174,161,78701,1,10,0:0:0:0:
425,146,78957,1,2,0:0:0:0:
277,342,79214,1,2,0:0:0:0:
327,108,79470,1,2,0:0:0:0:
328,120,79727,1,8,0:0:0:0:
60,164,79983,6,0,P|84:240|246:231,1,215.999993408203,2|0,0:0|0:0,0:0:0:0:
283,214,80496,1,2,0:0:0:0:
220,384,80752,1,10,0:0:0:0:
157,181,81009,1,2,0:0:0:0:
378,134,81265,1,2,0:0:0:0:
434,333,81522,1,2,0:0:0:0:
380,113,81778,1,14,0:0:0:0:
331,363,82034,1,2,0:0:0:0:
24,173,82291,6,0,P|93:169|152:235,1,143.999995605469,2|0,0:0|0:0,0:0:0:0:
245,315,82675,1,2,0:0:0:0:
233,321,82804,2,0,P|166:298|149:232,1,143.999995605469,10|0,0:0|0:0,0:0:0:0:
404,132,83316,2,0,P|354:178|286:128,1,143.999995605469,2|0,0:0|0:0,0:0:0:0:
256,52,83701,1,2,0:0:0:0:
243,43,83829,2,0,P|211:35|168:49,1,71.9999978027344,10|0,0:0|0:0,0:0:0:0:
115,129,84086,1,2,0:0:0:0:
113,148,84598,5,2,0:0:0:0:
423,52,84855,1,8,0:0:0:0:
212,321,85111,1,2,0:0:0:0:
278,115,85368,1,2,0:0:0:0:
437,273,85624,1,2,0:0:0:0:
272,100,85881,1,14,0:0:0:0:
203,345,86137,1,2,0:0:0:0:
512,148,86393,6,0,P|431:127|370:165,1,143.999995605469,2|0,0:0|0:0,0:0:0:0:
239,218,86778,1,2,0:0:0:0:
221,215,86906,2,0,P|150:160|157:72,1,143.999995605469,10|0,0:0|0:0,0:0:0:0:
350,248,87291,1,2,0:0:0:0:
357,268,87419,2,0,P|348:337|295:384,1,143.999995605469,2|0,0:0|0:0,0:0:0:0:
353,142,87932,1,10,0:0:0:0:
138,328,88188,1,2,0:0:0:0:
133,348,88701,5,2,0:0:0:0:
347,163,88957,1,8,0:0:0:0:
126,111,89214,1,2,0:0:0:0:
104,92,89342,1,2,0:0:0:0:
98,65,89470,2,0,P|130:78|164:141,1,71.9999978027344,2|0,0:0|0:0,0:0:0:0:
322,178,89727,2,0,P|294:199|223:197,1,71.9999978027344,2|0,0:0|0:0,0:0:0:0:
115,314,89983,2,0,P|110:279|147:218,1,71.9999978027344,14|0,0:0|0:0,0:0:0:0:
244,116,90240,1,2,0:0:0:0:
310,333,90496,6,0,P|417:283|426:157,1,215.999993408203,2|2,0:0|0:0,0:0:0:0:
420,107,91009,1,8,0:0:0:0:
478,350,91265,1,2,0:0:0:0:
474,359,91522,1,2,0:0:0:0:
354,208,91778,1,0,0:0:0:0:
499,384,92034,1,8,0:0:0:0:
512,140,92291,1,2,0:0:0:0:
355,340,92547,6,0,B|262:370|200:304|200:304|237:299|292:256,1,215.999993408203,2|2,0:0|0:0,0:0:0:0:
328,242,93060,1,8,0:0:0:0:
109,327,93316,1,2,0:0:0:0:
230,46,93573,2,0,L|240:199,1,143.999995605469,2|0,0:0|0:0,0:0:0:0:
335,47,94086,1,12,0:0:0:0:
0,60,94342,6,0,P|86:49|111:177,1,215.999993408203,2|0,0:0|0:0,0:0:0:0:
82,217,94855,1,2,0:0:0:0:
241,44,95111,1,10,0:0:0:0:
34,119,95368,1,2,0:0:0:0:
228,334,95624,1,2,0:0:0:0:
219,129,95881,1,2,0:0:0:0:
405,344,96137,1,8,0:0:0:0:
37,223,96393,6,0,B|52:171|165:157|105:259|251:225,1,215.999993408203,2|0,0:0|0:0,0:0:0:0:
310,184,96906,1,2,0:0:0:0:
97,374,97163,1,10,0:0:0:0:
126,109,97419,1,2,0:0:0:0:
252,331,97675,2,0,B|338:360|388:312|388:312|306:240,2,215.999993408203,2|2|2,0:0|0:0|0:0,0:0:0:0:
187,226,98701,5,2,0:0:0:0:
275,179,98957,1,2,0:0:0:0:
186,32,99214,2,0,L|184:153,1,88.000002685547,10|2,0:0|0:0,0:0:0:0:
73,147,99727,1,2,0:0:0:0:
284,205,99983,1,2,0:0:0:0:
267,76,100240,1,8,0:0:0:0:
67,294,100496,6,0,P|120:239|204:251,1,132.00000402832,0|0,0:0|0:0,0:0:0:0:
187,245,101009,2,0,P|133:239|95:190,1,88.000002685547,2|10,0:0|0:0,0:0:0:0:
90,116,101522,1,2,0:0:0:0:
210,342,101778,1,2,0:0:0:0:
283,230,102034,1,2,0:0:0:0:
86,312,102291,1,14,0:0:0:0:
189,163,102547,1,2,0:0:0:0:
234,357,102804,6,0,P|287:364|333:349,1,88.000002685547,2|2,0:0|0:0,0:0:0:0:
121,229,103316,2,0,P|78:219|35:227,1,88.000002685547,10|2,0:0|0:0,0:0:0:0:
262,166,103829,1,2,0:0:0:0:
271,159,104086,1,2,0:0:0:0:
182,288,104342,1,8,0:0:0:0:
150,0,104598,6,0,P|130:78|170:150,1,132.00000402832
161,137,105111,1,2,0:0:0:0:
357,83,105368,1,10,0:0:0:0:
217,65,105624,1,2,0:0:0:0:
294,0,105881,1,2,0:0:0:0:
321,221,106137,1,2,0:0:0:0:
378,74,106393,1,14,0:0:0:0:
242,166,106650,1,2,0:0:0:0:
409,316,106906,6,0,L|396:156,1,154.000004699707,2|0,0:0|0:0,0:0:0:0:
396,162,107419,1,10,0:0:0:0:
279,77,107675,1,2,0:0:0:0:
283,86,107932,1,2,0:0:0:0:
307,217,108188,1,0,0:0:0:0:
403,47,108445,1,8,0:0:0:0:
297,238,108701,6,0,P|240:196|172:198,1,132.00000402832,0|0,0:0|0:0,0:0:0:0:
166,208,109214,1,0,0:0:0:0:
368,138,109470,1,8,0:0:0:0:
435,230,109727,1,0,0:0:0:0:
260,110,109983,2,0,L|270:8,1,88.000002685547,0|0,0:0|0:0,0:0:0:0:
421,211,110496,1,12,0:0:0:0:
452,128,110752,1,2,0:0:0:0:
452,128,110881,1,2,0:0:0:0:
452,128,111009,6,0,P|431:126|392:135,1,44.0000013427735,2|0,0:0|0:0,0:0:0:0:
337,210,111265,2,0,P|316:215|291:208,1,44.0000013427735,2|0,0:0|0:0,0:0:0:0:
269,106,111522,2,0,P|248:104|209:113,1,44.0000013427735,10|0,0:0|0:0,0:0:0:0:
154,188,111778,2,0,P|133:193|108:186,1,44.0000013427735,2|0,0:0|0:0,0:0:0:0:
0,126,112034,2,0,P|21:124|60:133,1,44.0000013427735,2|0,0:0|0:0,0:0:0:0:
115,208,112290,2,0,P|136:213|161:206,1,44.0000013427735,2|0,0:0|0:0,0:0:0:0:
227,124,112547,2,0,P|248:118|269:123,1,44.0000013427735,10|0,0:0|0:0,0:0:0:0:
62,29,112804,6,0,P|142:55|207:1,1,176.000005371094,0|0,0:0|0:0,0:0:0:0:
22,220,113573,1,8,0:0:0:0:
201,380,115111,6,0,B|226:278|132:312|169:187,1,180.000006866455,6|2,0:0|0:0,0:0:0:0:
272,154,115624,2,0,P|224:195|123:163,1,120.000004577637,10|2,0:0|0:0,0:0:0:0:
98,134,116137,1,2,0:0:0:0:
322,85,116393,1,2,0:0:0:0:
162,212,116650,1,10,0:0:0:0:
314,242,116906,1,2,0:0:0:0:
115,4,117163,6,0,P|124:82|215:85,1,180.000006866455,2|2,0:0|0:0,0:0:0:0:
222,77,117675,1,8,0:0:0:0:
307,278,117932,1,2,0:0:0:0:
436,154,118188,2,0,P|371:111|303:133,2,120.000004577637,2|0|12,0:0|0:0|0:0,0:0:0:0:
436,248,118957,1,0,0:0:0:0:
511,0,119214,6,0,B|477:27|477:27|337:16,1,180.000006866455,2|2,0:0|0:0,0:0:0:0:
309,13,119727,1,8,0:0:0:0:
511,103,119983,1,2,0:0:0:0:
330,286,120240,2,0,B|317:222|317:222|348:152,2,120.000004577637,2|2|10,0:0|0:0|0:0,0:0:0:0:
411,354,121009,1,2,0:0:0:0:
128,172,121265,6,0,P|147:96|188:160,1,180.000006866455,10|0,0:0|0:0,0:0:0:0:
93,239,121778,2,0,P|140:24|268:153,1,480.000018310548,10|0,0:0|0:0,0:0:0:0:
73,346,123060,1,2,0:0:0:0:
61,346,123124,1,2,0:0:0:0:
49,347,123188,1,2,0:0:0:0:
38,351,123252,1,2,0:0:0:0:
30,355,123316,6,0,P|103:266|212:295,1,215.999993408203,6|0,0:0|0:0,0:0:0:0:
266,346,123829,1,10,0:0:0:0:
265,356,124086,1,0,0:0:0:0:
510,136,124342,2,0,B|375:114|431:218|297:207,1,215.999993408203,2|0,0:0|0:0,0:0:0:0:
225,177,124855,1,10,0:0:0:0:
389,328,125111,1,2,0:0:0:0:
388,339,125624,5,2,0:0:0:0:
329,65,125881,1,10,0:0:0:0:
481,221,126137,1,2,0:0:0:0:
507,42,126393,1,2,0:0:0:0:
374,143,126650,1,2,0:0:0:0:
249,259,126906,1,14,0:0:0:0:
317,47,127163,1,2,0:0:0:0:
509,272,127419,6,0,P|423:233|331:310,1,215.999993408203,2|0,0:0|0:0,0:0:0:0:
302,378,127932,1,10,0:0:0:0:
300,384,128188,1,0,0:0:0:0:
112,146,128445,2,0,P|145:238|270:210,1,215.999993408203,2|0,0:0|0:0,0:0:0:0:
291,145,128957,1,10,0:0:0:0:
116,337,129214,1,2,0:0:0:0:
118,347,129727,5,2,0:0:0:0:
195,167,129983,1,8,0:0:0:0:
111,373,130240,1,2,0:0:0:0:
20,173,130496,1,2,0:0:0:0:
162,256,130752,1,2,0:0:0:0:
225,83,131009,1,14,0:0:0:0:
372,140,131265,1,2,0:0:0:0:
57,294,131522,6,0,B|110:315|157:268|157:268|218:240|274:296,1,215.999993408203,2|0,0:0|0:0,0:0:0:0:
318,361,132034,1,8,0:0:0:0:
273,170,132291,1,2,0:0:0:0:
272,180,132547,1,2,0:0:0:0:
196,357,132804,1,0,0:0:0:0:
282,151,133060,1,8,0:0:0:0:
109,237,133316,1,2,0:0:0:0:
482,303,133573,5,2,0:0:0:0:
471,315,133701,2,0,P|394:316|348:245,1,143.999995605469,0|2,0:0|0:0,0:0:0:0:
365,179,134086,1,8,0:0:0:0:
297,367,134342,1,2,0:0:0:0:
296,376,134598,1,2,0:0:0:0:
436,234,134855,1,0,0:0:0:0:
234,295,135111,1,12,0:0:0:0:
250,21,135368,6,0,P|362:72|340:195,1,215.999993408203,2|0,0:0|0:0,0:0:0:0:
303,214,135881,1,2,0:0:0:0:
464,65,136137,1,10,0:0:0:0:
271,118,136393,1,2,0:0:0:0:
469,258,136650,1,2,0:0:0:0:
248,110,136906,1,2,0:0:0:0:
334,362,137163,1,8,0:0:0:0:
466,43,137419,6,0,P|394:70|357:200,1,215.999993408203,2|0,0:0|0:0,0:0:0:0:
380,281,137932,1,2,0:0:0:0:
457,140,138188,1,10,0:0:0:0:
258,215,138445,1,2,0:0:0:0:
263,72,138701,1,2,0:0:0:0:
481,149,138957,1,2,0:0:0:0:
461,8,139214,1,14,0:0:0:0:
242,74,139470,1,2,0:0:0:0:
335,384,139727,6,0,P|370:322|369:251,1,143.999995605469,2|0,0:0|0:0,0:0:0:0:
224,201,140111,1,2,0:0:0:0:
230,216,140240,2,0,P|289:254|359:246,1,143.999995605469,10|0,0:0|0:0,0:0:0:0:
21,334,140752,2,0,P|91:281|186:306,1,143.999995605469,2|0,0:0|0:0,0:0:0:0:
217,347,141137,1,2,0:0:0:0:
217,347,141265,1,10,0:0:0:0:
101,127,141522,1,2,0:0:0:0:
99,109,142034,5,2,0:0:0:0:
113,376,142291,1,8,0:0:0:0:
239,206,142547,1,2,0:0:0:0:
42,247,142804,1,2,0:0:0:0:
180,80,143060,1,2,0:0:0:0:
309,344,143316,1,14,0:0:0:0:
425,148,143573,1,2,0:0:0:0:
216,283,143829,6,0,P|304:236|392:261,1,143.999995605469,2|0,0:0|0:0,0:0:0:0:
467,353,144214,1,2,0:0:0:0:
445,356,144342,2,0,P|384:319|357:240,1,143.999995605469,10|0,0:0|0:0,0:0:0:0:
430,110,144855,1,2,0:0:0:0:
465,237,145111,1,0,0:0:0:0:
234,108,145368,1,10,0:0:0:0:
345,357,145624,1,2,0:0:0:0:
342,370,146137,5,2,0:0:0:0:
217,78,146393,1,8,0:0:0:0:
352,120,146650,1,2,0:0:0:0:
374,101,146778,1,2,0:0:0:0:
380,74,146906,2,0,P|348:87|314:150,1,71.9999978027344,2|0,0:0|0:0,0:0:0:0:
156,187,147163,2,0,P|184:208|255:206,1,71.9999978027344,2|0,0:0|0:0,0:0:0:0:
363,323,147419,2,0,P|368:288|331:227,1,71.9999978027344,14|0,0:0|0:0,0:0:0:0:
234,125,147676,1,2,0:0:0:0:
82,334,147932,6,0,L|62:54,1,215.999993408203,2|2,0:0|0:0,0:0:0:0:
57,27,148445,1,8,0:0:0:0:
177,303,148701,1,2,0:0:0:0:
173,313,148958,1,2,0:0:0:0:
0,199,149214,1,0,0:0:0:0:
194,336,149470,1,8,0:0:0:0:
159,91,149727,1,2,0:0:0:0:
447,122,149983,6,0,P|331:111|269:200,1,215.999993408203,2|2,0:0|0:0,0:0:0:0:
249,273,150496,1,8,0:0:0:0:
423,335,150752,1,2,0:0:0:0:
421,346,151009,1,2,0:0:0:0:
373,180,151265,1,0,0:0:0:0:
323,13,151522,1,12,0:0:0:0:
337,384,151778,6,0,B|304:251|409:304|368:158,1,215.999993408203,2|0,0:0|0:0,0:0:0:0:
354,89,152291,1,2,0:0:0:0:
433,343,152547,1,10,0:0:0:0:
282,211,152804,1,2,0:0:0:0:
470,240,153060,1,2,0:0:0:0:
259,205,153316,1,2,0:0:0:0:
434,60,153573,1,8,0:0:0:0:
304,343,153829,6,0,P|262:262|124:235,1,215.999993408203,2|0,0:0|0:0,0:0:0:0:
72,276,154342,1,2,0:0:0:0:
329,186,154598,1,10,0:0:0:0:
189,339,154855,1,2,0:0:0:0:
70,106,155111,1,2,0:0:0:0:
96,54,155240,1,2,0:0:0:0:
152,41,155368,1,2,0:0:0:0:
190,83,155496,1,2,0:0:0:0:
187,140,155624,1,14,0:0:0:0:
157,90,155752,1,2,0:0:0:0:
184,38,155881,1,2,0:0:0:0:
240,27,156009,1,2,0:0:0:0:
283,47,156137,5,2,0:0:0:0:
