osu file format v14

[General]
AudioFilename: audio.mp3
AudioLeadIn: 0
PreviewTime: 84409
Countdown: 0
SampleSet: Soft
StackLeniency: 0.7
Mode: 0
LetterboxInBreaks: 0
EpilepsyWarning: 1
WidescreenStoryboard: 1

[Editor]
DistanceSpacing: 2.2
BeatDivisor: 4
GridSize: 4
TimelineZoom: 1.3

[Metadata]
Title:Stitches (Sped Up Ver.)
TitleUnicode:Stitches (Sped Up Ver.)
Artist:Shawn Mendes
ArtistUnicode:Shawn Mendes
Creator:Hantrik
Version:NeKro's Hard
Source:
Tags:handwritten english pop male vocals nekroman4ik -tynamo speed cut
BeatmapID:2068754
BeatmapSetID:985295

[Difficulty]
HPDrainRate:4
CircleSize:3.5
OverallDifficulty:6
ApproachRate:7.5
SliderMultiplier:1.1
SliderTickRate:1

[Events]
//Background and Video events
0,0,"BG.jpg",0,0
//Break Periods
2,58938,63246
//Storyboard Layer 0 (Background)
Sprite,Background,Centre,"sb\glow.png",0,0 C,0,115909,,82,151,36 M,0,115909,115950,359,224,349.5059,222.4245 F,2,115909,116775,1,0 S,2,115909,116775,1,0.2 P,0,115909,116775,A M,0,115950,115992,349.5059,222.4245,339.9382,221.3927 M,0,115992,116034,339.9382,221.3927,330.3209,221.107 M,0,116034,116075,330.3209,221.107,320.7318,221.8534 M,0,116075,116117,320.7318,221.8534,311.3519,223.9619 M,0,116117,116159,311.3519,223.9619,302.469,227.6368 M,0,116159,116200,302.469,227.6368,294.1935,232.5423 M,0,116200,116242,294.1935,232.5423,286.1664,237.8531 M,0,116242,116284,286.1664,237.8531,277.8174,242.6312 M,0,116284,116325,277.8174,242.6312,268.8958,246.2163 M,0,116325,116367,268.8958,246.2163,259.5384,248.4333 M,0,116367,116409,259.5384,248.4333,249.9729,249.454 M,0,116409,116450,249.9729,249.454,240.3514,249.5472 M,0,116450,116492,240.3514,249.5472,230.7468,248.9513 M,0,116492,116534,230.7468,248.9513,221.1885,247.8297 M,0,116534,116575,221.1885,247.8297,211.6854,246.3071
//Storyboard Layer 1 (Fail)
//Storyboard Layer 2 (Pass)
//Storyboard Layer 3 (Foreground)
//Storyboard Sound Samples

[TimingPoints]
72,333.333333333333,4,2,1,20,1,0
5405,-142.857142857143,4,2,1,20,0,0
26738,-125,4,2,1,40,0,0
37405,-95.2380952380952,4,2,1,60,0,1
58738,-142.857142857143,4,2,1,60,0,0
64071,-125,4,2,1,20,0,0
69405,-125,4,2,1,25,0,0
74738,-111.111111111111,4,2,1,45,0,0
85405,-95.2380952380952,4,2,1,65,0,1
106738,-111.111111111111,4,2,1,40,0,0
115905,-142.857142857143,4,2,1,40,0,0

[Colours]
Combo1 : 153,210,125
Combo2 : 60,168,89
Combo3 : 82,151,36
Combo4 : 173,173,173
Combo5 : 131,131,131
Combo6 : 143,197,155
SliderBorder : 255,204,153

[HitObjects]
415,92,5405,53,2,0:0:0:0:
484,184,5738,2,0,L|490:260,2,76.9999976501466,2|2|2,0:0|0:0|0:0,0:0:0:0:
415,92,6738,2,0,L|421:16,2,76.9999976501466,2|2|2,0:0|0:0|0:0,0:0:0:0:
321,158,7738,1,2,0:0:0:0:
321,158,7905,70,0,P|194:183|178:176,1,153.999995300293,2|0,0:0|0:0,0:0:0:0:
81,111,8905,1,0,0:0:0:0:
5,197,9238,1,0,0:0:0:0:
5,197,9405,2,0,L|0:235,1,38.4999988250733,2|2,0:0|0:0,0:0:0:0:
75,324,9905,2,0,P|112:311|150:307,1,76.9999976501466
221,353,10405,1,2,0:0:0:0:
221,353,10571,6,0,P|258:365|296:369,1,76.9999976501466,2|2,0:0|0:0,0:0:0:0:
371,330,11071,1,2,0:0:0:0:
371,330,11238,2,0,L|378:254,1,76.9999976501466,2|0,0:0|0:0,0:0:0:0:
426,182,11738,1,2,0:0:0:0:
426,182,11905,2,0,L|419:106,1,76.9999976501466,2|2,0:0|0:0,0:0:0:0:
306,83,12571,2,0,L|299:159,1,76.9999976501466,2|2,0:0|0:0,0:0:0:0:
227,247,13238,70,0,P|152:264|81:236,1,153.999995300293,2|0,0:0|0:0,0:0:0:0:
14,143,14238,1,0,0:0:0:0:
78,46,14571,1,0,0:0:0:0:
78,46,14738,2,0,L|72:1,1,38.4999988250733,2|2,0:0|0:0,0:0:0:0:
179,54,15238,2,0,L|169:131,2,76.9999976501466
246,1,16071,5,2,0:0:0:0:
342,50,16405,2,0,L|419:60,2,76.9999976501466,2|2|2,0:0|0:0|0:0,0:0:0:0:
246,1,17405,2,0,L|170:11,2,76.9999976501466,2|2|2,0:0|0:0|0:0,0:0:0:0:
342,50,18405,1,2,0:0:0:0:
342,50,18571,70,0,B|372:96|372:96|378:205,1,153.999995300293,2|0,0:0|0:0,0:0:0:0:
441,291,19571,1,0,0:0:0:0:
352,363,19904,1,0,0:0:0:0:
352,363,20071,2,0,L|314:358,1,38.4999988250733,2|2,0:0|0:0,0:0:0:0:
216,297,20571,2,0,L|166:302,1,38.4999988250733
106,346,20905,2,0,L|56:341,1,38.4999988250733,2|2,0:0|0:0,0:0:0:0:
16,275,21238,6,0,L|23:194,1,76.9999976501466,2|2,0:0|0:0,0:0:0:0:
84,139,21738,1,2,0:0:0:0:
84,139,21905,2,0,L|77:58,1,76.9999976501466,2|0,0:0|0:0,0:0:0:0:
146,12,22405,1,2,0:0:0:0:
146,12,22571,2,0,P|183:2|221:6,1,76.9999976501466,2|2,0:0|0:0,0:0:0:0:
295,49,23071,1,2,0:0:0:0:
295,49,23237,2,0,P|332:59|370:55,1,76.9999976501466,2|0,0:0|0:0,0:0:0:0:
446,95,23738,1,2,0:0:0:0:
446,95,23905,70,0,L|459:263,1,153.999995300293,2|0,0:0|0:0,0:0:0:0:
377,331,24905,1,0,0:0:0:0:
297,248,25238,1,0,0:0:0:0:
297,248,25405,2,0,L|259:243,1,38.4999988250733,2|2,0:0|0:0,0:0:0:0:
153,287,25905,2,0,L|146:210,2,76.9999976501466
217,383,26738,21,0,1:0:0:0:
325,324,27071,2,0,L|380:315,1,44,10|2,0:0|0:0,0:0:0:0:
439,263,27405,2,0,P|441:242|445:220,1,44,2|2,0:0|0:0,0:0:0:0:
490,144,27738,1,10,0:0:0:0:
490,144,27905,1,2,0:0:0:0:
438,74,28071,2,0,P|396:64|352:70,1,88,2|10,0:0|0:0,0:0:0:0:
248,138,28738,2,0,P|206:149|162:143,1,88,2|10,0:0|0:0,0:0:0:0:
62,74,29405,5,0,1:0:0:0:
5,183,29738,2,0,L|-1:241,1,44,10|2,0:0|0:0,0:0:0:0:
16,314,30071,2,0,P|58:332|118:334,1,88,2|10,0:0|0:0,0:0:0:0:
168,279,30571,1,2,0:0:0:0:
240,329,30738,2,0,P|282:317|326:319,1,88,2|10,0:0|0:0,0:0:0:0:
443,359,31405,2,0,P|431:316|433:272,1,88,2|10,0:0|0:0,0:0:0:0:
489,164,32071,69,0,1:0:0:0:
395,85,32405,2,0,L|346:80,1,44,10|2,0:0|0:0,0:0:0:0:
278,33,32738,2,0,L|190:41,1,88,2|10,0:0|0:0,0:0:0:0:
104,58,33238,1,2,0:0:0:0:
53,130,33405,2,0,B|41:171|41:171|49:216,1,88,2|10,0:0|0:0,0:0:0:0:
155,276,34071,2,0,B|167:235|167:235|159:190,1,88,2|10,0:0|0:0,0:0:0:0:
53,130,34738,5,0,1:0:0:0:
119,25,35071,1,10,0:0:0:0:
119,25,35238,2,0,P|182:6|247:0,1,132,2|10,0:0|0:0,0:0:0:0:
248,0,37405,22,0,P|251:29|257:57,1,57.7499982376099,6|2,1:2|0:0,0:0:0:0:
313,137,37738,2,0,P|309:165|303:193,1,57.7499982376099,10|2,0:0|1:2,0:0:0:0:
267,285,38071,2,0,P|241:297|213:301,1,57.7499982376099,2|0,0:0|0:0,0:0:0:0:
131,358,38405,2,0,P|104:345|76:341,1,57.7499982376099,10|0,0:0|0:0,0:0:0:0:
16,263,38738,70,0,B|8:185|8:185|30:144,1,115.49999647522,0|8,1:0|0:0,0:0:0:0:
62,61,39238,1,0,1:0:0:0:
154,93,39405,2,0,L|211:101,1,57.7499982376099,2|0,0:0|0:0,0:0:0:0:
282,33,39738,2,0,L|339:24,1,57.7499982376099,10|0,0:0|0:0,0:0:0:0:
419,80,40071,5,2,1:2:0:0:
419,80,40238,1,2,0:0:0:0:
359,158,40405,1,10,0:0:0:0:
359,158,40571,1,2,1:2:0:0:
437,216,40738,2,0,L|428:273,1,57.7499982376099,2|0,0:0|0:0,0:0:0:0:
336,308,41071,2,0,L|327:250,1,57.7499982376099,10|0,0:0|0:0,0:0:0:0:
250,188,41405,70,0,B|186:181|205:219|118:211,1,115.49999647522,0|8,1:0|0:0,0:0:0:0:
54,161,41905,1,2,1:2:0:0:
8,247,42071,2,0,P|14:275|18:303,1,57.7499982376099,2|0,0:0|0:0,0:0:0:0:
107,347,42405,2,0,P|110:318|117:290,1,57.7499982376099,10|0,0:0|0:0,0:0:0:0:
188,223,42738,6,0,L|303:213,1,115.49999647522,2|8,1:2|0:0,0:0:0:0:
382,271,43238,2,0,L|374:328,1,57.7499982376099,2|0,1:2|0:0,0:0:0:0:
480,290,43571,2,0,L|472:232,1,57.7499982376099,2|8,0:0|0:0,0:0:0:0:
421,147,43905,1,2,0:0:0:0:
468,61,44071,70,0,L|352:50,1,115.49999647522,0|8,1:0|0:0,0:0:0:0:
268,0,44571,1,2,1:2:0:0:
218,85,44738,1,0,0:0:0:0:
133,36,44905,1,10,0:0:0:0:
83,121,45071,2,0,P|93:147|98:176,1,57.7499982376099,10|0,0:0|0:0,0:0:0:0:
53,264,45405,6,0,P|98:230|154:233,1,115.49999647522,2|8,1:2|0:0,0:0:0:0:
217,309,45905,2,0,L|274:316,1,57.7499982376099,2|0,1:2|0:0,0:0:0:0:
352,255,46238,2,0,L|409:248,1,57.7499982376099,2|10,0:0|0:0,0:0:0:0:
489,190,46571,1,2,0:0:0:0:
450,99,46738,70,0,B|424:66|424:66|339:56,1,115.49999647522,0|8,1:0|0:0,0:0:0:0:
271,0,47238,2,0,P|246:15|219:22,1,57.7499982376099,2|0,1:2|0:0,0:0:0:0:
120,12,47571,1,10,0:0:0:0:
33,58,47738,1,8,0:0:0:0:
5,152,47905,1,8,0:0:0:0:
70,224,48071,6,0,L|78:281,1,57.7499982376099,6|2,1:2|0:0,0:0:0:0:
166,327,48405,2,0,L|158:384,1,57.7499982376099,10|2,0:0|1:2,0:0:0:0:
251,352,48738,2,0,P|278:344|307:341,1,57.7499982376099,2|0,0:0|0:0,0:0:0:0:
400,373,49071,2,0,P|427:381|456:384,1,57.7499982376099,10|0,0:0|0:0,0:0:0:0:
512,302,49405,70,0,P|473:262|408:258,1,115.49999647522,0|8,1:0|0:0,0:0:0:0:
332,307,49905,1,0,1:0:0:0:
286,220,50071,2,0,L|294:163,1,57.7499982376099,2|0,0:0|0:0,0:0:0:0:
330,70,50405,2,0,P|356:57|385:54,1,57.7499982376099,10|0,0:0|0:0,0:0:0:0:
454,123,50738,5,2,1:2:0:0:
454,123,50905,1,2,0:0:0:0:
415,212,51071,1,10,0:0:0:0:
415,212,51238,1,2,1:2:0:0:
467,294,51405,2,0,P|460:322|457:350,1,57.7499982376099,2|0,0:0|0:0,0:0:0:0:
364,384,51738,2,0,P|360:355|354:327,1,57.7499982376099,10|0,0:0|0:0,0:0:0:0:
286,255,52071,70,0,B|222:248|241:286|154:278,1,115.49999647522,0|8,1:0|0:0,0:0:0:0:
90,328,52571,1,2,1:2:0:0:
36,246,52738,2,0,L|29:188,1,57.7499982376099,2|0,0:0|0:0,0:0:0:0:
0,94,53071,2,0,L|6:36,1,57.7499982376099,10|0,0:0|0:0,0:0:0:0:
98,0,53405,6,0,P|144:34|200:29,1,115.49999647522,2|8,1:2|0:0,0:0:0:0:
296,13,53905,2,0,P|294:41|289:70,1,57.7499982376099,2|0,1:2|0:0,0:0:0:0:
230,149,54238,2,0,P|231:177|236:206,1,57.7499982376099,2|8,0:0|0:0,0:0:0:0:
281,294,54571,1,2,0:0:0:0:
208,359,54738,70,0,P|146:372|91:354,1,115.49999647522,0|10,1:0|0:0,0:0:0:0:
30,285,55238,1,2,1:2:0:0:
87,205,55405,1,0,0:0:0:0:
36,118,55571,1,10,0:0:0:0:
109,52,55738,2,0,P|135:42|164:37,1,57.7499982376099,8|2,0:0|0:0,0:0:0:0:
248,87,56071,6,0,P|302:101|366:84,1,115.49999647522,2|8,1:2|0:0,0:0:0:0:
454,63,56571,2,0,L|447:120,1,57.7499982376099,2|0,1:2|0:0,0:0:0:0:
383,195,56905,2,0,L|390:252,1,57.7499982376099,2|10,0:0|0:0,0:0:0:0:
440,336,57238,1,2,0:0:0:0:
349,376,57405,70,0,B|291:387|291:387|235:377,1,115.49999647522,0|8,1:0|0:0,0:0:0:0:
167,307,57905,2,0,P|172:278|174:249,1,57.7499982376099,2|0,1:2|0:0,0:0:0:0:
125,164,58238,1,2,0:0:0:0:
182,84,58405,1,8,0:0:0:0:
123,5,58571,1,8,0:0:0:0:
30,37,58738,37,0,0:0:0:0:
424,117,64071,86,0,L|429:167,1,44,2|2,0:0|0:0,0:0:0:0:
484,230,64405,2,0,L|479:280,1,44,2|2,0:0|0:0,0:0:0:0:
433,349,64738,2,0,P|393:367|349:367,1,88,2|2,0:0|0:0,0:0:0:0:
275,319,65238,1,2,0:0:0:0:
203,370,65405,2,0,L|159:375,1,44,2|2,0:0|0:0,0:0:0:0:
90,319,65738,2,0,L|46:313,1,44,2|2,0:0|0:0,0:0:0:0:
1,237,66071,2,0,P|12:194|7:151,1,88,2|2,0:0|0:0,0:0:0:0:
148,45,66738,70,0,L|153:102,1,44,2|2,0:0|0:0,0:0:0:0:
213,152,67071,2,0,L|208:209,1,44,2|2,0:0|0:0,0:0:0:0:
175,277,67405,2,0,P|200:312|243:327,1,88,2|2,0:0|0:0,0:0:0:0:
316,281,67905,1,2,0:0:0:0:
385,333,68071,2,0,P|406:327|428:325,1,44,2|0,0:0|0:0,0:0:0:0:
491,263,68405,2,0,P|498:242|500:220,1,44,2|0,0:0|0:0,0:0:0:0:
456,143,68738,2,0,L|368:149,1,88,2|0,0:0|0:0,0:0:0:0:
211,67,69405,6,0,L|123:60,1,88,2|2,1:2|0:0,0:0:0:0:
45,18,69905,1,2,1:2:0:0:
5,96,70071,2,0,L|0:139,1,44,2|0,0:0|0:0,0:0:0:0:
65,200,70405,2,0,L|69:243,1,44,2|2,0:0|0:0,0:0:0:0:
26,320,70738,2,0,P|63:298|107:295,1,88,2|0,1:2|0:0,0:0:0:0:
180,343,71238,1,2,1:2:0:0:
252,293,71405,2,0,P|272:286|294:282,1,44,2|0,0:0|0:0,0:0:0:0:
369,327,71738,1,2,0:0:0:0:
480,191,72071,70,0,P|484:147|492:103,1,88,2|2,1:2|0:0,0:0:0:0:
512,18,72571,1,2,1:2:0:0:
424,31,72738,2,0,L|380:36,1,44,2|0,0:0|0:0,0:0:0:0:
312,92,73071,2,0,L|268:88,1,44,2|2,0:0|0:0,0:0:0:0:
199,32,73405,2,0,P|160:11|116:10,1,88,2|2,1:2|0:0,0:0:0:0:
59,76,73905,1,2,1:2:0:0:
97,154,74071,2,0,B|105:201|105:201|94:255,1,88,2|2,0:0|0:0,0:0:0:0:
293,265,74738,37,2,1:2:0:0:
293,265,74905,1,2,0:0:0:0:
270,173,75071,1,10,0:0:0:0:
270,173,75238,1,2,1:2:0:0:
324,96,75405,2,0,P|369:78|418:84,1,98.9999969787599,2|10,0:0|0:0,0:0:0:0:
497,134,75905,1,2,0:0:0:0:
465,222,76071,70,0,L|470:271,1,49.4999984893799,2|2,1:2|0:0,0:0:0:0:
375,273,76405,2,0,L|369:322,1,49.4999984893799,10|2,0:0|1:2,0:0:0:0:
275,325,76738,2,0,L|280:374,1,49.4999984893799,2|0,0:0|0:0,0:0:0:0:
186,369,77071,1,10,0:0:0:0:
29,264,77405,6,0,L|24:214,1,49.4999984893799,2|2,1:2|0:0,0:0:0:0:
74,135,77738,2,0,L|78:85,1,49.4999984893799,10|2,0:0|1:2,0:0:0:0:
140,13,78071,2,0,P|184:-7|233:-1,1,98.9999969787599,2|10,0:0|0:0,0:0:0:0:
303,62,78571,1,2,0:0:0:0:
256,143,78738,70,0,P|254:167|250:192,1,49.4999984893799,2|0,1:2|0:0,0:0:0:0:
315,260,79071,2,0,P|316:284|320:309,1,49.4999984893799,10|0,0:0|1:2,0:0:0:0:
401,366,79405,2,0,P|424:368|450:365,1,49.4999984893799,2|0,0:0|0:0,0:0:0:0:
512,288,79738,2,0,P|514:263|511:239,1,49.4999984893799,10|0,0:0|0:0,0:0:0:0:
451,165,80071,5,2,1:2:0:0:
451,165,80238,1,2,0:0:0:0:
488,78,80405,1,10,0:0:0:0:
488,78,80571,1,2,1:2:0:0:
421,10,80738,2,0,L|322:17,1,98.9999969787599,2|10,0:0|0:0,0:0:0:0:
258,86,81238,1,2,0:0:0:0:
308,165,81405,70,0,L|302:214,1,49.4999984893799,2|2,1:2|0:0,0:0:0:0:
256,291,81738,2,0,P|234:302|210:307,1,49.4999984893799,10|2,0:0|1:2,0:0:0:0:
137,248,82071,2,0,P|114:237|90:232,1,49.4999984893799,2|0,0:0|0:0,0:0:0:0:
7,277,82405,1,10,0:0:0:0:
53,95,82738,6,0,P|75:84|99:79,1,49.4999984893799,2|2,1:2|0:0,0:0:0:0:
181,126,83071,2,0,P|203:136|227:141,1,49.4999984893799,10|2,0:0|1:2,0:0:0:0:
299,82,83405,2,0,P|321:71|345:66,1,49.4999984893799,2|0,0:0|0:0,0:0:0:0:
435,96,83738,1,10,0:0:0:0:
435,96,85405,22,0,P|438:125|444:153,1,57.7499982376099,6|2,1:2|0:0,0:0:0:0:
492,238,85738,2,0,P|488:266|482:294,1,57.7499982376099,10|2,0:0|1:2,0:0:0:0:
408,360,86071,2,0,P|381:370|353:373,1,57.7499982376099,2|0,0:0|0:0,0:0:0:0:
270,317,86405,2,0,P|243:306|215:303,1,57.7499982376099,10|0,0:0|0:0,0:0:0:0:
146,374,86738,70,0,B|160:324|160:324|143:260,1,115.49999647522,0|8,1:0|0:0,0:0:0:0:
74,193,87238,1,2,1:2:0:0:
142,123,87405,2,0,L|199:115,1,57.7499982376099,2|0,0:0|0:0,0:0:0:0:
280,59,87738,2,0,L|337:67,1,57.7499982376099,10|0,0:0|0:0,0:0:0:0:
416,124,88071,5,2,1:2:0:0:
416,124,88238,1,2,0:0:0:0:
364,207,88405,1,10,0:0:0:0:
364,207,88571,1,2,1:2:0:0:
424,284,88738,2,0,P|418:312|414:340,1,57.7499982376099,2|0,0:0|0:0,0:0:0:0:
325,384,89071,2,0,P|322:355|315:327,1,57.7499982376099,10|0,0:0|0:0,0:0:0:0:
259,246,89405,70,0,P|262:217|269:189,2,57.7499982376099,2|2|8,1:2|0:0|0:0,0:0:0:0:
188,314,89905,1,2,1:2:0:0:
103,263,90071,2,0,L|45:256,1,57.7499982376099,2|2,0:0|0:0,0:0:0:0:
1,167,90405,2,0,P|7:138|10:110,1,57.7499982376099,10|2,0:0|0:0,0:0:0:0:
65,29,90738,6,0,L|123:36,1,57.7499982376099,2|2,1:2|0:0,0:0:0:0:
203,91,91071,1,8,0:0:0:0:
294,52,91238,2,0,P|288:81|285:110,1,57.7499982376099,2|0,1:2|0:0,0:0:0:0:
379,22,91571,2,0,P|384:50|387:79,1,57.7499982376099,2|8,0:0|0:0,0:0:0:0:
465,0,91905,1,2,0:0:0:0:
512,86,92071,70,0,B|490:122|490:122|484:195,1,115.49999647522,0|8,1:2|0:0,0:0:0:0:
512,289,92571,1,2,1:2:0:0:
431,345,92738,1,2,0:0:0:0:
352,286,92905,1,10,0:0:0:0:
271,342,93071,2,0,P|245:352|216:357,1,57.7499982376099,10|2,0:0|0:0,0:0:0:0:
136,298,93405,6,0,P|141:271|138:242,1,57.7499982376099,2|2,1:2|0:0,0:0:0:0:
97,151,93738,1,8,0:0:0:0:
156,72,93905,2,0,P|183:67|212:70,1,57.7499982376099,2|0,1:2|0:0,0:0:0:0:
286,135,94238,2,0,P|313:139|342:136,1,57.7499982376099,2|8,0:0|0:0,0:0:0:0:
427,84,94571,1,2,0:0:0:0:
505,141,94738,70,0,L|512:198,2,57.7499982376099,2|0|8,1:0|0:0|0:0,0:0:0:0:
437,68,95238,2,0,L|379:61,1,57.7499982376099,2|2,1:2|0:0,0:0:0:0:
294,11,95571,1,10,0:0:0:0:
207,57,95738,1,10,0:0:0:0:
179,151,95905,1,10,0:0:0:0:
236,228,96071,6,0,P|242:256|246:284,1,57.7499982376099,6|2,1:2|0:0,0:0:0:0:
338,322,96405,2,0,P|341:293|348:265,1,57.7499982376099,10|2,0:0|1:2,0:0:0:0:
403,184,96738,2,0,P|431:178|460:180,1,57.7499982376099,2|0,0:0|0:0,0:0:0:0:
509,264,97071,2,0,P|514:292|512:321,1,57.7499982376099,10|0,0:0|0:0,0:0:0:0:
426,370,97405,70,0,P|369:384|314:370,1,115.49999647522,0|8,1:0|0:0,0:0:0:0:
239,309,97905,1,0,1:0:0:0:
160,367,98071,2,0,L|102:373,1,57.7499982376099,2|0,0:0|0:0,0:0:0:0:
63,282,98405,2,0,L|6:275,1,57.7499982376099,10|0,0:0|0:0,0:0:0:0:
29,179,98738,5,2,1:2:0:0:
29,179,98905,1,2,0:0:0:0:
92,105,99071,1,10,0:0:0:0:
92,105,99238,1,2,1:2:0:0:
174,159,99405,2,0,P|201:167|230:170,1,57.7499982376099,2|0,0:0|0:0,0:0:0:0:
316,122,99738,2,0,P|343:113|372:110,1,57.7499982376099,10|0,0:0|0:0,0:0:0:0:
468,130,100071,70,0,L|476:67,2,57.7499982376099,2|2|8,1:0|0:0|0:0,0:0:0:0:
512,218,100571,1,2,1:2:0:0:
449,293,100738,2,0,P|422:306|384:312,1,57.7499982376099,2|2,0:0|0:0,0:0:0:0:
321,376,101071,2,0,P|294:362|256:356,1,57.7499982376099,10|0,0:0|0:0,0:0:0:0:
176,318,101405,6,0,P|166:290|165:261,1,57.7499982376099,10|0,1:2|0:0,0:0:0:0:
159,163,101738,1,8,0:0:0:0:
243,113,101905,2,0,P|270:120|299:124,1,57.7499982376099,2|0,1:2|0:0,0:0:0:0:
358,202,102238,2,0,P|385:194|414:190,1,57.7499982376099,2|8,0:0|0:0,0:0:0:0:
508,217,102571,1,2,0:0:0:0:
512,119,102738,70,0,B|525:42|525:42|507:8,1,115.49999647522,0|10,1:2|0:0,0:0:0:0:
409,3,103238,1,2,1:2:0:0:
329,60,103405,1,2,0:0:0:0:
243,10,103571,1,10,0:0:0:0:
167,72,103738,2,0,P|140:80|111:84,1,57.7499982376099,10|2,0:0|0:0,0:0:0:0:
44,156,104071,6,0,P|54:182|61:210,1,57.7499982376099,10|2,1:2|0:0,0:0:0:0:
104,299,104405,1,8,0:0:0:0:
189,250,104571,2,0,L|246:257,1,57.7499982376099,2|0,1:2|0:0,0:0:0:0:
321,321,104905,2,0,L|378:314,1,57.7499982376099,2|10,0:0|0:0,0:0:0:0:
472,343,105238,1,2,0:0:0:0:
507,251,105405,70,0,B|518:194|518:194|507:137,1,115.49999647522,0|8,1:0|0:0,0:0:0:0:
437,67,105905,2,0,L|380:74,1,57.7499982376099,2|2,1:2|0:0,0:0:0:0:
296,21,106238,1,2,0:0:0:0:
216,78,106405,1,10,0:0:0:0:
130,28,106571,1,10,0:0:0:0:
73,90,106738,38,0,L|83:188,1,98.9999969787599,2|10,1:2|0:0,0:0:0:0:
149,239,107238,2,0,P|172:247|197:249,1,49.4999984893799,2|0,1:2|0:0,0:0:0:0:
270,208,107571,2,0,P|293:201|318:199,1,49.4999984893799,2|8,1:2|0:0,0:0:0:0:
402,192,107905,1,2,0:0:0:0:
469,241,108071,2,0,P|482:288|473:336,1,98.9999969787599,0|10,1:2|0:0,0:0:0:0:
399,378,108571,2,0,L|300:367,1,98.9999969787599,2|2,1:2|1:2,0:0:0:0:
223,333,109071,2,0,L|169:339,1,49.4999984893799,8|0,0:0|0:0,0:0:0:0:
93,298,109405,70,0,P|81:249|78:200,1,98.9999969787599,2|8,1:2|0:0,0:0:0:0:
118,126,109905,2,0,L|166:119,1,49.4999984893799,2|0,1:2|0:0,0:0:0:0:
229,61,110238,2,0,L|277:68,1,49.4999984893799,2|10,0:0|0:0,0:0:0:0:
358,92,110571,1,2,0:0:0:0:
422,37,110738,2,0,B|442:84|442:84|432:149,1,98.9999969787599,0|8,1:0|0:0,0:0:0:0:
407,211,111238,1,2,1:2:0:0:
450,283,111405,2,0,L|455:332,1,49.4999984893799,10|0,0:0|0:0,0:0:0:0:
370,332,111738,2,0,L|364:381,1,49.4999984893799,10|0,0:0|0:0,0:0:0:0:
282,358,112071,6,0,L|270:259,1,98.9999969787599,2|8,1:2|0:0,0:0:0:0:
278,175,112571,2,0,P|282:150|280:126,1,49.4999984893799,2|0,1:2|0:0,0:0:0:0:
228,58,112905,2,0,P|203:54|178:56,1,49.4999984893799,2|8,1:2|0:0,0:0:0:0:
103,93,113238,1,2,0:0:0:0:
123,174,113405,2,0,L|114:272,1,98.9999969787599,0|10,1:2|0:0,0:0:0:0:
164,339,113905,2,0,P|210:323|259:326,1,98.9999969787599,2|2,1:2|1:2,0:0:0:0:
332,369,114405,2,0,P|354:376|379:378,1,49.4999984893799,8|2,0:0|0:0,0:0:0:0:
454,338,114738,70,0,L|463:239,1,98.9999969787599,2|8,1:2|0:0,0:0:0:0:
495,161,115238,2,0,P|491:136|489:111,1,49.4999984893799,2|0,1:2|0:0,0:0:0:0:
412,77,115571,2,0,P|410:101|406:126,1,49.4999984893799,2|0,1:2|0:0,0:0:0:0:
324,150,115905,70,0,B|240:134|272:190|175:172,1,153.999995300293,2|2,0:0|0:0,0:0:0:0:
