osu file format v14

[General]
AudioFilename: audio.mp3
AudioLeadIn: 0
PreviewTime: 84409
Countdown: 0
SampleSet: Soft
StackLeniency: 0.7
Mode: 0
LetterboxInBreaks: 0
EpilepsyWarning: 1
WidescreenStoryboard: 1

[Editor]
DistanceSpacing: 0.8
BeatDivisor: 4
GridSize: 4
TimelineZoom: 1

[Metadata]
Title:Stitches (Sped Up Ver.)
TitleUnicode:Stitches (Sped Up Ver.)
Artist:Shawn Mendes
ArtistUnicode:Shawn Mendes
Creator:Hantrik
Version:Depression
Source:
Tags:handwritten english pop male vocals nekroman4ik -tynamo speed cut
BeatmapID:2061485
BeatmapSetID:985295

[Difficulty]
HPDrainRate:5
CircleSize:3.8
OverallDifficulty:8.6
ApproachRate:9
SliderMultiplier:1.52
SliderTickRate:1

[Events]
//Background and Video events
0,0,"BG.jpg",0,0
//Break Periods
2,58938,63471
//Storyboard Layer 0 (Background)
Sprite,Background,Centre,"sb\glow.png",0,0 C,0,115909,,82,151,36 M,0,115909,115950,330,350,332.2381,337.6672 F,2,115909,116775,1,0 S,2,115909,116775,1,0.2 P,0,115909,116775,A M,0,115950,115992,332.2381,337.6672,333.2048,325.1735 M,0,115992,116034,333.2048,325.1735,332.6797,312.6552 M,0,116034,116075,332.6797,312.6552,330.5787,300.3026 M,0,116075,116117,330.5787,300.3026,327.0133,288.2876 M,0,116117,116159,327.0133,288.2876,322.3466,276.6519 M,0,116159,116200,322.3466,276.6519,317.082,265.2709 M,0,116200,116242,317.082,265.2709,311.9284,253.8403 M,0,116242,116284,311.9284,253.8403,307.9741,241.9566 M,0,116284,116325,307.9741,241.9566,307.3687,229.5193 M,0,116325,116367,307.3687,229.5193,313.3927,218.8256 M,0,116367,116409,313.3927,218.8256,325.0089,214.8466 M,0,116409,116450,325.0089,214.8466,336.6733,218.8476 M,0,116450,116492,336.6733,218.8476,344.0334,228.7912 M,0,116492,116534,344.0334,228.7912,345.7101,241.1161 M,0,116534,116575,345.7101,241.1161,342.6968,253.231
//Storyboard Layer 1 (Fail)
//Storyboard Layer 2 (Pass)
//Storyboard Layer 3 (Foreground)
//Storyboard Sound Samples

[TimingPoints]
72,333.333333333333,4,2,1,20,1,0
5238,-217.391304347826,4,2,1,20,0,0
26738,-128.205128205128,4,2,1,40,0,0
37405,-94.3396226415094,4,2,1,60,0,1
58738,-94.3396226415094,4,2,1,60,0,0
64071,-192.307692307692,4,2,1,15,0,0
69405,-192.307692307692,4,2,1,20,0,0
74738,-138.888888888889,4,2,1,45,0,0
85405,-94.3396226415094,4,2,1,65,0,1
106738,-217.391304347827,4,2,1,40,0,0
115905,-151.515151515152,4,2,1,40,0,0

[Colours]
Combo1 : 155,210,125
Combo2 : 60,168,89
Combo3 : 82,151,36
Combo4 : 173,173,173
Combo5 : 131,131,131
Combo6 : 143,197,157
SliderBorder : 255,204,153

[HitObjects]
442,28,5238,53,0,0:0:0:0:
442,28,5405,2,0,L|436:73,1,34.9599988264161,2|2,0:0|0:0,0:0:0:0:
413,175,5905,1,0,0:0:0:0:
313,105,6238,1,0,0:0:0:0:
221,180,6571,1,0,0:0:0:0:
221,180,6738,2,0,L|213:145,1,34.9599988264161,2|2,0:0|0:0,0:0:0:0:
163,55,7238,2,0,P|197:46|243:49,2,69.9199976528321
64,127,8071,70,0,L|66:178,1,34.9599988264161,2|2,0:0|0:0,0:0:0:0:
27,257,8571,1,0,0:0:0:0:
86,347,8905,1,0,0:0:0:0:
152,249,9238,1,0,0:0:0:0:
152,249,9405,2,0,L|207:252,1,34.9599988264161,2|2,0:0|0:0,0:0:0:0:
284,214,9905,2,0,B|289:254|288:283,2,69.9199976528321,0|0|2,0:0|0:0|0:0,0:0:0:0:
194,138,10738,6,0,L|254:118,1,34.9599988264161,2|2,0:0|0:0,0:0:0:0:
294,52,11238,1,2,0:0:0:0:
399,114,11571,1,0,0:0:0:0:
505,57,11905,1,2,0:0:0:0:
505,57,12071,2,0,L|503:119,1,34.9599988264161,2|2,0:0|0:0,0:0:0:0:
389,209,12571,2,0,P|357:188|309:186,2,69.9199976528321,2|2|2,0:0|0:0|0:0,0:0:0:0:
486,293,13405,70,0,L|431:297,1,34.9599988264161,2|2,0:0|0:0,0:0:0:0:
367,355,13905,1,0,0:0:0:0:
269,307,14238,1,0,0:0:0:0:
169,353,14571,1,0,0:0:0:0:
169,353,14738,2,0,L|166:297,1,34.9599988264161,2|2,0:0|0:0,0:0:0:0:
98,220,15238,2,0,P|59:227|17:233,2,69.9199976528321
192,130,16071,6,0,L|196:174,1,34.9599988264161,2|2,0:0|0:0,0:0:0:0:
249,254,16571,1,0,0:0:0:0:
351,187,16905,1,0,0:0:0:0:
294,88,17238,1,0,0:0:0:0:
294,88,17405,2,0,L|283:121,1,34.9599988264161,2|2,0:0|0:0,0:0:0:0:
344,223,17905,2,0,P|391:229|437:218,2,69.9199976528321,0|0|2,0:0|0:0|0:0,0:0:0:0:
211,221,18738,70,0,L|218:277,1,34.9599988264161,2|2,0:0|0:0,0:0:0:0:
277,334,19238,1,0,0:0:0:0:
365,282,19571,1,0,0:0:0:0:
477,339,19905,1,0,0:0:0:0:
477,339,20071,2,0,L|471:277,1,34.9599988264161,2|2,0:0|0:0,0:0:0:0:
444,200,20571,2,0,P|481:205|511:197,2,69.9199976528321,0|2|0,0:0|0:0|0:0,0:0:0:0:
345,163,21405,6,0,L|343:113,1,34.9599988264161,2|2,0:0|0:0,0:0:0:0:
411,52,21905,1,2,0:0:0:0:
287,20,22238,1,0,0:0:0:0:
225,114,22571,1,2,0:0:0:0:
225,114,22738,2,0,L|175:118,1,34.9599988264161,2|2,0:0|0:0,0:0:0:0:
85,145,23238,2,0,L|72:48,2,69.9199976528321,2|0|0,0:0|0:0|0:0,0:0:0:0:
26,253,24071,70,0,L|72:250,1,34.9599988264161,2|2,0:0|0:0,0:0:0:0:
166,293,24571,1,0,0:0:0:0:
264,221,24905,1,0,0:0:0:0:
193,122,25238,1,0,0:0:0:0:
193,122,25405,2,0,L|158:124,1,34.9599988264161,2|2,0:0|0:0,0:0:0:0:
344,170,25905,2,0,P|343:209|345:240,2,69.9199976528321
351,26,26738,21,0,1:0:0:0:
351,26,27071,2,0,P|389:17|429:14,1,59.2800019899903,10|2,0:0|0:0,0:0:0:0:
485,172,27405,2,0,P|447:163|407:160,1,59.2800019899903,2|2,0:0|0:0,0:0:0:0:
315,168,27738,1,10,0:0:0:0:
315,168,27905,1,2,0:0:0:0:
255,276,28071,6,0,P|296:269|358:317,2,118.560003979981,2|10|2,0:0|0:0|0:0,0:0:0:0:
135,347,28905,1,2,0:0:0:0:
135,347,29071,2,0,P|129:310|117:266,1,59.2800019899903,10|0,0:0|0:0,0:0:0:0:
34,124,29405,69,0,1:0:0:0:
34,124,29738,2,0,P|27:153|24:182,1,59.2800019899903,10|2,0:0|0:0,0:0:0:0:
8,296,30071,2,0,B|71:292|47:248|122:248,1,118.560003979981,2|8,0:0|0:0,0:0:0:0:
213,295,30571,1,2,0:0:0:0:
301,215,30738,6,0,L|285:80,1,118.560003979981,2|10,0:0|0:0,0:0:0:0:
497,141,31405,2,0,L|483:258,1,118.560003979981,2|10,0:0|0:0,0:0:0:0:
416,366,31905,1,2,0:0:0:0:
251,265,32071,69,0,1:0:0:0:
251,265,32405,2,0,L|325:244,1,59.2800019899903,10|2,0:0|0:0,0:0:0:0:
408,135,32738,2,0,L|333:114,1,59.2800019899903,2|0,0:0|0:0,0:0:0:0:
244,167,33071,1,10,0:0:0:0:
244,167,33238,1,2,0:0:0:0:
137,80,33405,6,0,L|129:198,1,118.560003979981,2|10,0:0|0:0,0:0:0:0:
11,286,34071,2,0,L|3:167,1,118.560003979981,2|10,0:0|0:0,0:0:0:0:
157,290,34738,69,0,1:0:0:0:
208,85,35071,1,10,0:0:0:0:
208,85,35238,2,0,P|263:60|323:75,1,118.560003979981,2|2,0:0|0:0,0:0:0:0:
395,138,35738,1,10,0:0:0:0:
456,28,36071,1,2,0:0:0:0:
256,192,36238,12,0,37071,0:0:0:0:
307,261,37405,37,6,1:2:0:0:
474,207,37571,1,2,0:0:0:0:
421,346,37738,1,10,0:0:0:0:
488,189,37905,1,2,1:2:0:0:
269,321,38071,2,0,P|266:261|260:222,1,80.5600001229248,2|0,0:0|0:0,0:0:0:0:
402,158,38405,2,0,P|397:198|396:238,1,80.5600001229248,10|0,0:0|0:0,0:0:0:0:
317,65,38738,70,0,B|217:69|267:8|161:9,1,161.12000024585,0|8,1:0|0:0,0:0:0:0:
27,20,39238,1,0,1:0:0:0:
167,170,39405,2,0,P|163:131|161:89,1,80.5600001229248,2|0,0:0|0:0,0:0:0:0:
0,149,39738,2,0,P|4:188|5:229,1,80.5600001229248,10|0,0:0|0:0,0:0:0:0:
134,253,40071,5,2,1:2:0:0:
244,148,40238,1,2,0:0:0:0:
315,295,40405,1,10,0:0:0:0:
253,130,40571,1,2,1:2:0:0:
169,325,40738,2,0,P|166:283|161:244,1,80.5600001229248,2|0,0:0|0:0,0:0:0:0:
372,201,41071,2,0,P|367:241|365:282,1,80.5600001229248,10|0,0:0|0:0,0:0:0:0:
498,112,41405,70,0,P|438:106|339:91,1,161.12000024585,0|8,1:0|0:0,0:0:0:0:
243,27,41905,1,2,1:2:0:0:
192,181,42071,2,0,P|148:190|105:179,1,80.5600001229248,2|0,0:0|0:0,0:0:0:0:
261,2,42405,2,0,P|305:-6|348:4,1,80.5600001229248,10|0,0:0|0:0,0:0:0:0:
196,206,42738,5,2,1:2:0:0:
120,11,42905,1,2,0:0:0:0:
25,149,43071,1,8,0:0:0:0:
207,98,43238,2,0,P|243:111|284:119,1,80.5600001229248,2|0,1:2|0:0,0:0:0:0:
360,212,43571,2,0,P|398:198|437:190,1,80.5600001229248,2|8,0:0|0:0,0:0:0:0:
506,56,43905,1,2,0:0:0:0:
506,56,44071,70,0,P|486:12|386:36,1,161.12000024585,0|8,1:0|0:0,0:0:0:0:
332,165,44571,2,0,P|337:208|338:245,1,80.5600001229248,2|0,1:2|0:0,0:0:0:0:
314,350,44905,1,10,0:0:0:0:
501,281,45071,2,0,P|503:241|507:201,1,80.5600001229248,10|0,0:0|0:0,0:0:0:0:
266,211,45405,5,2,1:2:0:0:
339,351,45571,1,2,0:0:0:0:
423,201,45738,1,8,0:0:0:0:
221,318,45905,2,0,P|224:271|233:215,1,80.5600001229248,2|0,1:2|0:0,0:0:0:0:
46,261,46238,2,0,P|43:216|34:158,1,80.5600001229248,2|10,0:0|0:0,0:0:0:0:
51,37,46571,1,2,0:0:0:0:
51,37,46738,70,0,P|103:80|194:72,1,161.12000024585,0|8,1:0|0:0,0:0:0:0:
328,23,47238,1,2,1:2:0:0:
389,113,47405,1,0,0:0:0:0:
322,208,47571,1,10,0:0:0:0:
394,299,47738,2,0,P|397:252|404:208,1,80.5600001229248,8|8,0:0|0:0,0:0:0:0:
467,23,48071,5,6,1:2:0:0:
279,124,48238,1,2,0:0:0:0:
481,54,48405,1,10,0:0:0:0:
281,7,48571,1,2,1:2:0:0:
425,179,48738,2,0,P|413:134|406:83,1,80.5600001229248,2|0,0:0|0:0,0:0:0:0:
229,167,49071,2,0,P|239:125|244:87,1,80.5600001229248,10|0,0:0|0:0,0:0:0:0:
74,17,49405,69,0,1:0:0:0:
127,92,49571,1,0,0:0:0:0:
80,173,49738,1,8,0:0:0:0:
125,258,49905,1,0,1:0:0:0:
23,262,50071,2,0,P|32:301|39:341,1,80.5600001229248,2|0,0:0|0:0,0:0:0:0:
229,167,50405,2,0,P|220:206|214:246,1,80.5600001229248,10|0,0:0|0:0,0:0:0:0:
407,248,50738,5,2,1:2:0:0:
244,338,50905,1,2,0:0:0:0:
399,339,51071,1,10,0:0:0:0:
301,186,51238,1,2,1:2:0:0:
320,283,51405,2,0,P|328:237|335:186,1,80.5600001229248,2|0,0:0|0:0,0:0:0:0:
471,169,51738,2,0,P|476:209|483:248,1,80.5600001229248,10|0,0:0|0:0,0:0:0:0:
485,43,52071,69,0,1:0:0:0:
451,134,52238,1,0,0:0:0:0:
348,159,52405,1,8,0:0:0:0:
272,95,52571,1,2,1:2:0:0:
287,4,52738,2,0,P|245:3|190:-2,1,80.5600001229248,2|0,0:0|0:0,0:0:0:0:
292,190,53071,2,0,P|331:185|375:185,1,80.5600001229248,10|0,0:0|0:0,0:0:0:0:
80,146,53405,5,2,1:2:0:0:
252,93,53571,1,2,0:0:0:0:
153,255,53738,1,8,0:0:0:0:
270,72,53905,2,0,P|272:112|276:152,1,80.5600001229248,2|0,1:2|0:0,0:0:0:0:
44,140,54238,2,0,P|48:97|51:50,1,80.5600001229248,2|8,0:0|0:0,0:0:0:0:
231,219,54571,1,2,0:0:0:0:
73,309,54738,70,0,P|65:266|55:231,1,80.5600001229248,0|0,1:0|0:0,0:0:0:0:
147,163,55071,1,10,0:0:0:0:
227,321,55238,2,0,P|235:278|245:243,1,80.5600001229248,2|0,1:2|0:0,0:0:0:0:
313,150,55571,1,10,0:0:0:0:
466,314,55738,2,0,P|455:269|450:236,1,80.5600001229248,8|2,0:0|0:0,0:0:0:0:
430,119,56071,5,2,1:2:0:0:
339,262,56238,1,2,0:0:0:0:
461,140,56405,1,8,0:0:0:0:
281,153,56571,2,0,P|225:144|201:122,1,80.5600001229248,2|0,1:2|0:0,0:0:0:0:
37,98,56905,2,0,P|93:89|117:67,1,80.5600001229248,2|10,0:0|0:0,0:0:0:0:
183,0,57238,1,2,0:0:0:0:
131,200,57405,69,0,1:0:0:0:
261,52,57571,1,0,0:0:0:0:
233,228,57738,1,8,0:0:0:0:
122,67,57905,1,2,1:2:0:0:
261,145,58071,6,0,P|300:142|345:127,1,80.5600001229248,0|10,0:0|0:0,0:0:0:0:
430,34,58405,1,8,0:0:0:0:
430,34,58571,1,8,0:0:0:0:
443,179,58738,21,0,0:0:0:0:
394,339,64071,85,2,0:0:0:0:
394,339,64238,1,2,0:0:0:0:
480,251,64405,1,2,0:0:0:0:
480,251,64571,1,2,0:0:0:0:
332,250,64738,2,0,L|350:205,1,39.5199997587891,2|0,0:0|0:0,0:0:0:0:
433,148,65071,2,0,L|415:103,1,39.5199997587891,2|2,0:0|0:0,0:0:0:0:
362,20,65405,70,0,L|409:21,2,39.5199997587891,2|2|2,0:0|0:0|0:0,0:0:0:0:
224,0,65905,1,2,0:0:0:0:
224,0,66071,1,2,0:0:0:0:
270,119,66405,1,2,0:0:0:0:
53,21,66738,5,2,0:0:0:0:
53,21,66905,1,2,0:0:0:0:
132,97,67071,1,2,0:0:0:0:
132,97,67238,1,2,0:0:0:0:
20,155,67405,2,0,L|41:204,1,39.5199997587891,2|0,0:0|0:0,0:0:0:0:
135,234,67738,2,0,L|114:283,1,39.5199997587891,2|2,0:0|0:0,0:0:0:0:
78,358,68071,2,0,P|46:344|-2:353,2,79.0399995175781,2|2|2,0:0|0:0|0:0,0:0:0:0:
171,279,69071,1,0,0:0:0:0:
267,373,69405,69,2,1:2:0:0:
267,373,69571,1,2,0:0:0:0:
325,287,69738,1,2,0:0:0:0:
325,287,69905,1,2,1:2:0:0:
241,217,70071,2,0,L|233:164,1,39.5199997587891,2|0,0:0|0:0,0:0:0:0:
359,104,70405,2,0,L|353:143,1,39.5199997587891,2|2,0:0|0:0,0:0:0:0:
257,44,70738,6,0,L|251:5,2,39.5199997587891,2|2|0,1:2|0:0|0:0,0:0:0:0:
148,94,71238,1,2,1:2:0:0:
148,94,71405,1,2,0:0:0:0:
238,165,71738,1,2,0:0:0:0:
337,54,72071,69,2,1:2:0:0:
337,54,72238,1,2,0:0:0:0:
437,128,72405,1,2,0:0:0:0:
437,128,72571,1,2,1:2:0:0:
285,188,72738,2,0,L|314:142,1,39.5199997587891,2|0,0:0|0:0,0:0:0:0:
423,268,73071,2,0,L|394:222,1,39.5199997587891,2|2,0:0|0:0,0:0:0:0:
334,358,73405,2,0,P|375:369|421:358,2,79.0399995175781,2|2|2,1:2|0:0|0:0,0:0:0:0:
223,312,74405,1,2,0:0:0:0:
4,267,74738,37,2,1:2:0:0:
50,350,74905,1,2,0:0:0:0:
166,200,75071,1,10,0:0:0:0:
136,290,75238,1,2,1:2:0:0:
16,163,75405,2,0,L|88:172,1,54.7200013359375,2|0,0:0|0:0,0:0:0:0:
219,69,75738,2,0,L|147:78,1,54.7200013359375,10|2,0:0|0:0,0:0:0:0:
161,213,76071,69,2,1:2:0:0:
125,107,76238,1,2,0:0:0:0:
281,161,76405,1,10,0:0:0:0:
310,53,76571,1,2,1:2:0:0:
402,147,76738,2,0,L|475:137,1,54.7200013359375,2|0,0:0|0:0,0:0:0:0:
454,288,77071,2,0,L|381:278,1,54.7200013359375,10|0,0:0|0:0,0:0:0:0:
264,333,77405,5,2,1:2:0:0:
362,274,77571,1,2,0:0:0:0:
176,220,77738,1,10,0:0:0:0:
288,206,77905,1,2,1:2:0:0:
113,328,78071,2,0,L|104:265,1,54.7200013359375,2|0,0:0|0:0,0:0:0:0:
208,158,78405,2,0,L|200:212,1,54.7200013359375,10|2,0:0|0:0,0:0:0:0:
237,344,78738,70,0,L|261:291,1,54.7200013359375,2|0,1:2|0:0,0:0:0:0:
369,193,79071,2,0,L|391:242,1,54.7200013359375,10|0,0:0|1:2,0:0:0:0:
169,224,79405,1,2,0:0:0:0:
376,87,79738,1,10,0:0:0:0:
216,112,80071,5,2,1:2:0:0:
246,203,80238,1,2,0:0:0:0:
122,45,80405,1,10,0:0:0:0:
68,129,80571,1,2,1:2:0:0:
273,35,80738,2,0,L|213:20,1,54.7200013359375,2|0,0:0|0:0,0:0:0:0:
159,203,81071,2,0,L|219:188,1,54.7200013359375,10|2,0:0|0:0,0:0:0:0:
331,174,81405,69,2,1:2:0:0:
349,61,81571,1,2,0:0:0:0:
512,121,81738,1,10,0:0:0:0:
450,24,81905,1,2,1:2:0:0:
416,176,82071,2,0,P|377:149|309:148,1,109.440002671875,2|10,0:0|0:0,0:0:0:0:
79,189,82738,5,2,1:2:0:0:
117,85,82905,1,2,0:0:0:0:
255,216,83071,1,10,0:0:0:0:
222,109,83238,1,2,1:2:0:0:
182,266,83405,2,0,B|239:234|308:266,1,109.440002671875,2|10,0:0|0:0,0:0:0:0:
398,318,84071,1,0,0:0:0:0:
256,192,84238,12,0,85071,0:0:0:0:
84,328,85405,21,6,1:2:0:0:
163,183,85571,1,2,0:0:0:0:
229,307,85738,1,10,0:0:0:0:
155,163,85905,1,2,1:2:0:0:
28,260,86071,2,0,P|33:222|37:171,1,80.5600001229248,2|0,0:0|0:0,0:0:0:0:
257,140,86405,2,0,P|260:176|266:222,1,80.5600001229248,10|0,0:0|0:0,0:0:0:0:
164,351,86738,70,0,P|217:316|319:344,1,161.12000024585,0|8,1:0|0:0,0:0:0:0:
409,384,87238,1,2,1:2:0:0:
512,239,87405,2,0,P|504:276|497:330,1,80.5600001229248,2|0,0:0|0:0,0:0:0:0:
339,196,87738,2,0,P|347:233|354:287,1,80.5600001229248,10|0,0:0|0:0,0:0:0:0:
379,86,88071,5,2,1:2:0:0:
186,170,88238,1,2,0:0:0:0:
405,105,88405,1,10,0:0:0:0:
215,54,88571,1,2,1:2:0:0:
267,226,88738,2,0,P|269:182|274:139,1,80.5600001229248,2|0,0:0|0:0,0:0:0:0:
98,278,89071,2,0,P|96:238|91:191,1,80.5600001229248,10|0,0:0|0:0,0:0:0:0:
30,75,89405,70,0,P|90:96|176:48,1,161.12000024585,2|8,1:2|0:0,0:0:0:0:
322,0,89905,1,2,1:2:0:0:
243,179,90071,2,0,P|250:132|255:78,1,80.5600001229248,2|2,0:0|0:0,0:0:0:0:
410,130,90405,2,0,P|413:170|420:209,1,80.5600001229248,10|2,0:0|0:0,0:0:0:0:
301,301,90738,6,0,B|243:295|243:295|192:317|192:317|136:313,1,161.12000024585,2|8,1:2|0:0,0:0:0:0:
9,355,91238,2,0,P|5:310|-3:256,1,80.5600001229248,2|0,1:2|0:0,0:0:0:0:
154,233,91571,2,0,P|148:273|144:312,1,80.5600001229248,2|8,0:0|0:0,0:0:0:0:
0,118,91905,1,2,0:0:0:0:
0,118,92071,70,0,B|58:112|58:112|109:134|109:134|165:130,1,161.12000024585,0|8,1:2|0:0,0:0:0:0:
311,256,92571,2,0,P|313:214|318:176,1,80.5600001229248,2|2,1:2|0:0,0:0:0:0:
336,59,92905,1,10,0:0:0:0:
156,130,93071,2,0,P|160:166|163:211,1,80.5600001229248,10|2,0:0|0:0,0:0:0:0:
260,26,93405,6,0,P|292:71|407:42,1,161.12000024585,2|8,1:2|0:0,0:0:0:0:
505,15,93905,2,0,P|505:55|511:113,1,80.5600001229248,2|0,1:2|0:0,0:0:0:0:
297,175,94238,2,0,P|303:134|305:77,1,80.5600001229248,2|10,0:0|0:0,0:0:0:0:
442,218,94571,1,2,0:0:0:0:
442,218,94738,70,0,L|428:43,1,161.12000024585,2|8,1:2|0:0,0:0:0:0:
340,7,95238,1,2,1:2:0:0:
270,79,95405,1,2,0:0:0:0:
318,166,95571,1,10,0:0:0:0:
241,230,95738,2,0,P|233:185|228:133,1,80.5600001229248,8|10,0:0|0:0,0:0:0:0:
32,92,96071,5,6,1:2:0:0:
211,116,96238,1,2,0:0:0:0:
55,238,96405,1,10,0:0:0:0:
200,94,96571,1,2,1:2:0:0:
5,161,96738,2,0,P|4:125|1:79,1,80.5600001229248,2|0,0:0|0:0,0:0:0:0:
156,167,97071,2,0,P|156:201|162:268,1,80.5600001229248,10|0,0:0|0:0,0:0:0:0:
17,382,97405,69,0,1:0:0:0:
63,306,97571,1,0,0:0:0:0:
150,271,97738,1,8,0:0:0:0:
242,301,97905,1,0,1:0:0:0:
310,369,98071,2,0,P|318:330|325:280,1,80.5600001229248,2|0,0:0|0:0,0:0:0:0:
488,189,98405,2,0,P|492:223|502:284,1,80.5600001229248,10|0,0:0|0:0,0:0:0:0:
263,166,98738,5,2,1:2:0:0:
439,81,98905,1,2,0:0:0:0:
408,261,99071,1,10,0:0:0:0:
408,79,99238,1,2,1:2:0:0:
295,200,99405,2,0,P|260:186|218:176,1,80.5600001229248,2|0,0:0|0:0,0:0:0:0:
123,80,99738,2,0,P|154:73|200:56,1,80.5600001229248,10|0,0:0|0:0,0:0:0:0:
5,115,100071,69,2,1:2:0:0:
78,184,100238,1,2,0:0:0:0:
17,263,100405,1,8,0:0:0:0:
79,344,100571,1,2,1:2:0:0:
154,244,100738,2,0,P|201:240|244:216,1,80.5600001229248,2|0,0:0|0:0,0:0:0:0:
337,130,101071,2,0,P|290:126|247:102,1,80.5600001229248,10|0,0:0|0:0,0:0:0:0:
214,10,101405,5,2,1:2:0:0:
95,108,101571,1,2,0:0:0:0:
235,0,101738,1,8,0:0:0:0:
221,184,101905,2,0,P|215:142|206:98,1,80.5600001229248,2|0,1:2|0:0,0:0:0:0:
377,250,102238,2,0,P|381:214|392:164,1,80.5600001229248,2|8,0:0|0:0,0:0:0:0:
330,9,102571,1,2,0:0:0:0:
244,139,102738,70,0,P|239:95|233:59,1,80.5600001229248,0|0,1:2|0:0,0:0:0:0:
439,63,103071,1,10,0:0:0:0:
498,237,103238,2,0,P|502:192|510:149,1,80.5600001229248,2|2,1:2|0:0,0:0:0:0:
372,132,103571,1,10,0:0:0:0:
292,286,103738,2,0,P|288:243|281:204,1,80.5600001229248,10|2,0:0|0:0,0:0:0:0:
397,271,104071,5,2,1:2:0:0:
280,384,104238,1,2,0:0:0:0:
420,284,104405,1,8,0:0:0:0:
217,304,104571,2,0,P|161:295|137:273,1,80.5600001229248,2|0,1:2|0:0,0:0:0:0:
23,197,104905,2,0,P|79:188|103:166,1,80.5600001229248,2|10,0:0|0:0,0:0:0:0:
237,67,105238,1,2,0:0:0:0:
33,110,105405,69,0,1:0:0:0:
208,199,105571,1,0,0:0:0:0:
134,10,105738,2,0,P|129:46|120:89,1,80.5600001229248,8|2,0:0|1:2,0:0:0:0:
314,114,106071,2,0,P|305:76|300:34,1,80.5600001229248,2|10,0:0|0:0,0:0:0:0:
194,207,106405,1,10,0:0:0:0:
194,207,106571,1,10,0:0:0:0:
330,280,106738,38,0,P|322:259|319:240,1,34.9599988264161,2|2,1:2|0:0,0:0:0:0:
446,223,107071,1,8,0:0:0:0:
446,223,107238,2,0,P|453:205|457:183,1,34.9599988264161,2|0,1:2|0:0,0:0:0:0:
298,73,107571,2,0,P|301:90|307:106,1,34.9599988264161,2|8,1:2|0:0,0:0:0:0:
362,168,107905,1,2,0:0:0:0:
400,22,108071,70,0,P|420:23|446:20,2,34.9599988264161,0|0|10,1:2|0:0|0:0,0:0:0:0:
226,20,108571,2,0,P|222:39|219:62,1,34.9599988264161,2|0,1:2|0:0,0:0:0:0:
122,116,108905,1,2,1:2:0:0:
122,116,109071,2,0,P|126:135|129:158,1,34.9599988264161,10|2,0:0|0:0,0:0:0:0:
204,237,109405,6,0,L|244:240,2,34.9599988264161,2|2|8,1:2|0:0|0:0,0:0:0:0:
46,232,109905,2,0,L|37:199,1,34.9599988264161,2|0,1:2|0:0,0:0:0:0:
111,338,110238,2,0,L|120:304,1,34.9599988264161,2|10,0:0|0:0,0:0:0:0:
180,206,110571,1,2,0:0:0:0:
180,206,110738,70,0,L|230:212,1,34.9599988264161,0|0,1:0|0:0,0:0:0:0:
278,323,111071,1,8,0:0:0:0:
278,323,111238,2,0,L|228:329,1,34.9599988264161,2|10,1:2|0:0,0:0:0:0:
325,193,111571,1,0,0:0:0:0:
325,193,111738,2,0,L|335:231,1,34.9599988264161,10|0,0:0|0:0,0:0:0:0:
400,348,112071,6,0,P|412:329|425:313,1,34.9599988264161,2|2,1:2|0:0,0:0:0:0:
498,253,112405,1,8,0:0:0:0:
498,253,112571,2,0,P|486:234|473:218,1,34.9599988264161,2|0,1:2|0:0,0:0:0:0:
403,120,112905,2,0,P|392:133|383:148,1,34.9599988264161,2|8,1:2|0:0,0:0:0:0:
346,222,113238,1,2,0:0:0:0:
290,79,113405,70,0,P|302:56|307:34,2,34.9599988264161,0|0|10,1:2|0:0|0:0,0:0:0:0:
227,194,113905,2,0,P|215:165|205:150,1,34.9599988264161,2|0,1:2|0:0,0:0:0:0:
131,93,114238,1,0,1:2:0:0:
131,93,114405,2,0,P|143:64|153:49,1,34.9599988264161,8|2,0:0|0:0,0:0:0:0:
45,194,114738,6,0,L|32:153,2,34.9599988264161,2|2|8,1:2|0:0|0:0,0:0:0:0:
171,246,115238,2,0,L|137:257,1,34.9599988264161,2|0,1:2|0:0,0:0:0:0:
57,338,115571,2,0,L|90:349,1,34.9599988264161,2|10,0:0|0:0,0:0:0:0:
266,294,115905,38,0,B|288:199|208:195|220:147|282:126|305:180|265:216,1,200.639999387695,2|2,0:0|0:0,0:0:0:0:
