osu file format v14

[General]
AudioFilename: audio.mp3
AudioLeadIn: 0
PreviewTime: 84409
Countdown: 0
SampleSet: Soft
StackLeniency: 0.7
Mode: 0
LetterboxInBreaks: 0
EpilepsyWarning: 1
WidescreenStoryboard: 1

[Editor]
Bookmarks: 2655,96075
DistanceSpacing: 1
BeatDivisor: 4
GridSize: 8
TimelineZoom: 1

[Metadata]
Title:Stitches (Sped Up Ver.)
TitleUnicode:Stitches (Sped Up Ver.)
Artist:Shawn Mendes
ArtistUnicode:Shawn Mendes
Creator:Hantrik
Version:Collab Normal
Source:
Tags:handwritten english pop male vocals nekroman4ik -tynamo speed cut
BeatmapID:2061722
BeatmapSetID:985295

[Difficulty]
HPDrainRate:3
CircleSize:3.2
OverallDifficulty:4
ApproachRate:5.5
SliderMultiplier:1
SliderTickRate:1

[Events]
//Background and Video events
0,0,"BG.jpg",0,0
//Break Periods
2,58938,62738
//Storyboard Layer 0 (Background)
Sprite,Background,Centre,"sb\glow.png",0,0 C,0,115909,,111,202,49 M,0,115909,115950,462,78,449.9013,74.86119 F,2,115909,116775,1,0 S,2,115909,116775,1,0.2 P,0,115909,116775,A M,0,115950,115992,449.9013,74.86119,437.6815,72.23649 M,0,115992,116034,437.6815,72.23649,425.3358,70.2936 M,0,116034,116075,425.3358,70.2936,412.88,69.29743 M,0,116075,116117,412.88,69.29743,400.3927,69.61388 M,0,116117,116159,400.3927,69.61388,388.0913,71.74374 M,0,116159,116200,388.0913,71.74374,376.4049,76.12032 M,0,116200,116242,376.4049,76.12032,365.7126,82.56855 M,0,116242,116284,365.7126,82.56855,355.7611,90.13048 M,0,116284,116325,355.7611,90.13048,345.6929,97.53288 M,0,116325,116367,345.6929,97.53288,334.7869,103.6111 M,0,116367,116409,334.7869,103.6111,322.9834,107.672 M,0,116409,116450,322.9834,107.672,310.6672,109.7356 M,0,116450,116492,310.6672,109.7356,298.1822,110.1892 M,0,116492,116534,298.1822,110.1892,285.707,109.4634 M,0,116534,116575,285.707,109.4634,273.3133,107.8522
//Storyboard Layer 1 (Fail)
//Storyboard Layer 2 (Pass)
//Storyboard Layer 3 (Foreground)
//Storyboard Sound Samples

[TimingPoints]
72,333.333333333333,4,2,1,20,1,0
5405,-100,4,2,1,20,0,0
26738,-100,4,2,1,40,0,0
37405,-100,4,2,1,60,0,1
58738,-100,4,2,1,60,0,0
64071,-100,4,2,1,20,0,0
69405,-100,4,2,1,25,0,0
74738,-100,4,2,1,45,0,0
85405,-100,4,2,1,65,0,1
106738,-100,4,2,1,40,0,0
115905,-100,4,2,1,40,0,0

[Colours]
Combo1 : 153,210,125
Combo2 : 94,198,122
Combo3 : 111,202,49
Combo4 : 173,173,173
Combo5 : 131,131,131
Combo6 : 143,197,155
SliderBorder : 255,204,153

[HitObjects]
357,226,5405,53,2,0:0:0:0:
444,273,5738,2,0,L|454:372,2,100,2|2|2,0:0|0:0|0:0,0:0:0:0:
357,226,6738,2,0,L|367:127,2,100,2|2|2,0:0|0:0|0:0,0:0:0:0:
287,298,7738,1,2,0:0:0:0:
287,298,7905,70,0,B|226:281|254:259|193:238,1,100,2|2,0:0|0:0,0:0:0:0:
120,190,8571,1,0,0:0:0:0:
99,91,8905,1,0,0:0:0:0:
177,28,9238,1,0,0:0:0:0:
177,28,9405,2,0,P|231:31|268:76,1,100,2|0,0:0|0:0,0:0:0:0:
280,101,9905,2,0,L|299:213,1,100
357,281,10571,6,0,P|410:285|460:255,1,100,2|2,0:0|0:0,0:0:0:0:
391,183,11238,2,0,P|338:179|288:209,1,100,2|0,0:0|0:0,0:0:0:0:
221,265,11905,2,0,L|236:377,2,100,2|2|2,0:0|0:0|0:0,0:0:0:0:
264,174,12905,1,2,0:0:0:0:
223,82,13238,70,0,P|182:54|122:60,1,100,2|2,0:0|0:0,0:0:0:0:
46,104,13905,2,0,L|29:6,2,100
79,141,14738,2,0,L|100:207,1,50,2|2,0:0|0:0,0:0:0:0:
184,232,15238,2,0,P|132:242|94:273,2,100
234,229,16071,6,0,P|260:248|296:257,1,50,2|2,0:0|0:0,0:0:0:0:
322,274,16405,2,0,L|330:388,2,100,2|2|2,0:0|0:0|0:0,0:0:0:0:
399,210,17405,2,0,L|406:110,2,100,2|2|2,0:0|0:0|0:0,0:0:0:0:
323,272,18405,1,2,0:0:0:0:
323,272,18571,70,0,P|281:253|247:199,1,100,2|2,0:0|0:0,0:0:0:0:
224,113,19238,2,0,P|167:101|113:121,1,100
37,156,19905,1,0,0:0:0:0:
37,156,20071,2,0,L|51:263,1,100,2|0,0:0|0:0,0:0:0:0:
30,301,20571,2,0,P|70:286|130:291,1,100,0|2,0:0|0:0,0:0:0:0:
221,320,21238,5,2,0:0:0:0:
244,222,21571,1,2,0:0:0:0:
344,218,21905,2,0,L|335:108,1,100,2|0,0:0|0:0,0:0:0:0:
262,44,22571,1,2,0:0:0:0:
170,83,22905,1,2,0:0:0:0:
85,30,23238,2,0,L|90:145,1,100,2|0,0:0|0:0,0:0:0:0:
101,229,23905,70,0,P|55:238|3:232,2,100,2|2|0,0:0|0:0|0:0,0:0:0:0:
192,187,24905,2,0,L|208:294,1,100
188,332,25405,2,0,L|124:328,1,50,2|2,0:0|0:0,0:0:0:0:
48,284,25905,2,0,L|57:387,2,100
76,242,26738,21,0,1:0:0:0:
43,147,27071,1,10,0:0:0:0:
100,64,27405,2,0,P|151:84|183:134,1,100,2|10,0:0|0:0,0:0:0:0:
225,206,28071,1,2,0:0:0:0:
316,166,28405,1,10,0:0:0:0:
403,215,28738,2,0,L|381:312,1,100,2|10,0:0|0:0,0:0:0:0:
303,377,29405,5,0,1:0:0:0:
250,292,29738,1,10,0:0:0:0:
164,344,30071,2,0,P|99:331|73:307,1,100,2|10,0:0|0:0,0:0:0:0:
53,211,30738,1,2,0:0:0:0:
117,135,31071,1,2,0:0:0:0:
72,44,31405,2,0,P|127:40|163:14,1,100,2|10,0:0|0:0,0:0:0:0:
227,90,32071,70,0,B|286:110|272:79|329:93,1,100,0|10,1:0|0:0,0:0:0:0:
411,141,32738,1,2,0:0:0:0:
499,94,33071,1,10,0:0:0:0:
459,1,33405,2,0,L|343:14,1,100,2|10,0:0|0:0,0:0:0:0:
271,58,34071,1,2,0:0:0:0:
182,11,34405,1,10,0:0:0:0:
99,67,34738,5,0,1:0:0:0:
136,159,35071,2,0,B|257:201|203:117|332:150,1,200,10|10,0:0|0:0,0:0:0:0:
90,360,37405,6,0,L|101:290,1,50,2|2,1:2|0:0,0:0:0:0:
80,263,37738,2,0,L|69:193,1,50,10|2,0:0|1:2,0:0:0:0:
103,174,38071,2,0,P|57:170|5:155,2,100,2|10|0,0:0|0:0|1:0,0:0:0:0:
202,161,39071,2,0,L|268:164,1,50,8|0,0:0|1:0,0:0:0:0:
299,179,39405,2,0,P|343:175|381:120,1,100,2|10,0:0|0:0,0:0:0:0:
459,77,40071,6,0,L|471:135,1,50,2|2,1:2|0:0,0:0:0:0:
502,164,40405,2,0,L|490:222,1,50,10|2,0:0|1:2,0:0:0:0:
497,262,40738,2,0,P|463:253|391:268,1,100,2|10,0:0|0:0,0:0:0:0:
330,335,41405,70,0,B|296:353|296:353|231:351,1,100,0|8,1:0|0:0,0:0:0:0:
184,351,41905,1,2,1:2:0:0:
184,351,42071,2,0,P|126:339|97:298,1,100,2|10,0:0|0:0,0:0:0:0:
81,211,42738,6,0,L|93:98,1,100,2|8,1:2|0:0,0:0:0:0:
126,75,43238,2,0,L|192:63,1,50,2|0,1:2|0:0,0:0:0:0:
220,86,43571,1,2,1:2:0:0:
312,47,43905,1,2,0:0:0:0:
312,47,44071,2,0,B|334:112|304:99|324:160,1,100,0|10,1:0|0:0,0:0:0:0:
335,193,44571,2,0,P|292:205|236:258,1,100,2|10,1:2|0:0,0:0:0:0:
229,284,45071,1,8,0:0:0:0:
131,259,45405,69,2,1:2:0:0:
131,259,45571,2,0,L|113:188,1,50,2|8,0:0|0:0,0:0:0:0:
94,166,45905,2,0,B|96:98|96:98|127:69,1,100,2|2,1:2|1:2,0:0:0:0:
193,9,46571,1,2,0:0:0:0:
193,9,46738,2,0,P|241:-7|292:6,1,100,0|8,1:0|0:0,0:0:0:0:
334,23,47238,1,2,1:2:0:0:
334,23,47405,2,0,L|440:27,1,100,0|8,0:0|0:0,0:0:0:0:
483,113,48071,6,0,L|494:176,1,50,2|2,1:2|0:0,0:0:0:0:
458,200,48405,2,0,L|452:249,1,50,10|2,0:0|1:2,0:0:0:0:
416,285,48738,2,0,P|462:285|524:312,2,100,2|10|0,0:0|0:0|1:0,0:0:0:0:
316,295,49738,2,0,P|276:314|258:332,1,50,8|0,0:0|1:0,0:0:0:0:
235,351,50071,2,0,L|130:356,1,100,2|10,0:0|0:0,0:0:0:0:
45,310,50738,70,0,L|55:237,1,50,2|2,1:2|0:0,0:0:0:0:
85,223,51071,2,0,L|75:150,1,50,10|2,0:0|1:2,0:0:0:0:
57,127,51405,2,0,P|117:124|171:146,1,100,2|10,0:0|0:0,0:0:0:0:
250,166,52071,6,0,L|263:60,1,100,0|8,1:0|0:0,0:0:0:0:
289,24,52571,1,2,0:0:0:0:
289,24,52738,2,0,P|333:38|393:19,1,100,2|10,0:0|0:0,0:0:0:0:
452,89,53405,70,0,L|466:197,1,100,2|8,1:2|0:0,0:0:0:0:
487,233,53905,2,0,L|432:259,1,50,2|0,1:2|0:0,0:0:0:0:
405,289,54238,1,2,1:2:0:0:
310,255,54571,1,2,0:0:0:0:
310,255,54738,2,0,P|265:247|204:285,1,100,0|10,1:0|0:0,0:0:0:0:
192,312,55238,2,0,L|78:286,1,100,2|10,1:2|0:0,0:0:0:0:
45,298,55738,1,8,0:0:0:0:
72,202,56071,6,0,P|129:178|156:134,1,100,2|8,1:2|0:0,0:0:0:0:
194,124,56571,2,0,L|253:124,1,50,2|0,1:2|0:0,0:0:0:0:
287,149,56905,1,2,1:2:0:0:
345,67,57238,1,2,0:0:0:0:
345,67,57405,2,0,P|385:53|441:71,1,100,0|8,1:0|0:0,0:0:0:0:
473,105,57905,2,0,L|470:218,1,100,0|2,1:2|0:0,0:0:0:0:
450,251,58405,1,8,0:0:0:0:
491,341,58738,21,0,0:0:0:0:
99,283,64071,86,0,L|-1:274,2,100,2|2|2,0:0|0:0|0:0,0:0:0:0:
183,229,65071,1,2,0:0:0:0:
267,175,65405,2,0,L|367:166,2,100,2|2|2,0:0|0:0|0:0,0:0:0:0:
183,229,66405,1,2,0:0:0:0:
94,182,66738,70,0,P|87:132|87:82,2,100,2|2|2,0:0|0:0|0:0,0:0:0:0:
183,229,67738,1,2,0:0:0:0:
271,269,68071,2,0,P|271:318|264:368,2,100,2|2|2,0:0|0:0|0:0,0:0:0:0:
329,77,69405,6,0,P|374:58|424:63,1,100,2|0,1:2|0:0,0:0:0:0:
459,97,69905,1,2,1:2:0:0:
459,97,70071,2,0,P|440:142|445:192,1,100,2|2,0:0|0:0,0:0:0:0:
398,280,70738,2,0,L|298:271,1,100,2|0,1:2|0:0,0:0:0:0:
258,301,71238,1,2,1:2:0:0:
258,301,71405,2,0,L|158:310,1,100,2|2,0:0|0:0,0:0:0:0:
67,270,72071,70,0,B|55:218|55:218|65:171,1,100,2|0,1:2|0:0,0:0:0:0:
86,127,72571,1,2,1:2:0:0:
86,127,72738,2,0,B|136:115|136:115|182:124,1,100,2|2,0:0|0:0,0:0:0:0:
242,205,73405,2,0,L|233:305,1,100,2|2,1:2|0:0,0:0:0:0:
263,344,73905,1,2,1:2:0:0:
263,344,74071,2,0,P|308:359|358:350,1,100,2|2,0:0|0:0,0:0:0:0:
421,272,74738,22,0,L|430:172,1,100,2|10,1:2|0:0,0:0:0:0:
415,124,75238,1,2,1:2:0:0:
415,124,75404,2,0,P|370:107|320:114,1,100,2|10,0:0|0:0,0:0:0:0:
231,161,76071,2,0,L|181:156,1,50,2|2,1:2|0:0,0:0:0:0:
150,116,76405,2,0,L|100:120,1,50,10|2,0:0|1:2,0:0:0:0:
58,148,76738,2,0,B|70:201|70:201|58:261,1,100,2|10,0:0|0:0,0:0:0:0:
91,341,77405,6,0,L|140:345,1,50,2|2,1:2|0:0,0:0:0:0:
177,379,77739,2,0,L|226:374,1,50,10|2,0:0|1:2,0:0:0:0:
264,341,78071,2,0,P|311:326|360:333,1,100,2|10,0:0|0:0,0:0:0:0:
454,367,78738,2,0,L|463:267,1,100,2|10,1:2|0:0,0:0:0:0:
434,171,79405,2,0,L|425:71,1,100,2|10,0:0|0:0,0:0:0:0:
336,24,80071,70,0,B|283:12|283:12|223:24,1,100,2|10,1:2|0:0,0:0:0:0:
209,61,80571,1,2,1:2:0:0:
209,61,80738,2,0,B|156:73|156:73|96:61,1,100,2|10,0:0|0:0,0:0:0:0:
11,65,81405,2,0,P|16:90|18:115,1,50,2|2,1:2|0:0,0:0:0:0:
23,164,81739,2,0,P|19:189|17:214,1,50,10|2,0:0|1:2,0:0:0:0:
39,258,82071,2,0,P|85:273|134:265,1,100,2|10,0:0|0:0,0:0:0:0:
235,259,82738,6,0,L|239:210,1,50,2|2,1:2|0:0,0:0:0:0:
271,171,83071,2,0,L|267:122,1,50,10|2,0:0|1:2,0:0:0:0:
238,79,83405,2,0,P|192:59|143:63,1,100,2|10,0:0|0:0,0:0:0:0:
141,62,85405,22,0,L|135:120,1,50,6|2,1:2|0:0,0:0:0:0:
100,146,85738,2,0,L|106:204,1,50,10|2,0:0|1:2,0:0:0:0:
122,242,86071,2,0,P|72:247|27:269,2,100,2|10|0,0:0|0:0|1:0,0:0:0:0:
202,301,87071,2,0,P|225:308|250:312,1,50,8|2,0:0|1:2,0:0:0:0:
292,284,87405,2,0,P|339:267|388:268,1,100,2|10,0:0|0:0,0:0:0:0:
476,220,88071,70,0,L|482:162,1,50,2|2,1:2|0:0,0:0:0:0:
512,131,88404,2,0,L|506:73,1,50,10|2,0:0|1:2,0:0:0:0:
479,38,88738,2,0,B|429:27|429:27|380:35,1,100,2|10,0:0|0:0,0:0:0:0:
309,105,89405,2,0,L|319:204,1,100,2|8,1:2|0:0,0:0:0:0:
302,251,89905,1,2,1:2:0:0:
302,251,90071,2,0,P|257:273|197:266,1,100,2|10,0:0|0:0,0:0:0:0:
131,205,90738,6,0,P|119:156|129:108,1,100,2|8,1:2|0:0,0:0:0:0:
158,67,91238,2,0,P|181:55|204:49,1,50,2|0,1:2|0:0,0:0:0:0:
253,40,91571,1,2,0:0:0:0:
340,89,91905,1,2,0:0:0:0:
340,89,92071,2,0,B|395:100|395:100|456:80,1,100,0|10,1:0|0:0,0:0:0:0:
484,72,92571,2,0,P|504:116|500:165,1,100,2|10,1:2|0:0,0:0:0:0:
472,208,93071,1,10,0:0:0:0:
469,308,93405,69,2,1:2:0:0:
469,308,93571,2,0,B|419:301,1,50,2|8,0:0|0:0,0:0:0:0:
380,268,93905,2,0,B|331:257|331:257|282:267,1,100,2|2,1:2|0:0,0:0:0:0:
203,328,94571,1,2,0:0:0:0:
203,328,94738,2,0,L|104:317,1,100,2|8,1:2|0:0,0:0:0:0:
69,280,95238,1,2,1:2:0:0:
69,280,95405,2,0,P|57:231|71:179,1,100,2|10,0:0|0:0,0:0:0:0:
128,103,96071,6,0,L|186:97,1,50,6|2,1:2|0:0,0:0:0:0:
215,65,96404,2,0,L|273:71,1,50,10|2,0:0|1:2,0:0:0:0:
302,103,96738,2,0,B|311:154|311:154|294:202,2,100,2|10|0,0:0|0:0|1:0,0:0:0:0:
349,14,97738,2,0,P|372:7|397:3,1,50,8|0,0:0|1:0,0:0:0:0:
435,36,98071,2,0,P|448:83|436:131,1,100,2|10,0:0|0:0,0:0:0:0:
432,232,98738,70,0,L|374:226,1,50,2|2,1:2|0:0,0:0:0:0:
344,194,99071,2,0,L|286:200,1,50,10|2,0:0|1:2,0:0:0:0:
247,181,99405,2,0,B|237:129|237:129|247:80,1,100,2|10,0:0|0:0,0:0:0:0:
154,44,100071,2,0,P|104:35|56:45,1,100,2|8,1:2|0:0,0:0:0:0:
31,88,100571,1,2,1:2:0:0:
31,88,100738,2,0,L|45:206,1,100,2|10,0:0|0:0,0:0:0:0:
101,268,101405,6,0,P|151:277|198:265,1,100,2|8,1:2|0:0,0:0:0:0:
234,229,101905,2,0,L|283:235,1,50,2|0,1:2|0:0,0:0:0:0:
323,264,102238,1,2,0:0:0:0:
388,188,102571,1,2,0:0:0:0:
388,188,102738,2,0,L|378:80,1,100,0|10,1:0|0:0,0:0:0:0:
338,59,103238,2,0,P|291:41|243:53,1,100,2|10,1:2|0:0,0:0:0:0:
216,94,103737,1,10,0:0:0:0:
196,192,104071,70,0,B|187:240|187:240|198:296,1,100,2|8,1:2|0:0,0:0:0:0:
238,324,104571,2,0,L|292:329,1,50,2|0,1:2|0:0,0:0:0:0:
337,338,104905,1,2,0:0:0:0:
406,265,105238,1,2,0:0:0:0:
406,265,105405,2,0,B|417:210|417:210|393:156,1,100,0|8,1:0|0:0,0:0:0:0:
371,128,105905,2,0,P|322:112|275:120,1,100,2|2,1:2|0:0,0:0:0:0:
230,143,106405,1,10,0:0:0:0:
131,157,106738,38,0,L|128:264,1,100,2|8,1:2|0:0,0:0:0:0:
131,306,107238,1,2,1:2:0:0:
224,341,107571,1,2,1:2:0:0:
224,341,107738,2,0,L|279:322,1,50,8|2,0:0|0:0,0:0:0:0:
304,287,108071,2,0,P|324:329|363:378,2,100,0|10|0,1:2|0:0|0:0,0:0:0:0:
250,202,109071,1,8,0:0:0:0:
348,183,109405,70,0,B|409:178|393:209|460:192,1,100,2|8,1:2|0:0,0:0:0:0:
495,187,109905,1,2,1:2:0:0:
431,110,110238,1,2,0:0:0:0:
431,110,110405,2,0,L|397:52,1,50,10|2,0:0|0:0,0:0:0:0:
370,31,110738,2,0,P|420:25|463:1,2,100,0|8|10,1:0|0:0|0:0,0:0:0:0:
270,23,111738,1,10,0:0:0:0:
262,122,112071,6,0,P|207:104|181:69,1,100,2|8,1:2|0:0,0:0:0:0:
177,22,112571,1,2,1:2:0:0:
84,61,112905,1,2,1:2:0:0:
84,61,113071,2,0,L|77:120,1,50,8|2,0:0|0:0,0:0:0:0:
97,157,113405,2,0,P|62:150|-16:161,2,100,0|10|0,1:2|0:0|0:0,0:0:0:0:
190,194,114405,1,8,0:0:0:0:
278,240,114738,70,0,P|332:245|385:212,1,100,2|8,1:2|0:0,0:0:0:0:
414,199,115238,1,2,1:2:0:0:
450,106,115571,1,2,0:0:0:0:
398,22,115905,70,0,B|269:-14|319:74|199:50,1,200,2|2,0:0|0:0,0:0:0:0:
