osu file format v14

[General]
AudioFilename: audio.mp3
AudioLeadIn: 0
PreviewTime: 32050
Countdown: 0
SampleSet: Normal
StackLeniency: 0.7
Mode: 0
LetterboxInBreaks: 1
StoryFireInFront: 0
EpilepsyWarning: 1
WidescreenStoryboard: 1

[Editor]
DistanceSpacing: 2
BeatDivisor: 4
GridSize: 4
TimelineZoom: 1

[Metadata]
Title:Something Big
TitleUnicode:Something Big
Artist:Shawn Mendes
ArtistUnicode:Shawn Mendes
Creator:harmanjit102
Version:Insane
Source:
Tags:[-Aphobias-] BeatOfTheDragon
BeatmapID:1111552
BeatmapSetID:523593

[Difficulty]
HPDrainRate:6
CircleSize:4.2
OverallDifficulty:7
ApproachRate:8.5
SliderMultiplier:1.4
SliderTickRate:1

[Events]
//Background and Video events
0,0,"BG.jpg",0,0
//Break Periods
2,128946,130214
//Storyboard Layer 0 (Background)
//Storyboard Layer 1 (Fail)
//Storyboard Layer 2 (Pass)
//Storyboard Layer 3 (Foreground)
Sprite,Foreground,Centre,"sb\Circle.png",320,240 M,0,128746,,320,240 F,0,128746,128880,0,1 S,0,128746,129282,0.1738184,5 F,0,128880,129148,1 F,0,129148,129282,1,0
Sprite,Foreground,Centre,"sb\BeatmapText.png",320,240 S,0,129282,,0.5403638 M,0,129282,129416,-222.8363,220.8,187.3455,224.2909 F,0,129282,129416,0,1 M,0,129416,129684,187.3455,224.2909 F,0,129416,129684,1 M,0,129684,129818,187.3455,224.2909,186.1818,534.9818 F,0,129684,129818,1,0
Sprite,Foreground,Centre,"sb\StoryboardText.png",320,240 S,0,129684,,0.5112729 M,0,129684,129818,178.6182,-75.92726,178.6182,224.2909 F,0,129684,129818,0,1 M,0,129818,130219,178.6182,224.2909 F,0,129818,130219,1 M,0,130219,130353,178.6182,224.2909,-242.6182,224.8727 F,0,130219,130353,1,0
Sprite,Foreground,Centre,"sb\Name.png",320,240 S,0,129282,,0.5112726 M,0,129282,129416,882.0364,231.8546,407.8546,226.0364 F,0,129282,129416,0,1 M,0,129416,130219,407.8546,226.0364 F,0,129416,130219,1 M,0,130219,130353,407.8546,226.0364,397.9637,-71.27272 F,0,130219,130353,1,0
//Storyboard Sound Samples

[TimingPoints]
175.153593258805,535.714285714286,4,1,0,50,1,0
12362,-100,4,1,0,30,0,0
12495,-100,4,1,0,50,0,0
30175,-200,4,1,0,50,0,0
31648,-100,4,1,0,50,0,0
31782,-100,4,1,0,50,0,0
32318,-100,4,1,0,85,0,1
57496,-100,4,1,0,50,0,0
75175,-200,4,1,0,50,0,0
76782,-100,4,1,0,50,0,0
77318,-100,4,1,0,85,0,1
102496,-100,4,2,0,100,0,0
111469,-100,4,1,0,50,0,0
139460,-100,4,1,0,75,0,1
156603,-100,4,1,0,50,0,0

[HitObjects]
64,320,175,5,0,0:0:0:0:
132,92,710,5,0,0:0:0:0:
252,88,978,1,0,0:0:0:0:
364,132,1246,2,0,B|382:217|316:252,1,140,0|8,0:0|0:0,0:0:0:0:
200,280,2050,1,0,0:0:0:0:
200,280,2318,6,0,P|184:264|168:216,1,70
168,100,2853,2,0,P|176:66|199:39,1,70
320,40,3389,2,0,P|342:66|351:100,1,70
352,220,3925,2,0,P|342:253|320:279,1,70
200,292,4460,6,0,P|152:232|132:160,1,140,0|8,0:0|0:0,0:0:0:0:
160,56,5264,2,0,L|216:56,1,35
216,112,5532,2,0,B|356:112,1,140
452,184,6335,1,0,0:0:0:0:
380,280,6603,6,0,B|303:329|230:288,1,140,0|8,0:0|0:0,0:0:0:0:
220,180,7407,2,0,L|172:180,1,35
128,200,7675,2,0,B|128:280,1,70
244,296,8210,2,0,L|328:296,1,70,8|0,0:0|0:0,0:0:0:0:
372,292,8612,1,0,0:0:0:0:
424,264,8746,6,0,P|444:204|436:152,1,105
404,116,9282,2,0,L|332:116,1,70,8|0,0:0|0:0,0:0:0:0:
224,68,9817,2,0,L|244:20,2,35
168,172,10353,2,0,B|128:169|95:157,1,70,8|0,0:0|0:0,0:0:0:0:
32,60,10889,5,8,3:0:0:0:
32,120,11023,2,8,L|32:202,1,70,8|8,3:0|3:0,3:0:0:0:
60,244,11425,2,8,L|145:244,1,70,8|8,3:0|3:0,3:0:0:0:
128,184,11826,5,0,0:0:0:0:
160,132,11960,1,0,0:0:0:0:
196,84,12094,1,0,0:0:0:0:
248,56,12228,2,0,L|296:56,1,35
344,68,12496,1,0,0:0:0:0:
392,104,12630,1,0,0:0:0:0:
424,152,12764,1,0,0:0:0:0:
456,204,12898,1,0,0:0:0:0:
412,244,13032,6,0,B|300:244,1,105,4|0,0:0|0:0,0:0:0:0:
264,296,13568,2,0,B|238:266|235:238|243:210|266:197,1,105,8|0,0:0|0:0,0:0:0:0:
292,140,14103,2,0,L|322:158,1,35,8|0,0:0|0:0,0:0:0:0:
228,140,14371,2,0,L|197:158,1,35,8|0,0:0|0:0,0:0:0:0:
292,60,14639,2,0,L|322:78,1,35,8|0,0:0|0:0,0:0:0:0:
228,60,14907,2,0,L|197:78,1,35,8|0,0:0|0:0,0:0:0:0:
172,132,15175,6,0,L|229:226,1,105
296,212,15710,2,0,L|241:122,1,105
216,68,16246,2,0,L|280:32,1,70
316,80,16648,2,0,L|340:116,1,35,0|8,0:0|0:0,0:0:0:0:
392,108,16916,2,0,L|411:78,1,35
468,60,17184,1,0,0:0:0:0:
468,60,17318,6,0,B|468:170,1,105
380,228,17853,1,8,0:0:0:0:
268,268,18121,1,0,0:0:0:0:
152,296,18389,2,0,L|152:356,2,35
152,236,18791,1,0,0:0:0:0:
152,176,18925,6,0,L|152:114,1,35,8|0,0:0|0:0,0:0:0:0:
172,84,19193,2,0,L|250:84,1,70
360,88,19728,6,0,L|304:88,1,35
280,128,19996,1,8,0:0:0:0:
348,220,20264,1,0,0:0:0:0:
348,220,20398,2,0,L|348:292,1,70
304,332,20800,1,0,0:0:0:0:
244,332,20934,1,0,0:0:0:0:
184,328,21068,2,0,L|129:254,1,70,8|0,0:0|0:0,0:0:0:0:
59,144,21603,6,0,B|59:35,1,105
124,68,22139,2,0,L|124:33,4,35
137,137,22809,1,0,0:0:0:0:
160,202,22943,1,0,0:0:0:0:
207,252,23076,1,0,0:0:0:0:
267,286,23210,1,8,0:0:0:0:
331,312,23344,1,0,0:0:0:0:
400,324,23478,6,0,P|452:301|460:262,1,70
482,154,24014,1,0,0:0:0:0:
444,96,24148,1,0,0:0:0:0:
377,77,24282,2,0,L|221:77,1,140
176,112,24951,1,0,0:0:0:0:
176,112,25085,1,0,0:0:0:0:
152,256,25353,1,8,0:0:0:0:
152,256,25487,1,0,0:0:0:0:
152,256,25621,2,0,L|86:208,1,70
32,88,26157,5,0,0:0:0:0:
32,88,26291,2,0,L|92:88,1,35,0|8,0:0|0:0,0:0:0:0:
208,96,26693,1,0,0:0:0:0:
272,220,26960,2,0,P|376:228|408:204,1,140,0|8,0:0|0:0,0:0:0:0:
452,80,27764,1,0,0:0:0:0:
312,84,28032,6,0,B|235:103|261:137|168:158,1,140,0|8,0:0|0:0,0:0:0:0:
316,324,28969,1,0,0:0:0:0:
348,240,29103,1,0,0:0:0:0:
404,312,29237,1,0,0:0:0:0:
440,228,29371,1,0,0:0:0:0:
356,116,29639,2,0,L|251:123,1,105,8|0,0:0|0:0,0:0:0:0:
251,123,30175,6,0,B|296:236|184:300,1,210,0|4,0:0|0:0,0:0:0:0:
162,78,32318,6,0,B|88:78,2,70,0|0|8,0:0|0:0|0:0,0:0:0:0:
266,78,33121,1,0,0:0:0:0:
268,220,33389,2,0,B|338:220,2,70,0|0|8,0:0|0:0|0:0,0:0:0:0:
256,288,34059,1,0,0:0:0:0:
204,244,34193,2,0,L|204:188,1,35
209,137,34460,6,0,B|201:92|169:81|146:74|122:85,1,105
144,144,34996,2,0,B|144:240,1,70,8|0,0:0|0:0,0:0:0:0:
184,272,35398,1,0,0:0:0:0:
232,220,35532,2,0,L|272:156,1,70
368,184,36068,2,0,L|336:248,1,70,8|0,0:0|0:0,0:0:0:0:
272,208,36603,6,0,L|248:256,2,35
302,148,37005,1,0,0:0:0:0:
302,148,37139,2,0,B|356:50,1,105,8|0,0:0|0:0,0:0:0:0:
423,59,37675,2,0,L|386:134,1,70
358,183,38076,2,0,L|358:219,1,35,0|8,0:0|0:0,0:0:0:0:
362,288,38344,1,0,0:0:0:0:
302,253,38478,2,0,L|259:213,1,35
224,176,38746,6,0,B|153:139|88:192,1,140,0|8,0:0|0:0,0:0:0:0:
176,304,39550,1,0,0:0:0:0:
288,328,39818,2,0,P|336:304|352:288,1,70
384,256,40219,1,0,0:0:0:0:
400,208,40353,2,0,P|408:168|392:128,1,70,8|0,0:0|0:0,0:0:0:0:
328,72,40755,1,0,0:0:0:0:
264,96,40889,6,2,B|215:113|215:113|211:167,1,105
224,240,41425,2,0,P|268:292|335:275,1,140,8|0,0:0|0:0,0:0:0:0:
377,181,42228,5,0,0:0:0:0:
376,60,42362,1,0,0:0:0:0:
500,60,42496,1,8,0:0:0:0:
504,184,42630,1,0,0:0:0:0:
377,181,42764,1,0,0:0:0:0:
280,289,43032,6,2,B|240:321|240:321|192:297,1,105
144,244,43568,2,0,P|128:204|144:124,1,105,8|0,0:0|0:0,0:0:0:0:
176,88,44103,2,0,B|280:72|312:128,1,140,0|8,0:0|0:0,0:0:0:0:
396,228,44907,2,0,L|344:268,1,35
308,288,45175,6,2,B|268:320|268:320|220:296,1,105
200,228,45710,2,0,B|260:176|344:220,2,140,8|0|8,0:0|0:0|0:0,0:0:0:0:
308,288,47050,1,0,0:0:0:0:
448,284,47318,6,0,B|448:192|448:192|400:208,1,140,0|8,0:0|0:0,0:0:0:0:
144,320,48389,2,0,P|108:283|109:232,1,105
168,192,48925,1,8,0:0:0:0:
228,156,49059,1,0,0:0:0:0:
288,120,49193,1,0,0:0:0:0:
440,36,49460,6,0,B|272:36,1,140
109,232,50532,2,0,B|248:232,1,140
388,216,51335,1,0,0:0:0:0:
448,180,51469,1,0,0:0:0:0:
464,112,51603,6,4,P|436:62|380:46,1,105
324,36,52139,2,0,P|272:43|236:52,1,70,8|0,0:0|0:0,0:0:0:0:
124,96,52675,2,0,P|108:136|156:224,1,140,0|8,0:0|0:0,0:0:0:0:
252,132,53478,1,0,0:0:0:0:
360,220,53746,6,0,P|398:163|382:97,1,140,0|8,0:0|0:0,0:0:0:0:
284,160,54550,1,0,0:0:0:0:
172,76,54818,2,0,L|100:108,2,70,0|0|8,0:0|0:0|0:0,0:0:0:0:
312,92,55621,1,0,0:0:0:0:
268,224,55889,6,2,B|393:161,1,140,2|10,0:0|0:0,0:0:0:0:
464,284,56693,1,0,0:0:0:0:
324,288,56960,2,0,L|356:240,1,35
332,188,57228,1,0,0:0:0:0:
272,224,57362,1,0,0:0:0:0:
272,152,57496,1,8,0:0:0:0:
212,188,57630,1,0,0:0:0:0:
212,116,57764,1,0,0:0:0:0:
72,120,58032,6,0,L|72:264,1,140,0|8,0:0|0:0,0:0:0:0:
196,303,58835,1,0,0:0:0:0:
348,276,59103,2,0,L|396:276,1,35
436,228,59371,2,0,L|436:171,1,35
400,132,59639,2,0,L|365:132,1,35,8|0,0:0|0:0,0:0:0:0:
312,180,59907,2,0,L|312:237,1,35
300,284,60175,6,0,L|192:304,1,105
177,229,60710,2,0,B|316:204,1,140,8|0,0:0|0:0,0:0:0:0:
416,104,61514,1,0,0:0:0:0:
314,204,61782,1,8,0:0:0:0:
274,248,61916,1,0,0:0:0:0:
230,288,62050,1,0,0:0:0:0:
172,212,62318,6,0,P|220:148|284:148,1,140,0|8,0:0|0:0,0:0:0:0:
184,312,63389,2,0,L|184:248,1,35
272,264,63657,2,0,L|272:216,1,35
360,208,63925,2,0,L|360:152,1,35,8|0,0:0|0:0,0:0:0:0:
304,104,64193,1,0,0:0:0:0:
272,264,64460,5,0,0:0:0:0:
104,120,64996,2,0,B|144:88|176:112|208:144,1,105,8|0,0:0|0:0,0:0:0:0:
247,217,65532,1,0,0:0:0:0:
282,127,65666,1,0,0:0:0:0:
322,215,65800,1,0,0:0:0:0:
352,123,65934,1,0,0:0:0:0:
409,201,66068,2,0,P|421:237|409:265,2,70,8|0|0,0:0|0:0|0:0,0:0:0:0:
200,224,66871,5,0,0:0:0:0:
200,224,67005,1,0,0:0:0:0:
200,224,67139,2,0,L|200:120,1,105,8|0,0:0|0:0,0:0:0:0:
200,119,67675,2,0,L|240:119,3,35
296,152,68210,1,8,0:0:0:0:
325,215,68344,1,0,0:0:0:0:
294,277,68478,1,0,0:0:0:0:
227,285,68612,1,0,0:0:0:0:
227,285,68746,6,0,B|179:277|155:213,1,105
144,145,69282,2,0,P|162:101|184:90,1,70,8|0,0:0|0:0,0:0:0:0:
250,84,69684,1,0,0:0:0:0:
319,88,69818,2,0,L|359:88,1,35
419,112,70085,2,0,P|439:153|428:195,1,70,0|8,0:0|0:0,0:0:0:0:
399,236,70487,1,0,0:0:0:0:
337,269,70621,1,0,0:0:0:0:
198,291,70889,6,0,L|92:210,1,105
92,161,71425,2,0,L|167:161,1,70,8|0,0:0|0:0,0:0:0:0:
232,161,71826,1,0,0:0:0:0:
301,158,71960,2,0,P|337:130|344:97,2,70,0|0|8,0:0|0:0|0:0,0:0:0:0:
186,152,72764,1,0,0:0:0:0:
149,207,72898,1,0,0:0:0:0:
205,242,73032,6,0,P|266:223|307:181,1,105
329,133,73568,2,0,P|371:147|393:173,1,70,8|0,0:0|0:0,0:0:0:0:
409,231,73969,1,0,0:0:0:0:
344,256,74103,2,0,L|296:256,1,35
238,257,74371,2,0,L|238:297,1,35
344,256,74639,2,0,L|344:208,1,35,8|0,0:0|0:0,0:0:0:0:
368,154,74907,1,0,0:0:0:0:
398,91,75041,1,0,0:0:0:0:
330,77,75175,6,0,B|218:140|264:253,1,210,0|4,0:0|0:0,0:0:0:0:
392,192,77318,6,0,B|422:170|398:146|423:133,2,70,0|0|8,0:0|0:0|0:0,0:0:0:0:
248,192,78121,1,0,0:0:0:0:
104,192,78389,2,0,B|72:184|104:152|80:128,2,70,0|0|8,0:0|0:0|0:0,0:0:0:0:
160,240,79059,1,0,0:0:0:0:
182,173,79193,2,0,L|186:115,1,35
193,68,79460,6,0,P|252:44|292:49,1,105
308,117,79996,2,0,L|309:187,1,70,8|0,0:0|0:0,0:0:0:0:
357,237,80398,1,0,0:0:0:0:
413,195,80532,2,0,P|421:154|370:112,1,105
308,117,81068,2,0,L|204:117,1,105,8|0,0:0|0:0,0:0:0:0:
136,130,81603,6,0,P|112:168|112:208,1,70
152,270,82005,1,0,0:0:0:0:
240,264,82139,2,0,B|245:198|291:177,1,105,8|0,0:0|0:0,0:0:0:0:
352,144,82675,2,0,L|353:70,1,70
300,27,83076,2,0,L|244:27,1,35,0|8,0:0|0:0,0:0:0:0:
199,54,83344,1,0,0:0:0:0:
146,100,83478,2,0,L|146:140,1,35
148,205,83746,6,0,P|180:253|239:259,1,105
294,258,84282,2,0,L|294:154,1,105,8|0,0:0|0:0,0:0:0:0:
364,148,84818,2,0,L|364:228,1,70
368,288,85219,1,0,0:0:0:0:
437,282,85353,2,0,L|499:343,2,70,12|0|4,0:0|0:0|0:0,0:0:0:0:
191,46,86425,6,0,P|148:58|109:108,1,105,8|0,0:0|0:0,0:0:0:0:
162,150,86960,2,0,L|181:115,3,35
217,60,87496,2,0,P|252:71|265:100,1,70,8|0,0:0|0:0,0:0:0:0:
265,170,87898,1,0,0:0:0:0:
279,238,88032,6,2,P|307:240|336:168,1,105
352,104,88568,2,0,P|408:144|416:160,1,70
448,200,88969,1,0,0:0:0:0:
420,264,89103,1,0,0:0:0:0:
357,294,89237,2,0,L|270:293,1,70
273,224,89639,2,0,L|317:224,1,35
378,224,89907,1,0,0:0:0:0:
238,138,90175,6,0,B|265:160|295:167|339:135|350:109,1,105
397,113,90710,2,0,B|385:79|338:48|306:70|271:97,2,140,8|8|0,0:0|0:0|0:0,0:0:0:0:
417,240,92050,2,0,L|417:292,1,35
347,287,92318,6,0,B|347:245|347:245|352:216,2,70,0|0|8,0:0|0:0|0:0,0:0:0:0:
158,289,93389,2,0,P|103:262|78:225,1,105
58,159,93925,1,8,0:0:0:0:
138,119,94059,1,0,0:0:0:0:
218,79,94193,1,0,0:0:0:0:
256,240,94460,6,2,B|296:216|304:176|336:160,1,105
378,115,94996,2,0,P|406:121|438:187,1,105,8|0,0:0|0:0,0:0:0:0:
400,280,95532,2,0,L|328:288,1,70
320,144,96068,1,8,0:0:0:0:
240,264,96335,1,0,0:0:0:0:
128,168,96603,6,0,P|160:80|208:72,3,140,2|10|0|8,0:0|0:0|0:0|0:0,0:0:0:0:
336,68,98478,1,0,0:0:0:0:
397,100,98612,1,0,0:0:0:0:
444,151,98746,6,2,P|443:186|422:258,1,105
368,312,99282,2,0,P|336:320|304:304,1,70,8|0,0:0|0:0,0:0:0:0:
240,184,99818,1,0,0:0:0:0:
216,248,99951,1,0,0:0:0:0:
192,312,100085,1,0,0:0:0:0:
128,272,100353,1,8,0:0:0:0:
240,184,100621,1,0,0:0:0:0:
128,272,100889,6,0,P|181:294|216:280,1,70
281,239,101425,2,0,L|357:191,1,70,8|0,0:0|0:0,0:0:0:0:
304,144,101826,2,0,L|260:172,3,35
208,168,102362,5,0,0:0:0:0:
292,80,102496,1,8,0:0:0:0:
356,184,102630,1,0,0:0:0:0:
420,80,102764,1,0,0:0:0:0:
356,184,102898,1,0,0:0:0:0:
304,232,103032,6,0,P|240:264|176:240,1,140,0|8,0:0|0:0,0:0:0:0:
120,208,103701,1,0,0:0:0:0:
112,136,103835,2,0,L|152:88,1,35
208,104,104103,2,0,L|280:104,1,70
352,104,104505,2,0,L|352:56,2,35,0|8|0,0:0|0:0|0:0,0:0:0:0:
360,328,105175,6,0,P|320:304|320:280,1,70
376,240,105576,1,0,0:0:0:0:
424,184,105710,1,8,0:0:0:0:
384,120,105844,1,0,0:0:0:0:
160,104,106246,2,0,B|160:144|112:128|96:184,1,105
66,245,106782,1,8,0:0:0:0:
127,279,106916,2,0,B|241:279,1,105
234,138,107585,5,0,0:0:0:0:
292,98,107719,1,0,0:0:0:0:
358,74,107853,1,8,0:0:0:0:
419,39,107987,2,0,L|419:161,1,105
144,240,108791,2,0,L|144:288,2,35,0|8|0,0:0|0:0|0:0,0:0:0:0:
248,48,109460,6,0,B|288:48|288:48|320:64,1,70
360,120,109862,1,0,0:0:0:0:
368,192,109996,1,8,0:0:0:0:
352,264,110130,2,0,B|312:296|296:296|256:288,1,105
104,288,110800,2,0,L|72:224,2,70,0|8|0,0:0|0:0|0:0,0:0:0:0:
248,280,111603,6,0,L|248:184,1,70
288,152,112005,1,0,0:0:0:0:
336,208,112139,2,0,L|336:280,1,70,8|0,0:0|0:0,0:0:0:0:
400,304,112541,2,0,P|440:256|432:232,1,70
440,184,112943,2,0,P|416:160|368:152,1,70,0|8,0:0|0:0,0:0:0:0:
240,176,113478,1,0,0:0:0:0:
256,312,113746,6,0,L|200:336,2,35
312,272,114148,1,0,0:0:0:0:
312,200,114282,2,0,L|352:200,2,35,8|0|0,0:0|0:0|0:0,0:0:0:0:
168,208,114818,2,0,B|96:200|96:200|64:152,1,105
64,104,115353,1,0,0:0:0:0:
136,104,115487,2,0,B|184:112|184:112|216:144,1,70
216,208,115889,6,0,P|232:256|272:280,1,70
388,268,116425,2,0,P|410:241|417:207,1,70
136,160,116960,2,0,P|192:88|216:96,1,105
288,112,117496,1,8,0:0:0:0:
352,152,117630,1,0,0:0:0:0:
376,224,117764,1,0,0:0:0:0:
368,296,117898,1,0,0:0:0:0:
304,328,118032,6,0,L|224:336,1,70
168,312,118434,1,0,0:0:0:0:
104,288,118568,2,0,L|64:208,1,70
56,160,118969,1,0,0:0:0:0:
96,104,119103,1,0,0:0:0:0:
136,160,119237,1,0,0:0:0:0:
176,216,119371,2,0,P|216:248|240:248,2,70,0|8|0,0:0|0:0|0:0,0:0:0:0:
184,72,120175,6,0,L|256:72,1,70
312,104,120576,1,0,0:0:0:0:
328,168,120710,1,8,0:0:0:0:
344,232,120844,1,0,0:0:0:0:
328,296,120978,2,0,L|244:296,1,70
104,296,121514,2,0,L|48:304,4,35,0|8|0|0|0,0:0|0:0|0:0|0:0|0:0,0:0:0:0:
312,272,122318,6,0,L|312:160,1,105
296,96,122853,1,8,0:0:0:0:
240,48,122987,1,0,0:0:0:0:
168,36,123121,1,0,0:0:0:0:
56,168,123389,2,0,L|128:256,1,105
184,216,123925,1,8,0:0:0:0:
248,176,124059,2,0,L|160:80,1,105
352,232,124862,5,0,0:0:0:0:
296,280,124996,1,8,0:0:0:0:
232,312,125130,1,0,0:0:0:0:
216,104,125532,6,0,B|208:208,1,105
207,208,126068,2,0,B|344:152,1,140,8|0,0:0|0:0,0:0:0:0:
440,72,126871,5,0,0:0:0:0:
400,200,127139,2,0,L|248:264,1,140
152,180,127943,1,0,0:0:0:0:
288,144,128210,1,8,0:0:0:0:
288,288,128478,1,0,0:0:0:0:
416,232,128746,1,0,0:0:0:0:
304,104,130889,6,4,P|272:72|248:64,2,70,4|4|12,0:0|0:0|0:0,0:0:0:0:
160,144,131693,2,0,P|144:176|152:224,2,70
200,112,132362,1,0,0:0:0:0:
248,104,132496,2,0,P|296:112|336:152,1,105,8|0,0:0|0:0,0:0:0:0:
336,200,133032,6,0,P|304:224|240:224,1,105
272,152,133568,2,0,L|248:120,3,35,8|0|0|0,0:0|0:0|0:0|0:0,0:0:0:0:
328,120,134103,2,0,P|360:144|368:176,1,70
341,237,134505,1,0,0:0:0:0:
275,260,134639,1,8,0:0:0:0:
207,277,134773,1,0,0:0:0:0:
137,273,134907,2,0,L|137:197,1,70
336,72,135576,5,0,0:0:0:0:
368,136,135710,2,0,P|384:192|352:240,1,105,8|0,0:0|0:0,0:0:0:0:
296,264,136246,2,0,P|240:280|224:280,2,70,0|0|8,0:0|0:0|0:0,0:0:0:0:
326,200,136916,1,0,0:0:0:0:
368,144,137050,1,0,0:0:0:0:
447,95,137318,6,0,L|447:199,1,105
447,200,137853,2,0,B|350:123,1,105,8|0,0:0|0:0,0:0:0:0:
314,143,138389,1,0,0:0:0:0:
295,209,138523,1,0,0:0:0:0:
248,162,138657,1,0,0:0:0:0:
200,210,138791,1,0,0:0:0:0:
152,162,138925,5,8,0:0:0:0:
112,218,139059,1,0,0:0:0:0:
48,194,139193,1,0,0:0:0:0:
8,248,139326,1,0,0:0:0:0:
58,297,139460,6,2,B|106:321|106:321|146:289,1,105
112,213,139996,2,0,B|184:173|184:173|224:165,1,105,8|0,0:0|0:0,0:0:0:0:
262,211,140532,2,0,B|238:235|238:235|190:251,1,70
147,289,140934,1,0,0:0:0:0:
58,297,141068,2,0,L|68:241,1,35,8|0,0:0|0:0,0:0:0:0:
96,184,141335,1,0,0:0:0:0:
128,120,141469,1,0,0:0:0:0:
184,80,141603,6,2,B|232:56|232:56|272:88,1,105
304,144,142139,2,0,P|320:192|248:232,2,140,8|0|8,0:0|0:0|0:0,0:0:0:0:
203,46,143478,1,0,0:0:0:0:
142,172,143746,5,0,0:0:0:0:
352,160,144148,1,0,0:0:0:0:
376,232,144282,2,0,P|360:280|280:280,1,140,8|0,0:0|0:0,0:0:0:0:
176,184,145085,1,0,0:0:0:0:
304,120,145353,2,0,P|360:176|352:200,1,105,8|0,0:0|0:0,0:0:0:0:
336,264,145889,5,0,0:0:0:0:
192,272,146157,1,0,0:0:0:0:
136,224,146291,1,0,0:0:0:0:
112,152,146425,2,0,P|128:88|208:96,1,140,8|0,0:0|0:0,0:0:0:0:
328,128,147228,1,0,0:0:0:0:
376,184,147362,1,0,0:0:0:0:
352,248,147496,2,0,L|312:288,1,35,8|0,0:0|0:0,0:0:0:0:
264,304,147764,1,0,0:0:0:0:
128,280,148032,6,2,B|96:240|96:240|120:192,1,105
218,134,148568,2,0,P|306:142|338:174,1,105,8|0,0:0|0:0,0:0:0:0:
363,202,149103,2,0,P|387:242|435:282,1,105
395,340,149639,2,0,L|323:292,1,70,8|0,0:0|0:0,0:0:0:0:
267,287,150041,1,0,0:0:0:0:
296,224,150175,6,2,L|176:168,1,105
248,128,150710,2,0,P|312:72|344:96,2,140,8|0|8,0:0|0:0|0:0,0:0:0:0:
256,272,152050,1,0,0:0:0:0:
112,232,152318,6,2,P|88:160|136:128,1,140,2|10,0:0|0:0,0:0:0:0:
312,256,153255,1,0,0:0:0:0:
344,192,153389,2,0,P|368:152|352:120,2,70,0|0|8,0:0|0:0|0:0,0:0:0:0:
80,320,154460,6,0,P|56:280|56:247,1,70
80,120,154996,2,0,P|140:95|193:107,1,105,8|0,0:0|0:0,0:0:0:0:
232,144,155532,2,0,P|275:170|313:162,1,70
362,148,155934,5,0,0:0:0:0:
308,100,156068,1,8,0:0:0:0:
380,80,156201,1,0,0:0:0:0:
324,32,156335,1,0,0:0:0:0:
232,144,156603,6,0,B|224:190|280:198|237:276,1,140
