osu file format v14

[General]
AudioFilename: audio.mp3
AudioLeadIn: 0
PreviewTime: 47500
Countdown: 0
SampleSet: Normal
StackLeniency: 0.7
Mode: 3
LetterboxInBreaks: 0
SpecialStyle: 0
WidescreenStoryboard: 0

[Editor]
Bookmarks: 48000,64000
DistanceSpacing: 0.8
BeatDivisor: 4
GridSize: 27
TimelineZoom: 1.7

[Metadata]
Title:The Way of Tomorrow
TitleUnicode:The Way of Tomorrow
Artist:Shaunt
ArtistUnicode:Shaunt
Creator:Stats-Kun
Version:Simplified 4K Starseeking
Source:
Tags:
BeatmapID:2039671
BeatmapSetID:973137

[Difficulty]
HPDrainRate:6
CircleSize:4
OverallDifficulty:5
ApproachRate:5
SliderMultiplier:1.4
SliderTickRate:1

[Events]
//Background and Video events
0,0,"bg1.jpg",0,0
//Break Periods
//Storyboard Layer 0 (Background)
//Storyboard Layer 1 (Fail)
//Storyboard Layer 2 (Pass)
//Storyboard Layer 3 (Foreground)
//Storyboard Sound Samples

[TimingPoints]
0,500,4,1,0,100,1,0

[HitObjects]
64,192,0,5,0,0:0:0:0:
448,192,0,128,0,1500:0:0:0:0:
320,192,500,1,0,0:0:0:0:
192,192,1000,1,0,0:0:0:0:
320,192,1500,128,0,2500:0:0:0:0:
64,192,2000,1,0,0:0:0:0:
192,192,2500,1,0,0:0:0:0:
64,192,2500,128,0,3000:0:0:0:0:
192,192,3000,128,0,4000:0:0:0:0:
320,192,4000,128,0,5500:0:0:0:0:
192,192,4500,1,0,0:0:0:0:
64,192,5000,1,0,0:0:0:0:
64,192,5500,128,0,6000:0:0:0:0:
192,192,5500,1,0,0:0:0:0:
320,192,6000,128,0,6500:0:0:0:0:
448,192,6500,128,0,7000:0:0:0:0:
320,192,7000,128,0,7500:0:0:0:0:
192,192,7500,128,0,8000:0:0:0:0:
448,192,8000,128,0,8500:0:0:0:0:
320,192,8000,1,0,0:0:0:0:
64,192,8500,128,0,9500:0:0:0:0:
192,192,9000,1,0,0:0:0:0:
192,192,9500,128,0,10500:0:0:0:0:
320,192,9500,1,0,0:0:0:0:
448,192,10000,1,0,0:0:0:0:
320,192,10500,1,0,0:0:0:0:
64,192,10500,128,0,11000:0:0:0:0:
448,192,11000,128,0,11500:0:0:0:0:
320,192,11000,1,0,0:0:0:0:
320,192,11500,128,0,12000:0:0:0:0:
192,192,11500,1,0,0:0:0:0:
192,192,12000,1,0,0:0:0:0:
64,192,12000,128,0,13000:0:0:0:0:
192,192,12500,1,0,0:0:0:0:
192,192,13000,1,0,0:0:0:0:
320,192,13000,128,0,13500:0:0:0:0:
448,192,13500,1,0,0:0:0:0:
192,192,13500,128,0,14000:0:0:0:0:
448,192,14000,128,0,15000:0:0:0:0:
320,192,14000,1,0,0:0:0:0:
192,192,14500,1,0,0:0:0:0:
192,192,15000,1,0,0:0:0:0:
320,192,15000,128,0,16000:0:0:0:0:
64,192,15500,1,0,0:0:0:0:
64,192,16000,128,0,17000:0:0:0:0:
192,192,16000,1,0,0:0:0:0:
320,192,16500,1,0,0:0:0:0:
192,192,17000,1,0,0:0:0:0:
320,192,17000,128,0,18000:0:0:0:0:
448,192,18000,128,0,18500:0:0:0:0:
320,192,18500,128,0,19000:0:0:0:0:
448,192,19000,128,0,20000:0:0:0:0:
192,192,19000,1,0,0:0:0:0:
320,192,19500,1,0,0:0:0:0:
64,192,20000,128,0,22000:0:0:0:0:
320,192,20500,1,0,0:0:0:0:
448,192,21000,1,0,0:0:0:0:
320,192,21500,1,0,0:0:0:0:
192,192,22000,128,0,23000:0:0:0:0:
448,192,22000,1,0,0:0:0:0:
320,192,22500,1,0,0:0:0:0:
320,192,23000,128,0,23500:0:0:0:0:
448,192,23500,128,0,24000:0:0:0:0:
320,192,24000,1,0,0:0:0:0:
192,192,24000,128,0,25000:0:0:0:0:
320,192,24500,1,0,0:0:0:0:
320,192,25000,128,0,26000:0:0:0:0:
192,192,25500,1,0,0:0:0:0:
448,192,26000,1,0,0:0:0:0:
64,192,26000,128,0,27000:0:0:0:0:
192,192,26500,1,0,0:0:0:0:
320,192,27000,1,0,0:0:0:0:
192,192,27500,1,0,0:0:0:0:
192,192,28000,128,0,29000:0:0:0:0:
320,192,28000,1,0,0:0:0:0:
448,192,28500,1,0,0:0:0:0:
64,192,29000,128,0,30000:0:0:0:0:
192,192,29500,1,0,0:0:0:0:
320,192,30000,1,0,0:0:0:0:
192,192,30000,128,0,31000:0:0:0:0:
320,192,30500,1,0,0:0:0:0:
448,192,31000,1,0,0:0:0:0:
64,192,31000,128,0,32000:0:0:0:0:
192,192,32000,128,0,32500:0:0:0:0:
320,192,32000,1,0,0:0:0:0:
320,192,32500,128,0,33000:0:0:0:0:
448,192,33000,128,0,34000:0:0:0:0:
64,192,33000,1,0,0:0:0:0:
320,192,34000,128,0,34500:0:0:0:0:
192,192,34000,1,0,0:0:0:0:
192,192,34500,128,0,35000:0:0:0:0:
64,192,35000,128,0,35500:0:0:0:0:
192,192,35500,128,0,36000:0:0:0:0:
320,192,36000,128,0,37500:0:0:0:0:
448,192,36000,128,0,37500:0:0:0:0:
64,192,36500,1,0,0:0:0:0:
192,192,37000,1,0,0:0:0:0:
192,192,37500,128,0,38000:0:0:0:0:
64,192,38000,128,0,39000:0:0:0:0:
192,192,38500,1,0,0:0:0:0:
192,192,39000,128,0,40000:0:0:0:0:
320,192,39000,128,0,40000:0:0:0:0:
448,192,40000,128,0,41000:0:0:0:0:
192,192,40500,1,0,0:0:0:0:
192,192,41000,128,0,42000:0:0:0:0:
64,192,42000,128,0,43000:0:0:0:0:
320,192,42500,1,0,0:0:0:0:
320,192,43000,128,0,43500:0:0:0:0:
192,192,43500,128,0,44000:0:0:0:0:
320,192,44000,5,0,0:0:0:0:
448,192,44500,1,0,0:0:0:0:
64,192,45000,5,0,0:0:0:0:
192,192,45500,1,0,0:0:0:0:
448,192,46000,128,0,48000:0:0:0:0:
320,192,46000,128,0,48000:0:0:0:0:
64,192,48000,128,0,48500:0:0:0:0:
192,192,48000,1,0,0:0:0:0:
320,192,48500,128,0,49000:0:0:0:0:
448,192,48500,1,0,0:0:0:0:
192,192,49000,128,0,49500:0:0:0:0:
64,192,49000,1,0,0:0:0:0:
320,192,49500,128,0,50500:0:0:0:0:
448,192,49500,128,0,50500:0:0:0:0:
64,192,49500,1,0,0:0:0:0:
192,192,50500,1,0,0:0:0:0:
64,192,50500,128,0,51000:0:0:0:0:
192,192,51000,128,0,52000:0:0:0:0:
320,192,51000,128,0,52000:0:0:0:0:
448,192,51000,1,0,0:0:0:0:
64,192,52000,1,0,0:0:0:0:
448,192,52000,1,0,0:0:0:0:
192,192,52500,1,0,0:0:0:0:
320,192,52500,1,0,0:0:0:0:
64,192,53000,1,0,0:0:0:0:
448,192,53000,1,0,0:0:0:0:
192,192,53500,128,0,54500:0:0:0:0:
320,192,53500,128,0,54500:0:0:0:0:
448,192,54500,128,0,55000:0:0:0:0:
320,192,55000,128,0,55500:0:0:0:0:
64,192,55000,1,0,0:0:0:0:
192,192,55500,128,0,56000:0:0:0:0:
64,192,55500,1,0,0:0:0:0:
320,192,56000,1,0,0:0:0:0:
64,192,56000,128,0,56500:0:0:0:0:
320,192,56500,1,0,0:0:0:0:
192,192,56500,128,0,57500:0:0:0:0:
64,192,57500,128,0,58000:0:0:0:0:
448,192,57500,1,0,0:0:0:0:
192,192,58000,128,0,58500:0:0:0:0:
320,192,58000,1,0,0:0:0:0:
448,192,58500,1,0,0:0:0:0:
320,192,58500,128,0,59500:0:0:0:0:
192,192,59500,128,0,60000:0:0:0:0:
448,192,59500,1,0,0:0:0:0:
320,192,60000,128,0,60500:0:0:0:0:
448,192,60000,1,0,0:0:0:0:
448,192,60500,128,0,61000:0:0:0:0:
192,192,60500,1,0,0:0:0:0:
64,192,61000,128,0,61500:0:0:0:0:
192,192,61000,1,0,0:0:0:0:
320,192,61500,128,0,62000:0:0:0:0:
448,192,61500,128,0,62000:0:0:0:0:
192,192,61500,1,0,0:0:0:0:
192,192,62000,128,0,63000:0:0:0:0:
64,192,63000,128,0,63500:0:0:0:0:
320,192,63000,1,0,0:0:0:0:
448,192,63500,128,0,64000:0:0:0:0:
320,192,63500,1,0,0:0:0:0:
192,192,64000,1,0,0:0:0:0:
64,192,64000,128,0,65000:0:0:0:0:
320,192,65000,128,0,66000:0:0:0:0:
448,192,65000,128,0,66000:0:0:0:0:
192,192,65000,1,0,0:0:0:0:
192,192,66000,128,0,67000:0:0:0:0:
448,192,67000,1,0,0:0:0:0:
320,192,67000,128,0,67500:0:0:0:0:
192,192,67500,128,0,68000:0:0:0:0:
448,192,67500,1,0,0:0:0:0:
320,192,68000,1,0,0:0:0:0:
448,192,68000,128,0,69000:0:0:0:0:
320,192,69000,1,0,0:0:0:0:
192,192,69000,1,0,0:0:0:0:
448,192,69500,1,0,0:0:0:0:
64,192,69500,1,0,0:0:0:0:
320,192,70000,128,0,70500:0:0:0:0:
192,192,70500,128,0,71000:0:0:0:0:
64,192,70500,1,0,0:0:0:0:
448,192,71000,128,0,71500:0:0:0:0:
320,192,71000,1,0,0:0:0:0:
64,192,71500,1,0,0:0:0:0:
192,192,71500,128,0,72000:0:0:0:0:
64,192,72000,128,0,72500:0:0:0:0:
320,192,72000,1,0,0:0:0:0:
192,192,72500,128,0,73500:0:0:0:0:
320,192,72500,1,0,0:0:0:0:
448,192,73500,1,0,0:0:0:0:
64,192,73500,128,0,74000:0:0:0:0:
192,192,74000,1,0,0:0:0:0:
320,192,74000,128,0,75000:0:0:0:0:
192,192,75000,128,0,75500:0:0:0:0:
448,192,75000,1,0,0:0:0:0:
448,192,75500,1,0,0:0:0:0:
64,192,75500,128,0,76000:0:0:0:0:
192,192,76000,1,0,0:0:0:0:
320,192,76000,128,0,77000:0:0:0:0:
448,192,76500,1,0,0:0:0:0:
64,192,77000,128,0,77500:0:0:0:0:
192,192,77000,1,0,0:0:0:0:
192,192,77500,128,0,78000:0:0:0:0:
320,192,78000,128,0,79000:0:0:0:0:
448,192,78000,1,0,0:0:0:0:
192,192,79000,128,0,80000:0:0:0:0:
64,192,79000,128,0,80000:0:0:0:0:
320,192,80000,1,0,0:0:0:0:
448,192,80500,1,0,0:0:0:0:
64,192,81000,128,0,82000:0:0:0:0:
192,192,81000,128,0,82000:0:0:0:0:
448,192,82000,1,0,0:0:0:0:
320,192,82500,1,0,0:0:0:0:
192,192,83000,1,0,0:0:0:0:
320,192,83500,1,0,0:0:0:0:
64,192,84000,128,0,85000:0:0:0:0:
192,192,84000,128,0,85000:0:0:0:0:
448,192,85000,128,0,85500:0:0:0:0:
320,192,85500,128,0,86000:0:0:0:0:
192,192,86000,1,0,0:0:0:0:
320,192,86500,1,0,0:0:0:0:
64,192,87000,128,0,88000:0:0:0:0:
192,192,87000,128,0,88000:0:0:0:0:
448,192,88000,1,0,0:0:0:0:
320,192,89000,1,0,0:0:0:0:
448,192,90000,1,0,0:0:0:0:
320,192,91000,5,0,0:0:0:0:
192,192,91500,1,0,0:0:0:0:
320,192,92000,128,0,92500:0:0:0:0:
64,192,92000,1,0,0:0:0:0:
64,192,92500,128,0,93000:0:0:0:0:
192,192,93000,128,0,93500:0:0:0:0:
320,192,93500,128,0,94000:0:0:0:0:
64,192,94000,128,0,98000:0:0:0:0:
192,192,94000,128,0,98000:0:0:0:0:
