osu file format v14

[General]
AudioFilename: audio.mp3
AudioLeadIn: 0
PreviewTime: 47500
Countdown: 1
SampleSet: Normal
StackLeniency: 0.7
Mode: 3
LetterboxInBreaks: 0
SpecialStyle: 0
WidescreenStoryboard: 0

[Editor]
Bookmarks: 48000,64000
DistanceSpacing: 0.8
BeatDivisor: 4
GridSize: 27
TimelineZoom: 1.7

[Metadata]
Title:The Way of Tomorrow
TitleUnicode:The Way of Tomorrow
Artist:Shaunt
ArtistUnicode:Shaunt
Creator:Stats-Kun
Version:Intense 4K Starlight Path
Source:
Tags:
BeatmapID:2037290
BeatmapSetID:973137

[Difficulty]
HPDrainRate:6
CircleSize:4
OverallDifficulty:4
ApproachRate:5
SliderMultiplier:1.4
SliderTickRate:1

[Events]
//Background and Video events
0,0,"bg1.jpg",0,0
//Break Periods
//Storyboard Layer 0 (Background)
//Storyboard Layer 1 (Fail)
//Storyboard Layer 2 (Pass)
//Storyboard Layer 3 (Foreground)
//Storyboard Sound Samples

[TimingPoints]
0,500,4,1,0,100,1,0

[HitObjects]
192,192,0,5,0,0:0:0:0:
64,192,0,1,0,0:0:0:0:
448,192,0,128,0,1500:0:0:0:0:
192,192,500,1,0,0:0:0:0:
320,192,500,1,0,0:0:0:0:
64,192,1000,1,0,0:0:0:0:
192,192,1000,1,0,0:0:0:0:
320,192,1500,128,0,2500:0:0:0:0:
192,192,1500,1,0,0:0:0:0:
64,192,2000,1,0,0:0:0:0:
192,192,2500,1,0,0:0:0:0:
448,192,2500,128,0,3000:0:0:0:0:
320,192,3000,1,0,0:0:0:0:
64,192,3000,128,0,4000:0:0:0:0:
192,192,3000,128,0,4000:0:0:0:0:
448,192,4000,1,0,0:0:0:0:
320,192,4000,128,0,5500:0:0:0:0:
192,192,4500,1,0,0:0:0:0:
64,192,5000,1,0,0:0:0:0:
448,192,5500,128,0,6000:0:0:0:0:
192,192,5500,1,0,0:0:0:0:
320,192,6000,128,0,6500:0:0:0:0:
64,192,6000,1,0,0:0:0:0:
192,192,6500,1,0,0:0:0:0:
448,192,6500,128,0,7500:0:0:0:0:
64,192,7000,1,0,0:0:0:0:
64,192,7500,1,0,0:0:0:0:
320,192,7500,128,0,8000:0:0:0:0:
448,192,8000,128,0,8500:0:0:0:0:
192,192,8000,1,0,0:0:0:0:
64,192,8500,128,0,9500:0:0:0:0:
320,192,8500,1,0,0:0:0:0:
192,192,9000,1,0,0:0:0:0:
192,192,9500,128,0,10500:0:0:0:0:
320,192,9500,1,0,0:0:0:0:
448,192,10000,1,0,0:0:0:0:
320,192,10500,1,0,0:0:0:0:
64,192,10500,128,0,11000:0:0:0:0:
448,192,11000,128,0,11500:0:0:0:0:
320,192,11000,1,0,0:0:0:0:
320,192,11500,128,0,12000:0:0:0:0:
192,192,11500,1,0,0:0:0:0:
192,192,12000,1,0,0:0:0:0:
64,192,12000,1,0,0:0:0:0:
448,192,12000,128,0,13000:0:0:0:0:
320,192,12500,1,0,0:0:0:0:
192,192,13000,1,0,0:0:0:0:
64,192,13000,1,0,0:0:0:0:
320,192,13000,128,0,13500:0:0:0:0:
448,192,13500,1,0,0:0:0:0:
64,192,13500,128,0,14000:0:0:0:0:
448,192,14000,128,0,15000:0:0:0:0:
192,192,14000,1,0,0:0:0:0:
320,192,14500,1,0,0:0:0:0:
192,192,15000,1,0,0:0:0:0:
320,192,15000,128,0,16000:0:0:0:0:
64,192,15500,1,0,0:0:0:0:
64,192,16000,128,0,17000:0:0:0:0:
192,192,16000,1,0,0:0:0:0:
320,192,16500,1,0,0:0:0:0:
192,192,17000,1,0,0:0:0:0:
320,192,17000,128,0,18000:0:0:0:0:
448,192,17000,128,0,18000:0:0:0:0:
192,192,18000,128,0,18500:0:0:0:0:
64,192,18000,128,0,18500:0:0:0:0:
320,192,18500,128,0,19000:0:0:0:0:
448,192,19000,128,0,20000:0:0:0:0:
192,192,19000,1,0,0:0:0:0:
64,192,19500,1,0,0:0:0:0:
64,192,20000,128,0,22000:0:0:0:0:
192,192,20000,1,0,0:0:0:0:
320,192,20500,1,0,0:0:0:0:
448,192,21000,1,0,0:0:0:0:
320,192,21500,1,0,0:0:0:0:
192,192,22000,128,0,23000:0:0:0:0:
448,192,22000,1,0,0:0:0:0:
320,192,22500,1,0,0:0:0:0:
320,192,23000,128,0,23500:0:0:0:0:
64,192,23000,1,0,0:0:0:0:
448,192,23500,128,0,24000:0:0:0:0:
192,192,23500,1,0,0:0:0:0:
320,192,24000,1,0,0:0:0:0:
192,192,24000,128,0,25000:0:0:0:0:
64,192,24000,128,0,25000:0:0:0:0:
320,192,24500,1,0,0:0:0:0:
320,192,25000,128,0,26000:0:0:0:0:
192,192,25500,1,0,0:0:0:0:
448,192,26000,1,0,0:0:0:0:
64,192,26000,128,0,27000:0:0:0:0:
192,192,26500,1,0,0:0:0:0:
320,192,27000,1,0,0:0:0:0:
448,192,27000,1,0,0:0:0:0:
320,192,27500,1,0,0:0:0:0:
64,192,28000,128,0,29000:0:0:0:0:
192,192,28000,128,0,29000:0:0:0:0:
320,192,28000,1,0,0:0:0:0:
448,192,28500,1,0,0:0:0:0:
320,192,29000,1,0,0:0:0:0:
448,192,29000,128,0,30000:0:0:0:0:
192,192,29500,1,0,0:0:0:0:
64,192,30000,1,0,0:0:0:0:
192,192,30000,128,0,31000:0:0:0:0:
320,192,30500,1,0,0:0:0:0:
448,192,31000,1,0,0:0:0:0:
64,192,31000,128,0,32000:0:0:0:0:
192,192,32000,128,0,32500:0:0:0:0:
320,192,32000,1,0,0:0:0:0:
320,192,32500,128,0,33000:0:0:0:0:
64,192,32500,1,0,0:0:0:0:
448,192,33000,128,0,34000:0:0:0:0:
64,192,33000,1,0,0:0:0:0:
320,192,34000,128,0,34500:0:0:0:0:
192,192,34000,1,0,0:0:0:0:
192,192,34500,128,0,35000:0:0:0:0:
64,192,35000,128,0,35500:0:0:0:0:
192,192,35500,128,0,36000:0:0:0:0:
320,192,36000,128,0,37500:0:0:0:0:
448,192,36000,128,0,37500:0:0:0:0:
64,192,36000,1,0,0:0:0:0:
64,192,36500,1,0,0:0:0:0:
192,192,37000,1,0,0:0:0:0:
192,192,37500,128,0,38000:0:0:0:0:
64,192,38000,128,0,39000:0:0:0:0:
192,192,38500,1,0,0:0:0:0:
192,192,39000,128,0,40000:0:0:0:0:
320,192,39000,128,0,40000:0:0:0:0:
448,192,40000,128,0,41000:0:0:0:0:
64,192,40000,1,0,0:0:0:0:
192,192,40500,1,0,0:0:0:0:
192,192,41000,128,0,42000:0:0:0:0:
320,192,41000,128,0,42000:0:0:0:0:
64,192,42000,128,0,43000:0:0:0:0:
448,192,42000,1,0,0:0:0:0:
320,192,42500,1,0,0:0:0:0:
320,192,43000,128,0,43500:0:0:0:0:
448,192,43000,128,0,43500:0:0:0:0:
192,192,43000,1,0,0:0:0:0:
64,192,43500,128,0,44000:0:0:0:0:
192,192,43500,128,0,44000:0:0:0:0:
320,192,44000,5,0,0:0:0:0:
448,192,44500,1,0,0:0:0:0:
64,192,45000,5,0,0:0:0:0:
192,192,45500,1,0,0:0:0:0:
448,192,46000,128,0,48000:0:0:0:0:
320,192,46000,128,0,48000:0:0:0:0:
192,192,48000,1,0,0:0:0:0:
64,192,48000,1,0,0:0:0:0:
320,192,48125,1,0,0:0:0:0:
448,192,48250,1,0,0:0:0:0:
192,192,48375,1,0,0:0:0:0:
320,192,48500,1,0,0:0:0:0:
64,192,48500,1,0,0:0:0:0:
448,192,48625,1,0,0:0:0:0:
192,192,48750,1,0,0:0:0:0:
320,192,48875,1,0,0:0:0:0:
448,192,49000,1,0,0:0:0:0:
64,192,49000,1,0,0:0:0:0:
192,192,49125,1,0,0:0:0:0:
320,192,49250,1,0,0:0:0:0:
448,192,49375,1,0,0:0:0:0:
192,192,49500,1,0,0:0:0:0:
64,192,49500,1,0,0:0:0:0:
320,192,49625,1,0,0:0:0:0:
448,192,49750,1,0,0:0:0:0:
320,192,49875,1,0,0:0:0:0:
448,192,50000,1,0,0:0:0:0:
192,192,50000,1,0,0:0:0:0:
64,192,50125,1,0,0:0:0:0:
448,192,50250,1,0,0:0:0:0:
192,192,50250,1,0,0:0:0:0:
320,192,50375,1,0,0:0:0:0:
448,192,50500,1,0,0:0:0:0:
192,192,50500,1,0,0:0:0:0:
64,192,50625,1,0,0:0:0:0:
320,192,50750,1,0,0:0:0:0:
192,192,50875,1,0,0:0:0:0:
448,192,51000,1,0,0:0:0:0:
64,192,51000,1,0,0:0:0:0:
320,192,51125,1,0,0:0:0:0:
192,192,51250,1,0,0:0:0:0:
64,192,51375,1,0,0:0:0:0:
320,192,51500,1,0,0:0:0:0:
448,192,51500,1,0,0:0:0:0:
192,192,51625,1,0,0:0:0:0:
320,192,51750,1,0,0:0:0:0:
192,192,51875,1,0,0:0:0:0:
64,192,52000,1,0,0:0:0:0:
448,192,52000,1,0,0:0:0:0:
192,192,52125,1,0,0:0:0:0:
320,192,52250,1,0,0:0:0:0:
64,192,52375,1,0,0:0:0:0:
192,192,52500,1,0,0:0:0:0:
448,192,52500,1,0,0:0:0:0:
320,192,52625,1,0,0:0:0:0:
64,192,52750,1,0,0:0:0:0:
448,192,52750,1,0,0:0:0:0:
192,192,52875,1,0,0:0:0:0:
320,192,53000,1,0,0:0:0:0:
448,192,53000,1,0,0:0:0:0:
64,192,53125,1,0,0:0:0:0:
192,192,53250,1,0,0:0:0:0:
320,192,53375,1,0,0:0:0:0:
64,192,53500,1,0,0:0:0:0:
448,192,53500,1,0,0:0:0:0:
192,192,53625,1,0,0:0:0:0:
320,192,53750,1,0,0:0:0:0:
192,192,53875,1,0,0:0:0:0:
448,192,54000,1,0,0:0:0:0:
320,192,54000,1,0,0:0:0:0:
64,192,54000,1,0,0:0:0:0:
192,192,54125,1,0,0:0:0:0:
320,192,54250,1,0,0:0:0:0:
448,192,54250,1,0,0:0:0:0:
64,192,54375,1,0,0:0:0:0:
192,192,54500,1,0,0:0:0:0:
448,192,54500,1,0,0:0:0:0:
320,192,54625,1,0,0:0:0:0:
64,192,54750,1,0,0:0:0:0:
448,192,54750,1,0,0:0:0:0:
192,192,54875,1,0,0:0:0:0:
320,192,55000,1,0,0:0:0:0:
448,192,55000,1,0,0:0:0:0:
64,192,55125,1,0,0:0:0:0:
192,192,55250,1,0,0:0:0:0:
320,192,55375,1,0,0:0:0:0:
64,192,55500,1,0,0:0:0:0:
448,192,55500,1,0,0:0:0:0:
192,192,55625,1,0,0:0:0:0:
320,192,55750,1,0,0:0:0:0:
192,192,55875,1,0,0:0:0:0:
448,192,56000,1,0,0:0:0:0:
64,192,56000,1,0,0:0:0:0:
320,192,56125,1,0,0:0:0:0:
192,192,56250,1,0,0:0:0:0:
448,192,56375,1,0,0:0:0:0:
320,192,56500,1,0,0:0:0:0:
64,192,56500,1,0,0:0:0:0:
192,192,56625,1,0,0:0:0:0:
448,192,56750,1,0,0:0:0:0:
64,192,56750,1,0,0:0:0:0:
320,192,56875,1,0,0:0:0:0:
192,192,57000,1,0,0:0:0:0:
448,192,57125,1,0,0:0:0:0:
320,192,57250,1,0,0:0:0:0:
192,192,57375,1,0,0:0:0:0:
448,192,57500,1,0,0:0:0:0:
64,192,57500,1,0,0:0:0:0:
320,192,57625,1,0,0:0:0:0:
192,192,57750,1,0,0:0:0:0:
320,192,57875,1,0,0:0:0:0:
64,192,58000,1,0,0:0:0:0:
192,192,58000,1,0,0:0:0:0:
320,192,58125,1,0,0:0:0:0:
448,192,58250,1,0,0:0:0:0:
192,192,58375,1,0,0:0:0:0:
320,192,58500,1,0,0:0:0:0:
64,192,58500,1,0,0:0:0:0:
448,192,58625,1,0,0:0:0:0:
192,192,58750,1,0,0:0:0:0:
320,192,58875,1,0,0:0:0:0:
448,192,59000,1,0,0:0:0:0:
192,192,59125,1,0,0:0:0:0:
320,192,59250,1,0,0:0:0:0:
64,192,59250,1,0,0:0:0:0:
448,192,59375,1,0,0:0:0:0:
320,192,59500,1,0,0:0:0:0:
64,192,59500,1,0,0:0:0:0:
192,192,59625,1,0,0:0:0:0:
320,192,59750,1,0,0:0:0:0:
192,192,59875,1,0,0:0:0:0:
320,192,60000,1,0,0:0:0:0:
448,192,60000,1,0,0:0:0:0:
192,192,60125,1,0,0:0:0:0:
64,192,60250,1,0,0:0:0:0:
320,192,60375,1,0,0:0:0:0:
192,192,60500,1,0,0:0:0:0:
448,192,60500,1,0,0:0:0:0:
64,192,60625,1,0,0:0:0:0:
320,192,60750,1,0,0:0:0:0:
192,192,60875,1,0,0:0:0:0:
64,192,61000,1,0,0:0:0:0:
448,192,61000,1,0,0:0:0:0:
320,192,61125,1,0,0:0:0:0:
448,192,61250,1,0,0:0:0:0:
192,192,61250,1,0,0:0:0:0:
64,192,61375,1,0,0:0:0:0:
448,192,61500,1,0,0:0:0:0:
320,192,61500,1,0,0:0:0:0:
192,192,61625,1,0,0:0:0:0:
64,192,61750,1,0,0:0:0:0:
192,192,61875,1,0,0:0:0:0:
448,192,62000,1,0,0:0:0:0:
64,192,62000,1,0,0:0:0:0:
320,192,62125,1,0,0:0:0:0:
64,192,62250,1,0,0:0:0:0:
192,192,62250,1,0,0:0:0:0:
448,192,62375,1,0,0:0:0:0:
64,192,62500,1,0,0:0:0:0:
320,192,62500,1,0,0:0:0:0:
192,192,62625,1,0,0:0:0:0:
64,192,62750,1,0,0:0:0:0:
448,192,62750,1,0,0:0:0:0:
320,192,62875,1,0,0:0:0:0:
64,192,63000,1,0,0:0:0:0:
192,192,63000,1,0,0:0:0:0:
448,192,63125,1,0,0:0:0:0:
64,192,63250,1,0,0:0:0:0:
320,192,63250,1,0,0:0:0:0:
192,192,63375,1,0,0:0:0:0:
64,192,63500,1,0,0:0:0:0:
448,192,63500,1,0,0:0:0:0:
320,192,63625,1,0,0:0:0:0:
192,192,63750,1,0,0:0:0:0:
320,192,63875,1,0,0:0:0:0:
64,192,64000,1,0,0:0:0:0:
192,192,64000,1,0,0:0:0:0:
320,192,64125,1,0,0:0:0:0:
448,192,64250,1,0,0:0:0:0:
192,192,64375,1,0,0:0:0:0:
64,192,64500,1,0,0:0:0:0:
320,192,64500,1,0,0:0:0:0:
448,192,64625,1,0,0:0:0:0:
192,192,64750,1,0,0:0:0:0:
64,192,64750,1,0,0:0:0:0:
320,192,64875,1,0,0:0:0:0:
448,192,65000,1,0,0:0:0:0:
192,192,65125,1,0,0:0:0:0:
320,192,65250,1,0,0:0:0:0:
64,192,65250,1,0,0:0:0:0:
448,192,65375,1,0,0:0:0:0:
192,192,65500,1,0,0:0:0:0:
320,192,65625,1,0,0:0:0:0:
448,192,65750,1,0,0:0:0:0:
64,192,65750,1,0,0:0:0:0:
320,192,65875,1,0,0:0:0:0:
192,192,66000,1,0,0:0:0:0:
448,192,66000,1,0,0:0:0:0:
64,192,66125,1,0,0:0:0:0:
192,192,66250,1,0,0:0:0:0:
320,192,66375,1,0,0:0:0:0:
192,192,66500,1,0,0:0:0:0:
448,192,66500,1,0,0:0:0:0:
64,192,66625,1,0,0:0:0:0:
320,192,66750,1,0,0:0:0:0:
192,192,66875,1,0,0:0:0:0:
64,192,67000,1,0,0:0:0:0:
448,192,67000,1,0,0:0:0:0:
320,192,67125,1,0,0:0:0:0:
192,192,67250,1,0,0:0:0:0:
448,192,67250,1,0,0:0:0:0:
64,192,67375,1,0,0:0:0:0:
448,192,67500,1,0,0:0:0:0:
320,192,67500,1,0,0:0:0:0:
192,192,67625,1,0,0:0:0:0:
320,192,67750,1,0,0:0:0:0:
192,192,67875,1,0,0:0:0:0:
448,192,68000,1,0,0:0:0:0:
64,192,68000,1,0,0:0:0:0:
192,192,68125,1,0,0:0:0:0:
320,192,68250,1,0,0:0:0:0:
64,192,68375,1,0,0:0:0:0:
448,192,68500,1,0,0:0:0:0:
192,192,68500,1,0,0:0:0:0:
320,192,68625,1,0,0:0:0:0:
448,192,68750,1,0,0:0:0:0:
64,192,68750,1,0,0:0:0:0:
192,192,68875,1,0,0:0:0:0:
320,192,69000,1,0,0:0:0:0:
64,192,69125,1,0,0:0:0:0:
192,192,69250,1,0,0:0:0:0:
320,192,69375,1,0,0:0:0:0:
448,192,69500,1,0,0:0:0:0:
64,192,69500,1,0,0:0:0:0:
192,192,69625,1,0,0:0:0:0:
320,192,69750,1,0,0:0:0:0:
192,192,69875,1,0,0:0:0:0:
64,192,70000,1,0,0:0:0:0:
320,192,70000,1,0,0:0:0:0:
448,192,70000,1,0,0:0:0:0:
192,192,70125,1,0,0:0:0:0:
320,192,70250,1,0,0:0:0:0:
64,192,70375,1,0,0:0:0:0:
192,192,70500,1,0,0:0:0:0:
448,192,70500,1,0,0:0:0:0:
320,192,70625,1,0,0:0:0:0:
64,192,70750,1,0,0:0:0:0:
192,192,70875,1,0,0:0:0:0:
448,192,71000,1,0,0:0:0:0:
320,192,71000,1,0,0:0:0:0:
64,192,71125,1,0,0:0:0:0:
192,192,71250,1,0,0:0:0:0:
448,192,71250,1,0,0:0:0:0:
320,192,71375,1,0,0:0:0:0:
448,192,71500,1,0,0:0:0:0:
64,192,71500,1,0,0:0:0:0:
192,192,71625,1,0,0:0:0:0:
320,192,71750,1,0,0:0:0:0:
192,192,71875,1,0,0:0:0:0:
64,192,72000,1,0,0:0:0:0:
448,192,72000,1,0,0:0:0:0:
320,192,72125,1,0,0:0:0:0:
192,192,72250,1,0,0:0:0:0:
448,192,72375,1,0,0:0:0:0:
64,192,72500,1,0,0:0:0:0:
320,192,72500,1,0,0:0:0:0:
192,192,72625,1,0,0:0:0:0:
448,192,72750,1,0,0:0:0:0:
320,192,72875,1,0,0:0:0:0:
192,192,73000,1,0,0:0:0:0:
448,192,73125,1,0,0:0:0:0:
320,192,73250,1,0,0:0:0:0:
64,192,73250,1,0,0:0:0:0:
192,192,73375,1,0,0:0:0:0:
64,192,73500,1,0,0:0:0:0:
448,192,73500,1,0,0:0:0:0:
320,192,73625,1,0,0:0:0:0:
192,192,73750,1,0,0:0:0:0:
64,192,73750,1,0,0:0:0:0:
320,192,73875,1,0,0:0:0:0:
192,192,74000,1,0,0:0:0:0:
64,192,74000,1,0,0:0:0:0:
320,192,74125,1,0,0:0:0:0:
448,192,74250,1,0,0:0:0:0:
192,192,74375,1,0,0:0:0:0:
64,192,74500,1,0,0:0:0:0:
320,192,74500,1,0,0:0:0:0:
448,192,74625,1,0,0:0:0:0:
192,192,74750,1,0,0:0:0:0:
320,192,74875,1,0,0:0:0:0:
448,192,75000,1,0,0:0:0:0:
64,192,75000,1,0,0:0:0:0:
192,192,75125,1,0,0:0:0:0:
64,192,75250,1,0,0:0:0:0:
320,192,75250,1,0,0:0:0:0:
448,192,75375,1,0,0:0:0:0:
64,192,75500,1,0,0:0:0:0:
320,192,75500,1,0,0:0:0:0:
192,192,75625,1,0,0:0:0:0:
320,192,75750,1,0,0:0:0:0:
192,192,75875,1,0,0:0:0:0:
448,192,76000,1,0,0:0:0:0:
320,192,76000,1,0,0:0:0:0:
64,192,76000,1,0,0:0:0:0:
192,192,76125,1,0,0:0:0:0:
64,192,76250,1,0,0:0:0:0:
320,192,76375,1,0,0:0:0:0:
448,192,76500,1,0,0:0:0:0:
192,192,76500,1,0,0:0:0:0:
64,192,76625,1,0,0:0:0:0:
320,192,76750,1,0,0:0:0:0:
192,192,76875,1,0,0:0:0:0:
448,192,77000,1,0,0:0:0:0:
64,192,77000,1,0,0:0:0:0:
320,192,77125,1,0,0:0:0:0:
192,192,77250,1,0,0:0:0:0:
448,192,77250,1,0,0:0:0:0:
64,192,77375,1,0,0:0:0:0:
320,192,77500,1,0,0:0:0:0:
448,192,77500,1,0,0:0:0:0:
192,192,77625,1,0,0:0:0:0:
320,192,77750,1,0,0:0:0:0:
192,192,77875,1,0,0:0:0:0:
64,192,78000,1,0,0:0:0:0:
448,192,78000,1,0,0:0:0:0:
320,192,78125,1,0,0:0:0:0:
192,192,78250,1,0,0:0:0:0:
448,192,78375,1,0,0:0:0:0:
320,192,78500,1,0,0:0:0:0:
64,192,78500,1,0,0:0:0:0:
192,192,78625,1,0,0:0:0:0:
448,192,78750,1,0,0:0:0:0:
64,192,78750,1,0,0:0:0:0:
320,192,78875,1,0,0:0:0:0:
192,192,79000,1,0,0:0:0:0:
448,192,79125,1,0,0:0:0:0:
320,192,79250,1,0,0:0:0:0:
64,192,79250,1,0,0:0:0:0:
192,192,79375,1,0,0:0:0:0:
448,192,79500,1,0,0:0:0:0:
64,192,79500,1,0,0:0:0:0:
320,192,79625,1,0,0:0:0:0:
192,192,79750,1,0,0:0:0:0:
320,192,79875,1,0,0:0:0:0:
64,192,80000,1,0,0:0:0:0:
192,192,80125,1,0,0:0:0:0:
320,192,80250,1,0,0:0:0:0:
64,192,80375,1,0,0:0:0:0:
448,192,80500,1,0,0:0:0:0:
192,192,80500,1,0,0:0:0:0:
320,192,80625,1,0,0:0:0:0:
64,192,80750,1,0,0:0:0:0:
192,192,80875,1,0,0:0:0:0:
320,192,81000,1,0,0:0:0:0:
64,192,81125,1,0,0:0:0:0:
192,192,81250,1,0,0:0:0:0:
320,192,81375,1,0,0:0:0:0:
448,192,81500,1,0,0:0:0:0:
192,192,81500,1,0,0:0:0:0:
320,192,81625,1,0,0:0:0:0:
192,192,81750,1,0,0:0:0:0:
64,192,81875,1,0,0:0:0:0:
320,192,82000,1,0,0:0:0:0:
192,192,82125,1,0,0:0:0:0:
64,192,82250,1,0,0:0:0:0:
320,192,82375,1,0,0:0:0:0:
448,192,82500,1,0,0:0:0:0:
192,192,82500,1,0,0:0:0:0:
64,192,82625,1,0,0:0:0:0:
320,192,82750,1,0,0:0:0:0:
192,192,82875,1,0,0:0:0:0:
64,192,83000,1,0,0:0:0:0:
192,192,83125,1,0,0:0:0:0:
320,192,83250,1,0,0:0:0:0:
192,192,83375,1,0,0:0:0:0:
448,192,83500,1,0,0:0:0:0:
64,192,83500,1,0,0:0:0:0:
192,192,83625,1,0,0:0:0:0:
320,192,83750,1,0,0:0:0:0:
64,192,83875,1,0,0:0:0:0:
192,192,84000,1,0,0:0:0:0:
320,192,84125,1,0,0:0:0:0:
64,192,84250,1,0,0:0:0:0:
192,192,84375,1,0,0:0:0:0:
448,192,84500,1,0,0:0:0:0:
320,192,84500,1,0,0:0:0:0:
192,192,84625,1,0,0:0:0:0:
448,192,84750,1,0,0:0:0:0:
64,192,84750,1,0,0:0:0:0:
192,192,84875,1,0,0:0:0:0:
320,192,85000,1,0,0:0:0:0:
192,192,85125,1,0,0:0:0:0:
64,192,85250,1,0,0:0:0:0:
320,192,85375,1,0,0:0:0:0:
448,192,85500,1,0,0:0:0:0:
192,192,85500,1,0,0:0:0:0:
64,192,85625,1,0,0:0:0:0:
192,192,85750,1,0,0:0:0:0:
320,192,85875,1,0,0:0:0:0:
64,192,86000,1,0,0:0:0:0:
192,192,86125,1,0,0:0:0:0:
320,192,86250,1,0,0:0:0:0:
64,192,86375,1,0,0:0:0:0:
448,192,86500,1,0,0:0:0:0:
192,192,86500,1,0,0:0:0:0:
320,192,86625,1,0,0:0:0:0:
448,192,86750,1,0,0:0:0:0:
64,192,86750,1,0,0:0:0:0:
192,192,86875,1,0,0:0:0:0:
320,192,87000,1,0,0:0:0:0:
64,192,87125,1,0,0:0:0:0:
192,192,87250,1,0,0:0:0:0:
320,192,87375,1,0,0:0:0:0:
448,192,87500,1,0,0:0:0:0:
192,192,87500,1,0,0:0:0:0:
320,192,87625,1,0,0:0:0:0:
192,192,87750,1,0,0:0:0:0:
64,192,87875,1,0,0:0:0:0:
448,192,88000,1,0,0:0:0:0:
320,192,88125,1,0,0:0:0:0:
192,192,88250,1,0,0:0:0:0:
64,192,88375,1,0,0:0:0:0:
448,192,88500,1,0,0:0:0:0:
320,192,88625,1,0,0:0:0:0:
192,192,88750,1,0,0:0:0:0:
448,192,88875,1,0,0:0:0:0:
64,192,89000,1,0,0:0:0:0:
192,192,89125,1,0,0:0:0:0:
320,192,89250,1,0,0:0:0:0:
64,192,89375,1,0,0:0:0:0:
192,192,89500,1,0,0:0:0:0:
64,192,89625,1,0,0:0:0:0:
320,192,89750,1,0,0:0:0:0:
448,192,89875,1,0,0:0:0:0:
64,192,90000,1,0,0:0:0:0:
192,192,90125,1,0,0:0:0:0:
320,192,90250,1,0,0:0:0:0:
448,192,90375,1,0,0:0:0:0:
192,192,90500,1,0,0:0:0:0:
320,192,90625,1,0,0:0:0:0:
448,192,90750,1,0,0:0:0:0:
64,192,90875,1,0,0:0:0:0:
320,192,91000,1,0,0:0:0:0:
192,192,91125,1,0,0:0:0:0:
64,192,91250,1,0,0:0:0:0:
448,192,91375,1,0,0:0:0:0:
320,192,91500,1,0,0:0:0:0:
192,192,91625,1,0,0:0:0:0:
64,192,91750,1,0,0:0:0:0:
192,192,91875,1,0,0:0:0:0:
448,192,92000,128,0,92500:0:0:0:0:
320,192,92000,128,0,92500:0:0:0:0:
64,192,92500,128,0,93000:0:0:0:0:
192,192,92500,1,0,0:0:0:0:
192,192,93000,128,0,93500:0:0:0:0:
320,192,93000,1,0,0:0:0:0:
320,192,93500,128,0,94000:0:0:0:0:
448,192,93500,1,0,0:0:0:0:
64,192,94000,128,0,98000:0:0:0:0:
192,192,94000,128,0,98000:0:0:0:0:
448,192,94000,1,0,0:0:0:0:
