osu file format v14

[General]
AudioFilename: audio.mp3
AudioLeadIn: 0
PreviewTime: -1
Countdown: 1
SampleSet: None
StackLeniency: 0.7
Mode: 3
LetterboxInBreaks: 0
SpecialStyle: 0
WidescreenStoryboard: 0

[Editor]
Bookmarks: 72000
DistanceSpacing: 0.8
BeatDivisor: 2
GridSize: 8
TimelineZoom: 1

[Metadata]
Title:Free Government
TitleUnicode:Free Government
Artist:Shaunt
ArtistUnicode:Shaunt
Creator:Stats-Kun
Version:4K Anarchy
Source:
Tags:
BeatmapID:2042571
BeatmapSetID:975956

[Difficulty]
HPDrainRate:5
CircleSize:4
OverallDifficulty:5
ApproachRate:5
SliderMultiplier:1.4
SliderTickRate:1

[Events]
//Background and Video events
0,0,"freegov.jpg",0,0
//Break Periods
//Storyboard Layer 0 (Background)
//Storyboard Layer 1 (Fail)
//Storyboard Layer 2 (Pass)
//Storyboard Layer 3 (Foreground)
//Storyboard Sound Samples

[TimingPoints]
0,375,4,1,0,100,1,0
48000,375,4,1,0,100,1,1
72000,-100,4,1,0,100,0,0

[HitObjects]
192,192,0,128,0,3000:0:0:0:0:
320,192,0,1,0,0:0:0:0:
448,192,750,1,0,0:0:0:0:
64,192,1500,1,0,0:0:0:0:
320,192,1687,1,0,0:0:0:0:
448,192,2250,1,0,0:0:0:0:
320,192,2812,1,0,0:0:0:0:
64,192,3000,128,0,6000:0:0:0:0:
448,192,3000,1,0,0:0:0:0:
192,192,3750,1,0,0:0:0:0:
320,192,4500,1,0,0:0:0:0:
448,192,4687,1,0,0:0:0:0:
192,192,5250,1,0,0:0:0:0:
448,192,5812,1,0,0:0:0:0:
448,192,6000,1,0,0:0:0:0:
320,192,6000,128,0,9000:0:0:0:0:
448,192,6750,1,0,0:0:0:0:
64,192,7500,1,0,0:0:0:0:
192,192,7687,1,0,0:0:0:0:
448,192,8250,1,0,0:0:0:0:
64,192,8625,1,0,0:0:0:0:
448,192,8812,1,0,0:0:0:0:
192,192,9000,128,0,12000:0:0:0:0:
64,192,9000,1,0,0:0:0:0:
448,192,9750,1,0,0:0:0:0:
320,192,10500,1,0,0:0:0:0:
448,192,11250,1,0,0:0:0:0:
448,192,11812,1,0,0:0:0:0:
320,192,12000,128,0,15000:0:0:0:0:
64,192,12000,1,0,0:0:0:0:
64,192,12562,1,0,0:0:0:0:
192,192,12750,1,0,0:0:0:0:
448,192,13500,1,0,0:0:0:0:
192,192,14062,1,0,0:0:0:0:
64,192,14250,1,0,0:0:0:0:
448,192,15000,128,0,18000:0:0:0:0:
192,192,15000,1,0,0:0:0:0:
192,192,15562,1,0,0:0:0:0:
320,192,15750,1,0,0:0:0:0:
64,192,16500,1,0,0:0:0:0:
320,192,17062,1,0,0:0:0:0:
192,192,17250,1,0,0:0:0:0:
64,192,18000,128,0,21000:0:0:0:0:
192,192,18000,1,0,0:0:0:0:
448,192,18562,1,0,0:0:0:0:
320,192,18750,1,0,0:0:0:0:
192,192,19500,1,0,0:0:0:0:
320,192,20062,1,0,0:0:0:0:
448,192,20250,1,0,0:0:0:0:
192,192,21000,128,0,24000:0:0:0:0:
320,192,21000,1,0,0:0:0:0:
320,192,21562,1,0,0:0:0:0:
64,192,21750,1,0,0:0:0:0:
448,192,22500,1,0,0:0:0:0:
64,192,23062,1,0,0:0:0:0:
320,192,23250,1,0,0:0:0:0:
320,192,24000,128,0,27000:0:0:0:0:
448,192,24000,1,0,0:0:0:0:
64,192,24375,1,0,0:0:0:0:
192,192,24562,1,0,0:0:0:0:
448,192,24750,1,0,0:0:0:0:
192,192,25500,1,0,0:0:0:0:
448,192,25500,1,0,0:0:0:0:
448,192,26062,1,0,0:0:0:0:
192,192,26250,1,0,0:0:0:0:
64,192,26812,1,0,0:0:0:0:
192,192,27000,128,0,30000:0:0:0:0:
448,192,27000,1,0,0:0:0:0:
448,192,27375,1,0,0:0:0:0:
320,192,27562,1,0,0:0:0:0:
64,192,27750,1,0,0:0:0:0:
320,192,28500,1,0,0:0:0:0:
448,192,28500,1,0,0:0:0:0:
320,192,29062,1,0,0:0:0:0:
448,192,29250,1,0,0:0:0:0:
320,192,29625,1,0,0:0:0:0:
448,192,29812,1,0,0:0:0:0:
320,192,30000,128,0,33000:0:0:0:0:
64,192,30000,1,0,0:0:0:0:
448,192,30375,1,0,0:0:0:0:
192,192,30562,1,0,0:0:0:0:
64,192,30750,1,0,0:0:0:0:
192,192,31500,1,0,0:0:0:0:
448,192,31500,1,0,0:0:0:0:
64,192,32062,1,0,0:0:0:0:
192,192,32250,1,0,0:0:0:0:
64,192,32812,1,0,0:0:0:0:
192,192,33000,128,0,36000:0:0:0:0:
448,192,33000,1,0,0:0:0:0:
64,192,33375,1,0,0:0:0:0:
320,192,33562,1,0,0:0:0:0:
64,192,33750,1,0,0:0:0:0:
320,192,34500,1,0,0:0:0:0:
448,192,34500,1,0,0:0:0:0:
320,192,35062,1,0,0:0:0:0:
448,192,35250,1,0,0:0:0:0:
448,192,35625,1,0,0:0:0:0:
64,192,36000,128,0,39000:0:0:0:0:
320,192,36000,1,0,0:0:0:0:
192,192,36750,1,0,0:0:0:0:
448,192,37500,1,0,0:0:0:0:
320,192,37500,1,0,0:0:0:0:
192,192,37687,1,0,0:0:0:0:
448,192,38250,1,0,0:0:0:0:
448,192,38812,1,0,0:0:0:0:
192,192,39000,128,0,42000:0:0:0:0:
320,192,39000,1,0,0:0:0:0:
448,192,39750,1,0,0:0:0:0:
320,192,40500,1,0,0:0:0:0:
64,192,40500,1,0,0:0:0:0:
448,192,40687,1,0,0:0:0:0:
320,192,41250,1,0,0:0:0:0:
448,192,41812,1,0,0:0:0:0:
64,192,42000,128,0,45000:0:0:0:0:
320,192,42000,1,0,0:0:0:0:
320,192,42750,1,0,0:0:0:0:
320,192,43500,1,0,0:0:0:0:
448,192,43500,1,0,0:0:0:0:
192,192,43687,1,0,0:0:0:0:
320,192,44250,1,0,0:0:0:0:
192,192,44625,1,0,0:0:0:0:
320,192,44812,1,0,0:0:0:0:
192,192,45000,1,0,0:0:0:0:
448,192,45000,128,0,48000:0:0:0:0:
320,192,45750,1,0,0:0:0:0:
64,192,46500,1,0,0:0:0:0:
192,192,46500,1,0,0:0:0:0:
320,192,47250,1,0,0:0:0:0:
64,192,47812,1,0,0:0:0:0:
192,192,48000,128,0,51000:0:0:0:0:
320,192,48000,1,0,0:0:0:0:
64,192,48000,1,0,0:0:0:0:
448,192,48187,1,0,0:0:0:0:
64,192,48187,1,0,0:0:0:0:
320,192,48562,1,0,0:0:0:0:
448,192,48562,1,0,0:0:0:0:
448,192,49125,1,0,0:0:0:0:
320,192,49125,1,0,0:0:0:0:
64,192,49500,1,0,0:0:0:0:
320,192,49500,1,0,0:0:0:0:
448,192,49500,1,0,0:0:0:0:
448,192,49687,1,0,0:0:0:0:
64,192,49687,1,0,0:0:0:0:
320,192,50062,1,0,0:0:0:0:
448,192,50062,1,0,0:0:0:0:
64,192,50437,1,0,0:0:0:0:
320,192,50437,1,0,0:0:0:0:
64,192,50625,1,0,0:0:0:0:
320,192,50625,1,0,0:0:0:0:
64,192,51000,128,0,54000:0:0:0:0:
320,192,51000,1,0,0:0:0:0:
448,192,51000,1,0,0:0:0:0:
192,192,51187,1,0,0:0:0:0:
448,192,51187,1,0,0:0:0:0:
320,192,51562,1,0,0:0:0:0:
448,192,51562,1,0,0:0:0:0:
192,192,52125,1,0,0:0:0:0:
448,192,52125,1,0,0:0:0:0:
192,192,52500,1,0,0:0:0:0:
320,192,52500,1,0,0:0:0:0:
448,192,52500,1,0,0:0:0:0:
192,192,52687,1,0,0:0:0:0:
320,192,52687,1,0,0:0:0:0:
448,192,53062,1,0,0:0:0:0:
320,192,53062,1,0,0:0:0:0:
192,192,53437,1,0,0:0:0:0:
320,192,53437,1,0,0:0:0:0:
192,192,53625,1,0,0:0:0:0:
320,192,53625,1,0,0:0:0:0:
192,192,54000,1,0,0:0:0:0:
320,192,54000,1,0,0:0:0:0:
448,192,54000,128,0,57000:0:0:0:0:
64,192,54187,1,0,0:0:0:0:
320,192,54187,1,0,0:0:0:0:
192,192,54562,1,0,0:0:0:0:
320,192,54562,1,0,0:0:0:0:
64,192,55125,1,0,0:0:0:0:
320,192,55125,1,0,0:0:0:0:
64,192,55500,1,0,0:0:0:0:
192,192,55500,1,0,0:0:0:0:
320,192,55500,1,0,0:0:0:0:
64,192,55687,1,0,0:0:0:0:
192,192,55687,1,0,0:0:0:0:
192,192,56062,1,0,0:0:0:0:
320,192,56062,1,0,0:0:0:0:
64,192,56437,1,0,0:0:0:0:
320,192,56437,1,0,0:0:0:0:
64,192,56625,1,0,0:0:0:0:
320,192,56625,1,0,0:0:0:0:
320,192,57000,128,0,60000:0:0:0:0:
192,192,57000,1,0,0:0:0:0:
64,192,57000,1,0,0:0:0:0:
192,192,57187,1,0,0:0:0:0:
448,192,57187,1,0,0:0:0:0:
64,192,57562,1,0,0:0:0:0:
192,192,57562,1,0,0:0:0:0:
192,192,58125,1,0,0:0:0:0:
448,192,58125,1,0,0:0:0:0:
64,192,58500,1,0,0:0:0:0:
192,192,58500,1,0,0:0:0:0:
448,192,58500,1,0,0:0:0:0:
64,192,58687,1,0,0:0:0:0:
448,192,58687,1,0,0:0:0:0:
192,192,59062,1,0,0:0:0:0:
448,192,59062,1,0,0:0:0:0:
64,192,59437,1,0,0:0:0:0:
192,192,59437,1,0,0:0:0:0:
64,192,59625,1,0,0:0:0:0:
192,192,59625,1,0,0:0:0:0:
192,192,60000,128,0,63000:0:0:0:0:
64,192,60000,1,0,0:0:0:0:
448,192,60000,1,0,0:0:0:0:
64,192,60187,1,0,0:0:0:0:
448,192,60187,1,0,0:0:0:0:
320,192,60562,1,0,0:0:0:0:
448,192,60562,1,0,0:0:0:0:
320,192,61125,1,0,0:0:0:0:
64,192,61125,1,0,0:0:0:0:
64,192,61500,1,0,0:0:0:0:
320,192,61500,1,0,0:0:0:0:
448,192,61500,1,0,0:0:0:0:
320,192,61687,1,0,0:0:0:0:
448,192,61687,1,0,0:0:0:0:
320,192,62062,1,0,0:0:0:0:
64,192,62062,1,0,0:0:0:0:
320,192,62437,1,0,0:0:0:0:
448,192,62437,1,0,0:0:0:0:
320,192,62625,1,0,0:0:0:0:
448,192,62625,1,0,0:0:0:0:
64,192,63000,128,0,66000:0:0:0:0:
320,192,63000,1,0,0:0:0:0:
448,192,63000,1,0,0:0:0:0:
192,192,63187,1,0,0:0:0:0:
448,192,63187,1,0,0:0:0:0:
320,192,63562,1,0,0:0:0:0:
448,192,63562,1,0,0:0:0:0:
192,192,64125,1,0,0:0:0:0:
320,192,64125,1,0,0:0:0:0:
192,192,64500,1,0,0:0:0:0:
448,192,64500,1,0,0:0:0:0:
320,192,64500,1,0,0:0:0:0:
320,192,64687,1,0,0:0:0:0:
448,192,64687,1,0,0:0:0:0:
192,192,65062,1,0,0:0:0:0:
320,192,65062,1,0,0:0:0:0:
320,192,65437,1,0,0:0:0:0:
448,192,65437,1,0,0:0:0:0:
320,192,65625,1,0,0:0:0:0:
448,192,65625,1,0,0:0:0:0:
448,192,66000,128,0,69000:0:0:0:0:
192,192,66000,1,0,0:0:0:0:
320,192,66000,1,0,0:0:0:0:
64,192,66187,1,0,0:0:0:0:
320,192,66187,1,0,0:0:0:0:
192,192,66562,1,0,0:0:0:0:
320,192,66562,1,0,0:0:0:0:
64,192,67125,1,0,0:0:0:0:
192,192,67125,1,0,0:0:0:0:
64,192,67500,1,0,0:0:0:0:
192,192,67500,1,0,0:0:0:0:
320,192,67500,1,0,0:0:0:0:
192,192,67687,1,0,0:0:0:0:
320,192,67687,1,0,0:0:0:0:
64,192,68062,1,0,0:0:0:0:
192,192,68062,1,0,0:0:0:0:
192,192,68437,1,0,0:0:0:0:
320,192,68437,1,0,0:0:0:0:
192,192,68625,1,0,0:0:0:0:
320,192,68625,1,0,0:0:0:0:
320,192,69000,128,0,72000:0:0:0:0:
192,192,69000,1,0,0:0:0:0:
64,192,69000,1,0,0:0:0:0:
64,192,69187,1,0,0:0:0:0:
448,192,69187,1,0,0:0:0:0:
192,192,69562,1,0,0:0:0:0:
448,192,69562,1,0,0:0:0:0:
64,192,70125,1,0,0:0:0:0:
192,192,70125,1,0,0:0:0:0:
448,192,70500,1,0,0:0:0:0:
192,192,70500,1,0,0:0:0:0:
64,192,70500,1,0,0:0:0:0:
192,192,70687,1,0,0:0:0:0:
448,192,70687,1,0,0:0:0:0:
64,192,71062,1,0,0:0:0:0:
192,192,71062,1,0,0:0:0:0:
192,192,71437,1,0,0:0:0:0:
448,192,71437,1,0,0:0:0:0:
192,192,71625,1,0,0:0:0:0:
448,192,71625,1,0,0:0:0:0:
192,192,72000,128,0,75000:0:0:0:0:
64,192,72000,1,0,0:0:0:0:
64,192,75000,128,0,78000:0:0:0:0:
320,192,75000,1,0,0:0:0:0:
448,192,78000,128,0,81000:0:0:0:0:
192,192,78000,1,0,0:0:0:0:
320,192,81000,128,0,84000:0:0:0:0:
192,192,81000,1,0,0:0:0:0:
192,192,84000,128,0,87000:0:0:0:0:
448,192,84000,1,0,0:0:0:0:
64,192,87000,128,0,90000:0:0:0:0:
320,192,87000,1,0,0:0:0:0:
320,192,90000,128,0,93000:0:0:0:0:
192,192,90000,1,0,0:0:0:0:
192,192,93000,128,0,96000:0:0:0:0:
64,192,93000,1,0,0:0:0:0:
